<?xml version="1.0" standalone="no"?>
<!DOCTYPE svg PUBLIC "-//W3C//DTD SVG 1.1//EN" "http://www.w3.org/Graphics/SVG/1.1/DTD/svg11.dtd" >
<svg xmlns="http://www.w3.org/2000/svg">
<metadata></metadata>
<defs>
<font id="thaisans_neue_blackregular" horiz-adv-x="0" >
<font-face units-per-em="2048" ascent="1577" descent="-471" />
<missing-glyph horiz-adv-x="836" />
<glyph unicode="&#x3b;&#x3b;arm&#x3b;&#x3b;" horiz-adv-x="2715" d="M97 1613v104h415v208q-59 0 -107 62.5t-48 144.5q0 89 63 149t144 60q99 0 153.5 -55t54.5 -154q0 -48 -17 -93t-54 -77.5t-85 -36.5v-208h417v-104h-417v-313l279 -624h-104l-227 520l-226 -520h-104l278 624v313h-415zM201 0q0 31 10.5 61.5t31 58t57 45t82.5 17.5 q78 0 130 -52t52 -130q0 -102 -70 -151l57 -266l144 287h52l142 -287l91 547h130l-41 -221l28 52l169 42q0 136 15.5 230t48 152t80.5 83.5t117 25.5q75 0 115.5 -50t40.5 -132h-52q0 27 -8.5 50.5t-26.5 39t-43 15.5q-97 0 -140 -94.5t-43 -293.5l191 46l23 -98l-214 -54 v-105q0 -76 -1 -134t-4.5 -122t-10 -111.5t-17.5 -96t-26 -83t-36.5 -65.5t-49 -49.5t-63 -29.5t-77.5 -11q-82 0 -132 40.5t-50 115.5h52q0 -37 31 -57.5t73 -20.5q38 0 68 10.5t51.5 37t36.5 52.5t24.5 77t15 88t8 109t3 117.5t0.5 132.5v78l-207 -52l-89 -469h-67 l-183 391l-182 -391h-67l-84 417l47 31q-2 -2 -15 -2q-8 -3 -37 -3q-21 0 -44 5.5t-48 19t-44.5 33.5t-32 52t-12.5 72zM305 0q0 -33 20 -55t57 -22q78 0 78 77t-78 77q-37 0 -57 -22t-20 -55zM460 2132q0 -44 24.5 -74t79.5 -30t79.5 30t24.5 74q0 56 -29.5 80t-74.5 24 t-74.5 -24t-29.5 -80zM1059 676l592 1613h448l520 -1613h-416l-158 495h-700l-183 -495h-103zM1397 1300h603l-283 884zM1732 52l52 260h78l-78 -260h-52zM1805 2211l34 -102l60 102h-94zM1857 2062l21 -72l135 221h-65zM1862 52l52 260h79l-79 -260h-52zM1896 1941l29 -94 l145 245l-28 87zM1951 1769l15 -52l146 241l-15 52zM1988 1655l15 -52l146 241l-17 52zM2021 -260q0 129 40 243t112.5 183.5t159.5 69.5q69 0 122.5 -24t89.5 -70t55 -114.5t19 -157.5q0 -248 -88.5 -371.5t-249.5 -123.5q-51 0 -96.5 21t-83 63t-59 114.5t-21.5 166.5z M2026 1534l16 -52l145 240l-18 55zM2060 1430l18 -62l146 242l-18 63zM2097 1311l18 -52l143 242l-14 52zM2125 -208l364 156q-3 42 -20 91q-41 91 -136 91q-113 0 -171 -169q-25 -69 -37 -169zM2125 -338q0 -41 16 -81.5t53 -71t87 -30.5q30 0 56 10t44.5 25.5t34.5 38 t26.5 45.5t20.5 51q23 75 26 169zM2132 1194l17 -42l145 237l-13 50zM2167 1092l15 -42l146 240l-15 45zM2201 988l15 -49l149 237l-17 55zM2234 884l19 -60l145 245l-18 57zM2268 780l8 -26h34l122 206l-18 62zM2351 754h52l63 107l-19 52zM2445 754h52l-18 58z" />
<glyph unicode=" "  horiz-adv-x="836" />
<glyph unicode="&#x09;" horiz-adv-x="836" />
<glyph unicode="&#xa0;" horiz-adv-x="836" />
<glyph unicode="!" horiz-adv-x="527" d="M97 0v307h312v-307h-312zM97 419v1061h312v-1061h-312z" />
<glyph unicode="&#x22;" horiz-adv-x="943" d="M97 936v541h298v-541h-298zM509 936v541h300v-541h-300z" />
<glyph unicode="#" horiz-adv-x="1653" d="M97 375l74 278h199l33 112h-197l67 280h208l94 355h314l-95 -355h197l99 355h315l-99 -355h223l-75 -280h-221l-34 -112h226l-80 -278h-221l-102 -375h-315l102 375h-198l-104 -375h-314l100 375h-196zM685 653h199l34 112h-200z" />
<glyph unicode="$" horiz-adv-x="1203" d="M97 112v260q60 -29 144 -60q163 -59 297 -59q67 0 115 16.5t72.5 43.5t35.5 55.5t11 58.5q0 37 -19 67t-51.5 50t-75.5 38.5t-91.5 33t-100 34.5t-100 41t-92 54.5t-76 74t-51 99.5t-18.5 131q0 136 96.5 232.5t258.5 134.5v201h307v-198q107 -16 201 -60q31 -13 73 -44 v-257q-68 27 -127 43q-176 45 -305 45q-25 0 -57.5 -8t-62.5 -20.5t-51 -30.5t-21 -35q0 -31 23 -56t62 -44t90 -36.5t107 -38.5t112 -46t106.5 -61.5t89.5 -82.5t62.5 -113t23.5 -148q0 -72 -18 -137t-55 -124.5t-103 -105t-155 -68.5v-210h-304v195q-122 0 -249 67 q-46 21 -104 68z" />
<glyph unicode="%" horiz-adv-x="1668" d="M97 1147q0 122 38 221.5t115 160t179 60.5q98 0 171.5 -56.5t111 -151t37.5 -210.5q0 -91 -22 -172.5t-63.5 -144.5t-105.5 -99.5t-141 -36.5q-79 0 -141 34.5t-100.5 94.5t-58.5 136.5t-20 163.5zM216 0l963 1693h342l-962 -1693h-343zM402 1201q0 -10 0.5 -15.5 t0.5 -15.5v-18q0 -69 3.5 -104t8 -41t12.5 -6q3 0 5.5 2t5.5 10.5t5 24.5t3 45.5t1 70.5q0 50 -0.5 77.5t-3 46t-6 24.5t-10.5 6q-18 0 -21.5 -18.5t-3.5 -88.5zM898 377q0 73 13 140t41 125t67 101t95 67t122 24q96 0 168.5 -59t109.5 -156.5t37 -218.5q0 -117 -42 -217 t-117.5 -160t-168.5 -60q-101 0 -176 56.5t-112 149t-37 208.5zM1201 387q0 -146 25 -146q22 0 22 146v62t-2 50t-7 42t-13 13q-16 0 -20.5 -40.5t-4.5 -126.5z" />
<glyph unicode="&#x26;" horiz-adv-x="1619" d="M97 392q0 138 74 231.5t219 161.5q-70 45 -117 120t-47 167q0 69 32 133.5t87.5 113t135.5 77.5t172 29q58 0 112.5 -13.5t99 -36.5t81 -54.5t61.5 -67.5t38.5 -76t13.5 -80q0 -33 -5.5 -62t-12.5 -51.5t-23.5 -46.5t-29 -39.5t-38.5 -38t-42 -35.5t-49 -39q-7 -5 -11 -8 q44 -35 84 -65.5t52 -40.5t31 -29t52 -57q11 25 20 48t16 40t13 38t10 32t8 33t5.5 29t4.5 32t3.5 31t3.5 35.5t3 37.5l6 104h320q-11 -174 -68.5 -370t-155.5 -332q28 -36 84.5 -49t160.5 -13v-281q-144 0 -262 29.5t-177 92.5q-113 -78 -218.5 -112.5t-245.5 -34.5 q-82 0 -155.5 15t-137.5 48t-110 81.5t-72 118t-26 154.5zM409 392q0 -22 5 -41t11.5 -32.5t20 -24t23 -17t28 -11t27.5 -7t29 -3.5t25 -1h23q45 0 76 3t57.5 12t41 16t46 25.5t52.5 28.5q-6 8 -17 24q-34 48 -50.5 70t-43 53.5t-49.5 50t-57 41t-79 46.5q-9 -8 -24.5 -18 t-30 -20t-31.5 -23t-31.5 -29t-26.5 -36t-18.5 -47.5t-6.5 -59.5zM538 1072q0 -26 5 -47t15 -37t16.5 -24t19.5 -20t14 -13q71 33 105 72t34 66q0 31 -24.5 50.5t-69.5 19.5q-30 0 -54 -7.5t-36 -19t-18.5 -22t-6.5 -18.5z" />
<glyph unicode="'" horiz-adv-x="527" d="M97 936v541h312v-541h-312z" />
<glyph unicode="(" horiz-adv-x="807" d="M57 549q0 182 46 356.5t122.5 315.5t183.5 266h345q-79 -98 -147 -207t-125 -230.5t-90 -251t-33 -247.5q0 -108 23 -216t59 -198t90.5 -183.5t107.5 -166.5t120 -154h-348q-90 113 -154 216t-110 214.5t-68 231t-22 254.5z" />
<glyph unicode=")" horiz-adv-x="807" d="M18 -367q399 480 399 913q0 107 -22.5 216t-59 202.5t-89.5 190t-107 174t-119 158.5h344q78 -94 141 -197t112 -221t76 -251t27 -269q0 -509 -358 -916h-344z" />
<glyph unicode="*" horiz-adv-x="750" d="M97 1064l210 109l-210 110l85 117l148 -141l-28 205h145l-30 -208l153 144l85 -117l-213 -110l213 -109l-85 -118l-153 144l30 -209h-145l28 206l-148 -141z" />
<glyph unicode="+" horiz-adv-x="1151" d="M97 457v280h325v332h285v-332h326v-280h-326v-301h-285v301h-325z" />
<glyph unicode="," horiz-adv-x="529" d="M-169 -286q76 28 132 73q134 107 134 275v219h317v-219q0 -165 -121 -275q-48 -46 -116 -73h-346z" />
<glyph unicode="-" horiz-adv-x="878" d="M97 494v255h662v-255h-662z" />
<glyph unicode="." horiz-adv-x="527" d="M97 0v281h312v-281h-312z" />
<glyph unicode="/" horiz-adv-x="831" d="M18 0l458 1690h309l-460 -1690h-307z" />
<glyph unicode="0" horiz-adv-x="1256" d="M57 673q0 225 67.5 397t195 267.5t296.5 95.5q121 0 224.5 -52t177.5 -145.5t116 -231t42 -302.5q0 -108 -19.5 -205.5t-55.5 -177.5t-88 -144.5t-116.5 -108.5t-141.5 -67.5t-162 -23.5q-122 0 -222.5 49.5t-169.5 140t-106.5 220.5t-37.5 288zM370 682 q0 -102 14.5 -180t38 -123.5t55.5 -74.5t62.5 -39t65.5 -10q23 0 46 5.5t48.5 19t48.5 35t43.5 56t35.5 78t24 105.5t9 136q0 88 -11 160.5t-31 120.5t-44.5 83t-54 54t-57.5 27.5t-57 8.5q-28 0 -54 -8.5t-53.5 -27.5t-50 -54.5t-40.5 -85t-28 -122.5t-10 -164z" />
<glyph unicode="1" horiz-adv-x="774" d="M57 898v275q119 42 231 135q52 44 99 92h271v-1400h-315v986q-40 -27 -110 -46.5t-176 -41.5z" />
<glyph unicode="2" horiz-adv-x="1060" d="M57 0v211q0 53 20.5 106t55 98.5t79.5 91t94.5 87.5t99 83t94.5 82t79.5 81t55 83.5t20.5 86.5q0 134 -153 134q-84 0 -198 -39t-195 -98v264q39 41 94.5 76t136 60.5t162.5 25.5q106 0 195 -33t147.5 -89t91 -130t32.5 -156q0 -86 -22.5 -158.5t-61.5 -126.5t-87 -100.5 t-103 -88.5t-105.5 -81t-99.5 -88.5t-80 -100.5h611v-281h-963z" />
<glyph unicode="3" horiz-adv-x="1087" d="M97 80v287q60 -50 161.5 -81t191.5 -31q14 0 30.5 1.5t41 5t47.5 9.5t46.5 17t40.5 25.5t28 36t11 48.5q0 105 -102 142.5t-367 37.5v283q106 -10 208 3q42 5 77 15t66 27.5t48.5 46t17.5 64.5t-11.5 61t-25.5 37.5t-37.5 19.5t-38 8t-36.5 1q-216 0 -345 -96v268 q203 117 345 117q42 0 86.5 -8t89.5 -24.5t86.5 -39t78 -54t63 -68.5t42 -83.5t15.5 -96.5q0 -65 -21 -119t-56 -89.5t-82 -60.5t-97 -36.5t-103 -14.5q57 -7 109.5 -19.5t109.5 -38t98 -60.5t67.5 -89t26.5 -121q0 -71 -21.5 -135.5t-67 -119.5t-110.5 -95.5t-157 -63 t-201 -22.5q-84 0 -187.5 34t-165.5 71z" />
<glyph unicode="4" horiz-adv-x="1115" d="M18 302v231l622 867h276v-812h158v-286h-158l-3 -302h-310v302h-585zM417 588h186v263z" />
<glyph unicode="5" horiz-adv-x="1035" d="M97 55v312q59 -38 96 -55q112 -54 189 -54h41t40 1.5t40.5 4.5t36 9t34 14.5t27.5 22t23 30.5t13.5 40t5.5 52q0 18 -3 36t-9.5 38.5t-17 38.5t-28 35t-39.5 29t-53.5 19t-68.5 7q-93 0 -223 -27q-19 -3 -104 -23v815h769v-281h-457v-213h60q56 0 111.5 -11t111 -33.5 t102.5 -60.5t83.5 -87.5t57 -119.5t20.5 -152q0 -100 -34.5 -183.5t-103 -147.5t-180 -100t-255.5 -36q-136 0 -285 80z" />
<glyph unicode="6" horiz-adv-x="1125" d="M57 603q0 168 31.5 306t86.5 234t130.5 162t163.5 97t186 31q41 0 103 -7.5t123.5 -20.5t91.5 -27v-286q-48 17 -109 29q-127 26 -209 23q-201 -9 -265 -233q114 28 216 28q64 0 128.5 -23.5t120.5 -67t99.5 -101t68.5 -131.5t25 -152q0 -104 -39.5 -195.5t-106 -156 t-157.5 -101t-191 -36.5q-79 0 -152 25.5t-135.5 77.5t-109.5 126t-73.5 176.5t-26.5 222.5zM385 460q0 -40 8 -73t19.5 -53.5t28.5 -36t32.5 -23.5t33 -12.5t27.5 -5.5t20 -1q18 0 40 6.5t47.5 22t46.5 38t35 59.5t14 83q0 194 -183 194q-48 0 -82.5 -17.5t-52.5 -47.5 t-26 -63t-8 -70z" />
<glyph unicode="7" horiz-adv-x="1050" d="M18 1119v281l994 -3v-79l-484 -1318h-325l429 1119h-614z" />
<glyph unicode="8" horiz-adv-x="1099" d="M57 400q0 114 37.5 193.5t126.5 158.5q-65 64 -88.5 133.5t-23.5 149.5q0 70 31 140t85 127.5t136.5 94t176.5 36.5q87 0 168.5 -38t137.5 -96t90 -128.5t34 -135.5q0 -36 -6 -67.5t-13 -54t-24.5 -54t-29.5 -49.5t-39 -58q51 -40 87.5 -94.5t56.5 -120.5t20 -137 q0 -88 -31 -165t-89 -135t-148.5 -91.5t-202.5 -33.5q-122 0 -217 33t-154.5 92t-90 135t-30.5 165zM370 432q0 -45 12 -78.5t30 -51.5t42.5 -29t44 -14.5t40 -3.5t39 2.5t43.5 13t43 28t30.5 50.5t12.5 78q0 47 -14 83.5t-38.5 57t-54 30.5t-62.5 10q-19 0 -38.5 -3 t-44 -14.5t-42.5 -30t-30.5 -51.5t-12.5 -77zM422 1020q0 -40 11.5 -67t30.5 -39.5t37 -17t37 -4.5q10 0 22.5 2t30.5 10.5t32.5 21.5t24.5 37.5t10 56.5q0 6 -2 17t-9 30.5t-19 36t-35.5 28.5t-54.5 12q-33 0 -57.5 -12.5t-35 -28t-16.5 -37.5t-6.5 -30t-0.5 -16z" />
<glyph unicode="9" horiz-adv-x="1122" d="M57 941q0 89 28 168t76 137t110.5 101t133.5 64.5t144 21.5q112 0 206 -51.5t156.5 -140.5t97 -209t34.5 -257q0 -389 -167 -594.5t-478 -205.5q-65 0 -142.5 14.5t-123.5 35.5v282q33 -14 79 -26q99 -26 181 -26q3 0 24.5 -1t35 -0.5t40 4.5t45.5 12.5t45.5 26t47 42 t42 63t38.5 87.5q-130 -25 -219 -25q-67 0 -133 26t-119.5 73t-94.5 106.5t-64 130.5t-23 141zM370 941q0 -29 2.5 -53t13.5 -52.5t29.5 -48t52.5 -32.5t81 -13q37 0 66.5 11.5t47 31t30 40t18 42t7.5 34.5t2 20q0 19 -2 38t-7 47t-17 50.5t-30 43.5t-47.5 32.5t-67.5 11.5 q-39 0 -70.5 -15t-51 -38t-33 -51.5t-19 -53.5t-5.5 -45z" />
<glyph unicode=":" horiz-adv-x="527" d="M97 0v305h312v-305h-312zM97 730v308h312v-308h-312z" />
<glyph unicode=";" horiz-adv-x="529" d="M-169 -286q79 47 132 93q134 123 134 255v238h317v-238q0 -132 -121 -252q-54 -54 -116 -96h-346zM99 728v307h315v-307h-315z" />
<glyph unicode="&#x3c;" horiz-adv-x="1117" d="M57 414v159l1020 556v-320l-565 -312l565 -268v-313z" />
<glyph unicode="=" horiz-adv-x="1151" d="M97 255v273h936v-273h-936zM97 638v273h936v-273h-936z" />
<glyph unicode="&#x3e;" horiz-adv-x="1117" d="M18 -84v313l565 268l-565 312v320l1020 -556v-159z" />
<glyph unicode="?" horiz-adv-x="995" d="M97 1010v256q32 50 82 84q118 83 285 83q80 0 156 -29t132 -77.5t90 -114t34 -135.5q0 -48 -13.5 -92t-35 -76t-50 -63t-57.5 -54.5t-57 -48t-50 -46t-35.5 -47t-13.5 -52.5v-179h-311v206q-3 41 13 80t43 70.5t60.5 61t68 57t62.5 54t46 56t18 58.5q0 80 -142 80 q-114 0 -232 -68q-33 -17 -93 -64zM253 0v307h311v-307h-311z" />
<glyph unicode="@" horiz-adv-x="1700" d="M97 549q0 100 28.5 196t80 176.5t124.5 148.5t158.5 115.5t185.5 73.5t202 26q149 0 283.5 -48.5t232.5 -132.5t155.5 -202.5t57.5 -251.5q0 -100 -33 -198t-85.5 -170t-121 -116t-137.5 -44q-40 0 -72 5t-58 17.5t-38.5 20t-35.5 26.5t-28 22q-3 -1 -18 -14.5t-32 -24.5 t-44 -24t-66.5 -20.5t-86.5 -7.5q-77 0 -147 32t-121 87t-81 133t-30 167q0 59 13 112.5t36.5 96.5t55.5 79.5t69 63t77 45.5t81 28t80 9q72 0 152.5 -42t103.5 -90l21 103h236l-83 -425q-11 -49 -11 -97q0 -44 11 -69t41 -25q42 0 80 32.5t62.5 81t39 104t14.5 102.5 q0 62 -23 130t-71.5 134.5t-115 120t-161.5 86.5t-202 33q-109 0 -209 -37.5t-174 -100.5t-129 -141.5t-83 -163t-28 -162.5q0 -84 24.5 -165.5t75 -153.5t120.5 -126.5t167 -86.5t208 -32q183 0 375 77v-137q-211 -71 -375 -71q-153 0 -291.5 52.5t-239.5 143.5t-160.5 221 t-59.5 278zM682 541q0 -37 9 -64.5t20.5 -40.5t26.5 -20.5t23 -9t14 -1.5q28 0 50.5 10.5t36.5 25t24 36t14.5 38t7 37.5t3 27.5t0.5 13.5q0 134 -70 141q-40 0 -70 -15t-46.5 -36.5t-26.5 -50t-13 -50t-3 -41.5z" />
<glyph unicode="A" horiz-adv-x="1377" d="M18 0l523 1400h265l526 -1400h-322l-126 330h-427l-127 -330h-312zM559 611h223l-109 315z" />
<glyph unicode="B" horiz-adv-x="1177" d="M97 0v1400h439q100 0 184 -28.5t141 -77.5t88 -115t31 -141q0 -63 -20.5 -114t-53 -82.5t-75.5 -52t-85 -27.5q-33 -5 -67 -5h-19q36 0 71.5 -4t76 -14.5t75.5 -26.5t68 -42t56.5 -59.5t37.5 -80.5t14 -103q0 -85 -31 -157t-83.5 -121t-122 -83t-144.5 -50t-152 -16h-429 zM409 281h100q108 0 173 41t65 105q0 20 -4 38.5t-14 38.5t-28.5 35.5t-44.5 28.5t-66.5 20.5t-90.5 7.5h-90v-315zM409 879h57q202 0 202 133q0 18 -4 33t-11 25.5t-17 18.5t-20.5 13.5t-23.5 9t-23.5 5t-22.5 2.5q-8 1 -15 1h-5q-8 0 -17 -0.5t-10 -0.5h-90v-240z" />
<glyph unicode="C" horiz-adv-x="1268" d="M57 687q0 162 56 302.5t150.5 237t222 151.5t268.5 55q153 0 272.5 -28t199.5 -65l-110 -271q-49 24 -113.5 41.5t-127.5 25.5t-121 8q-70 0 -128.5 -22t-96.5 -56t-67.5 -80t-45.5 -89.5t-26 -88.5t-12.5 -73t-2.5 -48q0 -124 46.5 -222t133.5 -154t199 -56 q152 0 360 107l109 -268q-84 -49 -216.5 -84t-269.5 -35q-146 0 -273 56t-216 151.5t-140 227t-51 277.5z" />
<glyph unicode="D" horiz-adv-x="1372" d="M97 0v1400h415q137 0 252 -23t214.5 -74.5t168 -130t107.5 -195.5t39 -265q0 -112 -30 -212t-83.5 -177.5t-127.5 -139.5t-162.5 -102.5t-188 -62t-204.5 -21.5zM409 281h88q96 0 177 24t137 65.5t94.5 97t56.5 117t18 127.5q0 93 -23.5 165t-75.5 127.5t-142 85 t-216 29.5h-114v-838z" />
<glyph unicode="E" horiz-adv-x="1047" d="M97 0v1400h831v-281h-519v-276h467v-287h-467v-275h519v-281h-831z" />
<glyph unicode="F" horiz-adv-x="969" d="M97 0v1400h831v-281h-519v-276h467v-287h-467v-556h-312z" />
<glyph unicode="G" horiz-adv-x="1398" d="M57 673q0 121 35.5 234.5t103.5 208t159.5 166t210.5 111.5t251 40q182 0 330 -60q49 -20 106 -60v-322q-69 62 -203.5 107.5t-269.5 45.5q-67 0 -125 -18.5t-99.5 -49.5t-75 -72t-54.5 -85t-34.5 -89.5t-18.5 -85.5q-4 -28 -4 -52q0 -10 1 -19q0 -28 4 -59t12.5 -66.5 t23.5 -69.5t35.5 -67.5t50 -61t65 -49t82.5 -33.5t101 -12h47h40t29.5 1.5t33 4.5t31.5 8.5t43 13.5v226h-286v282h598v-694q-93 -54 -249.5 -88t-286.5 -34q-109 0 -212 31.5t-188.5 92.5t-150 144.5t-100.5 194.5t-36 235z" />
<glyph unicode="H" horiz-adv-x="1333" d="M97 0v1400h312v-534h494l-3 534h314v-1400h-311v583h-494l-4 -583h-308z" />
<glyph unicode="I" horiz-adv-x="527" d="M97 0v1400h312v-1400h-312z" />
<glyph unicode="J" horiz-adv-x="859" d="M18 57l109 239q5 -2 11 -4.5t12 -4t11.5 -3.5t11.5 -4t11 -4q69 -21 112 -21q31 0 54.5 12.5t42 41t27.5 79t9 121.5v891h313v-891q0 -121 -28.5 -216.5t-74.5 -154.5t-109 -98t-127.5 -54t-134.5 -15q-72 0 -174 42q-43 18 -76 44z" />
<glyph unicode="K" horiz-adv-x="1236" d="M97 0v1400h312v-487l400 487h382l-416 -524l419 -876h-335l-295 627l-155 -183v-444h-312z" />
<glyph unicode="L" horiz-adv-x="969" d="M97 0v1400h312v-1119h519v-281h-831z" />
<glyph unicode="M" horiz-adv-x="1697" d="M97 0v1400h335l395 -903l414 903h338v-1400h-313v752l-353 -752h-179l-325 730v-733z" />
<glyph unicode="N" horiz-adv-x="1412" d="M97 0v1400h314l567 -862v862h315v-1400h-318l-566 853v-853h-312z" />
<glyph unicode="O" horiz-adv-x="1515" d="M57 682q0 158 48 295t135 238t217.5 159.5t286.5 58.5q127 0 237.5 -37.5t193 -104t141.5 -156.5t89 -198.5t30 -226.5q0 -159 -47.5 -294t-136 -233t-223 -153t-300.5 -55q-153 0 -280 55t-212 150.5t-132 224.5t-47 277zM370 682q0 -91 21 -165t56.5 -122t82.5 -80 t96.5 -46t101.5 -14q49 0 95.5 10t91.5 31.5t82.5 58t66 85t44.5 118t16 152.5q0 58 -9 109t-25.5 91.5t-38.5 75t-49.5 60t-57 44.5t-62 31t-64.5 17.5t-64 5.5q-58 0 -111.5 -15t-104 -50t-87.5 -87t-59 -131.5t-22 -178.5z" />
<glyph unicode="P" horiz-adv-x="1112" d="M97 0v1400h412q69 0 133 -11.5t123 -34t107.5 -60t84.5 -86.5t56 -116t20 -146q0 -108 -31 -193t-83 -140t-124.5 -90.5t-151.5 -50.5t-169 -15h-65l-4 -457h-308zM409 739h65q72 0 122.5 15.5t76.5 45.5t36.5 64t10.5 80q0 22 -1 36t-5 34.5t-12 33.5t-23.5 28 t-37.5 23.5t-55.5 14t-76.5 5.5h-100v-380z" />
<glyph unicode="Q" horiz-adv-x="1515" d="M57 682q0 156 50 295t137 239t209.5 158.5t261.5 58.5q135 0 251 -37.5t201.5 -104t146 -156.5t91 -198t30.5 -227q0 -112 -25.5 -215t-71 -184.5t-105.5 -144t-131 -101.5q219 -93 219 -247h-299q0 67 -38 108t-95 61q-55 -12 -199 -12q-134 0 -251.5 55t-201 149.5 t-132 225.5t-48.5 277zM370 682q0 -91 20 -164.5t54.5 -122t81.5 -81.5t98 -47t106 -14q58 0 112 14t106 48t90.5 85t62 131t23.5 179q0 77 -15.5 141.5t-43.5 111.5t-65.5 82t-84 56.5t-96 32t-104.5 10.5q-35 0 -72.5 -11t-77 -33t-74 -59.5t-62 -87t-43.5 -119.5 t-16 -152z" />
<glyph unicode="R" horiz-adv-x="1286" d="M97 0v1400h449q72 0 141 -15.5t133 -49t112 -81t77 -116.5t29 -150q0 -53 -21.5 -101.5t-55.5 -83t-74 -60t-79 -37.5q-33 -10 -60 -9h-9q99 -36 288 -343l214 -354h-365l-169 300q-33 58 -69 102.5t-64.5 68t-56 38t-42.5 18.5t-25 4h-41l-4 -531h-308zM409 817l107 2 q109 2 156.5 43t47.5 126q0 125 -204 128l-107 3v-302z" />
<glyph unicode="S" horiz-adv-x="1203" d="M97 114v266q56 -38 114 -62q131 -60 265 -60q39 0 66 1t60.5 4.5t56 10.5t46 19.5t37 30t22 43.5t8.5 60q0 38 -19 69t-51.5 51t-75.5 39t-91.5 33t-100 34t-100 40.5t-92 53.5t-76 73t-51 99t-18.5 131q0 75 38 144t103 120t157.5 81t195.5 30q212 0 342 -55 q64 -27 100 -54v-276q-93 39 -133 52q-142 52 -309 52q-58 0 -99.5 -14.5t-59.5 -35t-18 -44.5q0 -30 19 -54.5t51 -41t75 -33t91 -31t99 -35t99.5 -44t91.5 -59.5t75 -79.5t51 -107t19 -138.5q0 -79 -20 -146.5t-62.5 -124t-104.5 -97t-149.5 -62.5t-194.5 -22 q-196 0 -338 69q-71 29 -119 70z" />
<glyph unicode="T" horiz-adv-x="1087" d="M18 1119v281h1027v-281h-350v-1119h-313v1119h-364z" />
<glyph unicode="U" horiz-adv-x="1333" d="M97 546v854h312v-844q0 -75 13 -130.5t33.5 -88t52.5 -51.5t63 -25t72 -6q33 0 63 5t68 22.5t65 47t45.5 84t18.5 127.5v859h311v-836q0 -125 -28.5 -224t-79.5 -167t-123.5 -113t-157.5 -65t-185 -20q-118 0 -216 34t-171.5 102.5t-114.5 179.5t-41 255z" />
<glyph unicode="V" horiz-adv-x="1377" d="M18 1400h320l335 -914l337 914h322l-526 -1400h-265z" />
<glyph unicode="W" horiz-adv-x="1911" d="M18 1400h320l242 -864l266 864h221l218 -851l263 851h316l-437 -1400h-303l-180 759l-216 -759h-304z" />
<glyph unicode="X" horiz-adv-x="1377" d="M18 0l466 700l-434 700h367l254 -425l279 425h371l-468 -700l468 -700h-371l-282 429l-283 -429h-367z" />
<glyph unicode="Y" horiz-adv-x="1283" d="M18 1400h327l266 -541l289 541h333l-466 -882v-518h-317v518z" />
<glyph unicode="Z" horiz-adv-x="1177" d="M18 0v141l661 978h-609v281h1067v-139l-661 -980h638l-4 -281h-1092z" />
<glyph unicode="[" horiz-adv-x="688" d="M97 -367v1861h553v-282h-258v-1298h258v-281h-553z" />
<glyph unicode="\" horiz-adv-x="831" d="M18 1690h307l460 -1690h-309z" />
<glyph unicode="]" horiz-adv-x="688" d="M18 -86h255v1298h-255v282h552v-1861h-552v281z" />
<glyph unicode="^" horiz-adv-x="1471" d="M97 502l509 989h161l573 -989h-325l-320 546l-278 -546h-320z" />
<glyph unicode="_" horiz-adv-x="1151" d="M97 124h936v-254h-936v254z" />
<glyph unicode="`" horiz-adv-x="911" d="M97 1561h358l317 -417h-322z" />
<glyph unicode="a" horiz-adv-x="1107" d="M97 834q32 70 90 121q142 122 349 122q130 0 231.5 -50t160.5 -145.5t63 -223.5v-658h-301v166q-7 -7 -32.5 -38t-44 -50t-48.5 -43.5t-64 -37t-72 -12.5q-89 0 -164 45t-118 121t-43 164q5 54 22.5 98t44.5 72t58 48.5t68.5 30.5t70.5 14.5t69 4.5q124 0 193 18 q47 15 55 20q0 51 -11.5 88t-26.5 56t-39 29.5t-41 12.5t-41 2q-146 0 -255 -72q-41 -23 -97 -72zM405 315q0 -25 9 -41t26 -23.5t33 -9.5t39 -2q28 0 59 6.5t65 25.5t54 47v87q-8 -1 -28.5 -5t-31.5 -5q-55 -8 -136 -8q-26 0 -57.5 -21t-31.5 -51z" />
<glyph unicode="b" horiz-adv-x="1229" d="M97 0v1480h298v-611q14 57 47 109q79 109 203 109q46 0 99.5 -14t110.5 -41.5t109.5 -73.5t94 -103t66 -136.5t24.5 -169.5q0 -86 -17.5 -161t-48.5 -131.5t-72.5 -102.5t-88.5 -77t-98 -52t-99.5 -30.5t-94.5 -9.5q-132 0 -196 104q-29 52 -39 104v-193h-298zM395 351 q25 -26 62 -46q81 -47 151 -47q52 0 95 16t77 49.5t52.5 90t18.5 132.5q0 80 -33 141.5t-88 94t-122 32.5q-64 0 -144 -47q-29 -16 -69 -47v-369z" />
<glyph unicode="c" horiz-adv-x="990" d="M57 504q0 100 29 190t80.5 159t119 120t146.5 77.5t161 26.5q127 0 248 -55q30 -13 109 -54l-123 -268q-28 21 -75 54q-83 55 -156 55q-43 0 -79.5 -14.5t-61.5 -39.5t-44.5 -55.5t-31 -65.5t-17 -67.5t-5.5 -62.5q0 -38 8 -73t27 -68t46.5 -57t69.5 -38.5t93 -14.5 q70 0 153 54q65 51 73 57l123 -270q-70 -36 -121 -55q-130 -54 -231 -54q-82 0 -160 20t-147 62t-121 102.5t-82.5 146.5t-30.5 188z" />
<glyph unicode="d" horiz-adv-x="1229" d="M57 549q0 93 30 178t78 147.5t108 109t122 70t117 23.5q128 0 227 -104q50 -54 73 -104v611h298v-1480h-298v193q-25 -53 -65 -104q-87 -102 -219 -102q-63 0 -128.5 24t-127 72.5t-109.5 114t-77 157t-29 194.5zM357 546q0 -72 22 -137t69.5 -109.5t110.5 -44.5 q109 0 195 47q31 17 58 49v369q-29 29 -58 45q-81 47 -193 47q-46 0 -86 -25t-65 -64.5t-39 -85.5t-14 -91z" />
<glyph unicode="e" horiz-adv-x="1092" d="M57 516q0 85 21.5 167t64.5 153t101.5 125t138 85t168.5 31q114 0 202.5 -39.5t144 -110t84 -164t28.5 -204.5l5 -145h-651q0 -24 15 -50.5t43 -52t76.5 -42t107.5 -16.5q129 0 200 49q32 18 63 49l104 -221q-40 -41 -107 -73q-124 -70 -296 -70q-113 0 -206.5 34.5 t-162 100t-106.5 166.5t-38 228zM380 685h322q0 9 -9.5 28t-26.5 41t-48 38.5t-67 16.5q-33 0 -66.5 -16t-55.5 -37.5t-35.5 -41.5t-13.5 -29z" />
<glyph unicode="f" horiz-adv-x="787" d="M18 775v273h166l3 66q2 66 12 119.5t35 106t64 88t102 57t146 21.5q65 0 146 -24q9 -4 27.5 -10t27.5 -10v-289q-3 2 -57 33q-62 35 -92 35l-7 0.5t-12.5 0.5t-15.5 -1t-18 -4.5t-17.5 -8.5t-17 -15t-13.5 -23t-9.5 -32.5t-3.5 -43.5v-66h263v-273h-261l-2 -775h-297v775 h-169z" />
<glyph unicode="g" horiz-adv-x="1229" d="M57 516q0 85 22 164t60 139t87 109.5t104.5 81.5t112 49.5t108.5 17.5q130 0 208 -104q34 -47 53 -104l-3 195h301v-973q0 -281 -151 -414.5t-447 -133.5q-142 0 -271 72q-61 30 -114 75l109 243q24 -31 71 -60q97 -57 205 -57q32 0 54 1t56 6t57.5 14.5t50.5 28t43.5 44 t27.5 65.5t11 90v128q-15 -56 -47 -107q-79 -104 -204 -104q-71 0 -143 24t-136.5 71.5t-115 111t-80 148.5t-29.5 179zM357 516q0 -34 12 -77.5t35 -86.5t62 -72.5t85 -29.5q119 0 198 43q35 19 63 47v372q-33 29 -63 45q-86 47 -198 47q-47 0 -85.5 -27t-61.5 -70 t-35 -92.5t-12 -98.5z" />
<glyph unicode="h" horiz-adv-x="1151" d="M97 0v1480h298v-637q21 53 69 117q87 117 184 117q91 0 165.5 -34t121.5 -91.5t72.5 -130.5t25.5 -153v-668h-299v676q0 51 -43 87t-135 36q-51 0 -112 -37q-16 -10 -49 -37v-725h-298z" />
<glyph unicode="i" horiz-adv-x="514" d="M97 0v1064h298v-1064h-298zM97 1199v295h298v-295h-298z" />
<glyph unicode="j" horiz-adv-x="514" d="M-283 -354l106 237q20 -19 45 -32q50 -30 80 -30q25 0 42 2.5t39 15t35 35.5t23 67t10 106v1017h298v-987q0 -114 -27.5 -209.5t-82 -168t-143 -113.5t-202.5 -41q-94 0 -161 50q-34 23 -62 51zM97 1196v298h298v-298h-298z" />
<glyph unicode="k" horiz-adv-x="1099" d="M97 0v1480h298v-778l302 365h358l-332 -404l315 -663h-310l-200 427l-133 -164v-263h-298z" />
<glyph unicode="l" horiz-adv-x="514" d="M97 0v1480h298v-1480h-298z" />
<glyph unicode="m" horiz-adv-x="1789" d="M97 0v1064h298v-221q0 5 9 28.5t31 58.5t52.5 67.5t79 56t104.5 23.5q62 0 117 -22.5t95 -61t67 -77.5t48 -84q4 5 14.5 25.5t22.5 40.5t30 46.5t40.5 48.5t49 42t60.5 31t70 11q74 0 137 -24t108 -64t77 -92.5t47.5 -111t15.5 -117.5v-668h-300v676q0 11 -3 24.5t-13 31 t-26.5 31.5t-46 23.5t-67.5 9.5q-33 0 -114 -37q-28 -12 -67 -34v-725h-299v676q0 51 -42.5 84.5t-135.5 33.5q-35 0 -101 -35q-57 -32 -60 -34v-725h-298z" />
<glyph unicode="n" horiz-adv-x="1151" d="M97 0v1064h298v-221q27 69 69 117q44 54 95 85.5t120 31.5q79 0 147 -36.5t112.5 -95t69.5 -131t25 -146.5v-668h-299l-4 676q0 13 -8 32t-23.5 39.5t-45 34.5t-65.5 14q-47 0 -128 -37q-31 -15 -65 -34v-725h-298z" />
<glyph unicode="o" horiz-adv-x="1201" d="M57 518q0 118 36.5 219.5t104 177t170 119t228.5 43.5q122 0 222.5 -43t166 -117t101 -171.5t35.5 -207.5q0 -117 -38 -219t-107 -176.5t-172 -117.5t-226 -43q-117 0 -216 43t-165 116t-103 170.5t-37 206.5zM357 518q0 -23 2.5 -46t10 -49.5t18 -50.5t28 -46t40 -38 t54 -25.5t68.5 -9.5q57 0 101 17t70.5 44.5t43 66.5t23 77t6.5 80q0 31 -4.5 61t-14.5 61.5t-27.5 57.5t-41.5 47t-59.5 32.5t-78.5 11.5q-57 0 -101 -20t-69.5 -50t-41.5 -70.5t-21.5 -76.5t-5.5 -74z" />
<glyph unicode="p" horiz-adv-x="1229" d="M97 -417v1481h298v-195q21 47 62 104q79 104 159 104q109 0 206 -38.5t170 -109t115 -177.5t42 -236q0 -93 -31.5 -179t-82.5 -149t-114 -110.5t-126.5 -71.5t-118.5 -24q-130 0 -219 104q-40 51 -62 107v-610h-298zM395 340q25 -24 65 -47q84 -45 183 -45q13 0 34.5 6.5 t52 25t56.5 47t44 78t18 111.5q0 57 -10 103t-25 76t-37.5 52t-43 33t-46.5 17.5t-42 7.5t-36 1q-64 0 -144 -47q-41 -22 -69 -47v-372z" />
<glyph unicode="q" horiz-adv-x="1229" d="M57 516q0 103 26 194t70 157t100.5 114t119.5 72t126 24q131 0 235 -104q49 -49 78 -104v195h298v-1481h-298v610q-21 -62 -53 -107q-78 -104 -208 -104q-68 0 -138 24t-133.5 71.5t-113.5 110.5t-79.5 148.5t-29.5 179.5zM357 516q0 -62 18 -111.5t43.5 -78t56 -47 t52.5 -25t37 -6.5q89 0 178 45q37 19 70 47v372q-37 29 -70 47q-86 47 -157 47q-10 0 -23 -1t-36.5 -7.5t-44.5 -17.5t-44.5 -33t-40.5 -51.5t-28 -76t-11 -103.5z" />
<glyph unicode="r" horiz-adv-x="767" d="M97 0v1064h298v-297q18 85 55 156q78 159 185 159q18 0 60 -18q15 -11 30 -19v-301q-33 13 -40 18q-46 20 -84 20q-64 0 -144 -85q-35 -35 -62 -84v-613h-298z" />
<glyph unicode="s" horiz-adv-x="995" d="M97 70v265q57 -35 96 -49q123 -47 216 -47q169 0 169 84q0 27 -21 48t-54.5 34t-77 29t-88.5 30.5t-88 40.5t-77 58t-54.5 84t-20.5 118q0 65 26.5 120.5t68 91.5t94.5 62t104 37t96 11q161 0 258 -52q43 -20 80 -49v-258q-64 33 -104 47q-128 47 -234 47 q-39 0 -65 -21.5t-26 -35.5q0 -17 20.5 -30.5t54.5 -23t77.5 -23.5t88.5 -29.5t88 -44.5t77 -66t54.5 -95t20.5 -130q0 -159 -120.5 -253.5t-321.5 -94.5q-99 0 -228 45q-37 12 -109 50z" />
<glyph unicode="t" horiz-adv-x="787" d="M18 775v273h169l-3 432h302v-432h261v-273h-261v-398q0 -23 3 -42.5t8 -32t11.5 -22t14 -14.5t14 -8t14 -3.5t12.5 -0.5t9.5 0.5t5.5 0.5q58 0 112 28q31 14 57 32v-286q-9 -5 -47 -21q-64 -21 -141 -21q-94 0 -167 31.5t-117.5 85.5t-67.5 122t-23 146v403h-166z" />
<glyph unicode="u" horiz-adv-x="1151" d="M97 392v672h298v-635q0 -35 10.5 -62.5t25.5 -43.5t35.5 -26t38 -13t33.5 -3q48 0 130 37q33 14 66 39v707h299v-1051h-299v205q-9 -50 -42 -109q-67 -106 -195 -106q-74 0 -138.5 21.5t-112 59t-81.5 87t-51 106.5t-17 115z" />
<glyph unicode="v" horiz-adv-x="1146" d="M18 1064h336l219 -593l218 593h309l-380 -1064h-293z" />
<glyph unicode="w" horiz-adv-x="1583" d="M18 1064h330l143 -546l180 546h224l158 -546l161 546h323l-336 -1064h-273l-153 526l-172 -526h-285z" />
<glyph unicode="x" horiz-adv-x="1151" d="M18 0l364 531l-364 533h346l190 -282l193 282h343l-365 -546l367 -518h-343l-195 271l-195 -271h-341z" />
<glyph unicode="y" horiz-adv-x="1206" d="M18 1064h325l265 -595l226 595h326l-478 -1202q-60 -153 -150.5 -235t-226.5 -82q-107 0 -206 46q-40 18 -70 47l103 235q20 -15 55 -29q50 -28 94 -28q52 0 83.5 39t59.5 122l28 88z" />
<glyph unicode="z" horiz-adv-x="1042" d="M97 0v141l459 655h-410v268h855v-148l-457 -651h449v-265h-896z" />
<glyph unicode="{" horiz-adv-x="722" d="M57 395v255q2 0 7 1q22 1 32 2t27.5 3.5t26 5.5t21 8t18.5 12t13.5 17.5t10.5 24t5.5 31t2.5 39.5v303q0 67 11 120.5t41.5 105t81 86.5t133 59.5t194.5 30.5v-282h-6q-150 2 -150 -125v-312q0 -50 -21 -95t-56 -78t-77 -57t-89 -38q45 -12 86.5 -34.5t77.5 -55.5 t57.5 -79t21.5 -98v-302q0 -102 97 -116q38 -5 59 2v-281q-96 0 -173 18.5t-130 52t-89 81t-52.5 103.5t-16.5 122v311q0 23 -2.5 41.5t-5.5 33t-11 26t-14 19t-18.5 13.5t-21 9.5t-26 7t-28 5t-32.5 3.5q-3 1 -5 1z" />
<glyph unicode="|" horiz-adv-x="516" d="M97 -328v1946h301v-1946h-301z" />
<glyph unicode="}" horiz-adv-x="722" d="M18 -171q47 -9 79 2q80 21 80 112v302q0 52 21 98.5t56 79.5t77 56t86 33q-46 13 -87.5 37t-76.5 57.5t-55.5 78.5t-20.5 95v312q0 127 -153 125h-6v282q111 -6 194 -30.5t133.5 -59.5t81 -86.5t41.5 -105t11 -120.5v-303q0 -96 48 -123q27 -14 111 -20h1h1h1l1 -1h1h2 v-255q-1 0 -4 -1q-23 -2 -33.5 -3.5t-28.5 -5t-26.5 -7t-21.5 -9.5t-19 -13.5t-14 -19t-11 -25.5t-5.5 -33t-2.5 -42v-311q0 -83 -27 -150.5t-81.5 -119t-144 -79.5t-208.5 -28v281z" />
<glyph unicode="~" horiz-adv-x="1149" d="M97 429q0 46 7.5 93t27.5 98t50.5 89.5t81 64t113.5 25.5q37 0 71 -7t60 -17.5t50.5 -24t45 -26.5t39 -24t37 -17.5t35.5 -6.5q12 0 20 1.5t13 7t8 10.5t4.5 17.5t2.5 22t2 29.5t2 35h263q-2 -33 -5.5 -64t-10.5 -64t-18 -62.5t-26 -57t-35.5 -49.5t-46 -38.5t-58 -25.5 t-71.5 -9q-59 0 -111.5 13t-87.5 31t-64 36.5t-53 31.5t-43 13q-28 0 -34.5 -24t-6.5 -101h-262z" />
<glyph unicode="&#xa9;" horiz-adv-x="1708" d="M97 630q0 156 59.5 296.5t161 241.5t242 160t296.5 59t296.5 -59t241.5 -160t160 -241.5t59 -296.5q0 -105 -27 -203.5t-75 -181.5t-117.5 -152.5t-152.5 -117.5t-181.5 -75t-203.5 -27q-156 0 -296.5 59t-242 160t-161 241.5t-59.5 296.5zM236 627q0 -101 31.5 -195.5 t89 -170.5t134.5 -133.5t171.5 -88.5t196.5 -31q126 0 240.5 49t197 131.5t131.5 197.5t49 241.5t-49 241t-131.5 197t-197 131.5t-241 49t-241.5 -49t-198.5 -131.5t-133 -197t-49.5 -241.5zM380 616q0 111 33.5 203.5t94.5 156t147 99t188 35.5q63 0 143.5 -11.5 t129.5 -26.5l-44 -97q-84 40 -226 40q-56 0 -105.5 -16.5t-87 -45t-68 -66.5t-49.5 -83t-29 -92.5t-10 -95.5q0 -76 22.5 -145.5t65.5 -124.5t110.5 -87.5t150.5 -32.5q66 0 118.5 14.5t107.5 45.5l42 -99q-50 -29 -129 -44.5t-153 -15.5q-205 0 -328.5 134.5t-123.5 354.5z " />
<glyph unicode="&#xad;" horiz-adv-x="878" d="M97 494v255h662v-255h-662z" />
<glyph unicode="&#xae;" horiz-adv-x="1708" d="M97 630q0 156 59.5 296.5t161 241.5t242 160t296.5 59t296.5 -59t241.5 -160t160 -241.5t59 -296.5q0 -105 -27 -203.5t-75 -181.5t-117.5 -152.5t-152.5 -117.5t-181.5 -75t-203.5 -27q-156 0 -296.5 59t-242 160t-161 241.5t-59.5 296.5zM236 625q0 -127 49 -242 t132.5 -198t198.5 -131.5t242.5 -48.5t242.5 48.5t198 131.5t132 198t49 242t-49 242t-132 198t-198 132t-242 49q-102 0 -197.5 -31t-172 -88.5t-133.5 -133.5t-88.5 -171t-31.5 -197zM561 166v958h280q47 -2 89 -12t81.5 -30t68 -49t45.5 -72.5t17 -96.5q0 -60 -18 -106.5 t-50.5 -75.5t-70.5 -46t-85 -25q45 -25 93.5 -67.5t73.5 -77.5l171 -300h-140l-161 273q-37 65 -96 100.5t-102 35.5h-78v-409h-118zM679 673h110q37 0 71.5 7t65 21.5t53 36.5t35.5 54t13 72q0 77 -55 117.5t-155 40.5h-138v-349z" />
<glyph unicode="&#xbc;" horiz-adv-x="2124" d="M114 1422v152q75 26 125 72q36 31 52 49h146v-756h-169v533q-39 -25 -154 -50zM392 0l981 1690h310l-983 -1690h-308zM1454 323v124l335 469h149v-440h85v-153h-85v-164h-169v164h-315zM1668 476h101v142z" />
<glyph unicode="&#xbd;" horiz-adv-x="2142" d="M114 1422v152q75 26 125 72q36 31 52 49h146v-756h-169v533q-39 -25 -154 -50zM392 0l981 1690h310l-983 -1690h-308zM1499 159v117q0 36 18 72.5t47 67.5t64.5 61.5t70.5 60t64 57.5t47.5 59.5t18.5 60.5q0 74 -87 74q-29 0 -68 -10t-78.5 -27.5t-68.5 -39.5v147 q33 35 91.5 61t123.5 26q119 0 188.5 -64t69.5 -159q0 -55 -17 -100.5t-43.5 -75.5t-62 -60.5t-68.5 -53t-66 -55t-53 -66.5h338v-153h-529z" />
<glyph unicode="&#xbe;" horiz-adv-x="2194" d="M97 996v153q31 -28 86 -43.5t105 -15.5q16 0 34.5 2.5t43 10t40.5 24.5t16 41q0 56 -56.5 76t-199.5 20v153q68 -4 112 3q114 14 114 81q0 20 -5.5 34t-13 21t-20.5 10.5t-20.5 4t-20.5 0.5q-115 0 -188 -52v146q39 25 89.5 43.5t98.5 18.5q41 0 83.5 -13.5t80 -38 t61.5 -64.5t24 -87q0 -43 -17 -77t-45 -54t-61.5 -30t-70.5 -10q32 -5 60 -12t59 -20.5t53 -32.5t37 -48.5t15 -66.5q0 -101 -78 -167.5t-225 -66.5q-32 0 -71.5 9.5t-68.5 22t-51 25.5zM455 0l978 1690h309l-983 -1690h-304zM1516 323v124l336 469h148v-440h85v-153h-85 v-164h-169v164h-315zM1730 476h101v142z" />
<glyph unicode="&#xe01;" horiz-adv-x="1303" d="M57 921q54 94 133 174q177 176 408 176q121 0 228 -30.5t187 -85t126.5 -135.5t46.5 -177v-625q0 -62 -84 -146q-29 -33 -80 -72h-151v791q0 45 -16 80.5t-41.5 57t-60 35.5t-68 19t-69.5 5q-95 0 -159 -33q-26 -15 -46 -34l162 -130q-35 -34 -52 -61q-50 -67 -50 -174 v-556h-302v583q0 85 18 154q17 45 21 54q-20 16 -76 65q-75 60 -75 65z" />
<glyph unicode="&#xe02;" horiz-adv-x="1112" d="M57 970v276h177q105 0 184 -24.5t124.5 -67.5t67.5 -95t22 -113q0 -62 -25 -119.5t-66 -98.5q-14 -14 -36 -49.5t-41.5 -79t-19.5 -68.5v-104q0 -172 110 -172q61 0 94.5 43.5t33.5 128.5v819h311v-819q0 -48 -5.5 -91.5t-20.5 -90t-39 -84.5t-62 -73t-87 -59t-118 -38 t-152 -14q-67 0 -123 18.5t-95.5 52t-68.5 76t-46 94t-24.5 103t-7.5 106.5v104q0 50 18 112.5t40.5 110.5t47.5 89q7 11 25.5 33t30.5 39.5t12 30.5q0 24 -84 24h-177z" />
<glyph unicode="&#xe03;" horiz-adv-x="1112" d="M57 968v278q45 0 104 -70q19 -25 42 -71q34 48 60 71q80 70 161 70q17 0 38 -6t45.5 -18t47 -34t41.5 -50t30.5 -69.5t11.5 -90.5q0 -75 -26.5 -142t-67.5 -108q-13 -13 -27.5 -32t-32 -48.5t-29 -68t-11.5 -75.5v-77q0 -95 30 -133.5t90 -38.5q53 0 85.5 47.5 t32.5 131.5v812h311v-802q0 -70 -13 -135t-45 -127t-80 -107.5t-123 -72.5t-168 -27q-98 0 -175 27t-124 71t-77 105t-41.5 121.5t-11.5 127.5v94q0 36 5 69.5t11 56.5t20.5 54t22 45.5t27.5 48.5t27 46q8 13 32.5 41.5t43.5 52.5t19 33q0 11 -8.5 19t-24.5 4.5t-34 -23.5 q-9 -9 -24 -29t-23 -28q-4 -5 -13 -16t-13 -16q-15 23 -37 44q-50 45 -109 45z" />
<glyph unicode="&#xe04;" horiz-adv-x="1308" d="M97 0v843q0 118 75 217t200 155t271 56q104 0 203 -31.5t175 -87t122 -136.5t46 -173v-843h-313v843q0 53 -62.5 99t-170.5 46q-57 0 -102.5 -12.5t-73.5 -33.5t-43 -46.5t-15 -52.5v-203q43 39 85 62q102 63 201 63v-308q-119 0 -224 -43q-38 -17 -66 -44v-370h-308z " />
<glyph unicode="&#xe05;" horiz-adv-x="1308" d="M97 0v843q0 89 48 188.5t124 167t148 67.5q34 0 75 -27t78 -68q53 -61 75 -94q26 50 62 96q33 42 74.5 69t84.5 27q63 0 123.5 -41.5t103.5 -104.5t69.5 -138t26.5 -142v-843h-313v843q0 49 -12 83.5t-28 48t-32 13.5q-14 0 -32.5 -15t-31 -30.5t-35.5 -44.5 q-8 -13 -28.5 -43t-31.5 -49q-10 16 -32.5 46t-32.5 46q-6 7 -21.5 25.5t-23 26t-19 18.5t-20.5 15.5t-17 4.5q-7 0 -16 -5t-19 -16.5t-18.5 -27.5t-14.5 -41t-6 -55v-203q35 35 84 62q102 63 206 63v-308q-119 0 -224 -43q-43 -19 -66 -42v-372h-308z" />
<glyph unicode="&#xe06;" horiz-adv-x="1320" d="M57 968v278q45 0 104 -70q19 -25 42 -71q28 45 60 74q70 70 161 67q64 -4 118.5 -44.5t85 -101.5t30.5 -127q0 -48 -12 -88.5t-30.5 -68.5t-41.5 -53t-45.5 -47.5t-41.5 -46t-31 -55t-12 -68.5l3 -164q33 -33 65 -52q75 -52 190 -52q187 0 187 226v742h312v-786 q0 -112 -30 -203.5t-84 -153t-129 -95t-164 -33.5q-151 0 -268 122q-51 50 -82 121v-218h-309v573q0 54 15 101.5t38.5 79t50.5 61t50 50t38.5 44t15.5 43.5q0 2 1.5 10.5t1 13.5t-7.5 10t-20 5q-26 0 -70 -58q-12 -16 -45 -54q-38 32 -54 44q-6 4 -16 10.5t-16 10.5t-15 9 t-15.5 8t-14.5 5t-15 2z" />
<glyph unicode="&#xe07;" horiz-adv-x="1112" d="M25 866h318l148 -578q13 0 33 7t46 21.5t51.5 41t47.5 61.5t35.5 87.5t13.5 114.5q0 76 -21 135.5t-56.5 97.5t-86 63t-106 35.5t-120.5 10.5v280q68 0 137 -10t138.5 -33t131.5 -57.5t116.5 -85t94 -113t62 -145.5t22.5 -178q0 -99 -33 -195t-89 -171.5t-126.5 -133.5 t-150 -89.5t-155.5 -31.5h-240z" />
<glyph unicode="&#xe08;" horiz-adv-x="1263" d="M34 1022q51 70 132 125q183 124 417 124q98 0 191.5 -35.5t167 -97.5t129 -141t85.5 -169.5t30 -179.5q0 -100 -21.5 -191.5t-70.5 -175.5t-121.5 -146t-181.5 -98.5t-242 -36.5h-130l-104 409q-4 10 -9 14.5t-9 5t-15.5 -0.5t-18.5 -1h-52v285h104q6 0 18 1q15 1 32 0 t34.5 -2.5t36.5 -7.5t37.5 -15t38 -25t38 -37.5t37 -53t34.5 -70.5l50 -214q13 0 29.5 8.5t36 24.5t38.5 39t36 54t30.5 66t21.5 78.5t8 89.5q0 61 -13.5 112.5t-35.5 86t-50.5 61t-56 41t-55.5 24t-45.5 12.5t-29.5 3q-204 0 -337 -114q-63 -52 -104 -115z" />
<glyph unicode="&#xe09;" horiz-adv-x="1294" d="M57 479v286h201q109 0 158.5 -65.5t49.5 -200.5v-72q0 -42 10 -72.5t22 -44.5t29.5 -21t25.5 -8t18 0h2q119 0 212 54q42 22 79 55v349q0 33 -4 61.5t-18.5 65t-38 62t-68.5 43t-105 17.5q-127 0 -290 -70q-58 -25 -132 -70l-111 257q73 52 148 84q185 82 385 82 q160 0 283 -59.5t193 -175.5t70 -271v-765h-312v218q-39 -71 -89 -121q-117 -122 -263 -122q-154 0 -247.5 102.5t-93.5 262.5v112q0 19 -4.5 23t-24.5 4h-7h-78z" />
<glyph unicode="&#xe0a;" horiz-adv-x="1141" d="M57 965v286h127q101 0 180 -17t128.5 -45t82 -68t45 -83t12.5 -92q0 -126 -81 -207q-1 -1 -10 -9.5t-12.5 -12.5t-13 -14.5t-14.5 -17.5t-14 -19t-13.5 -22t-11 -24t-10 -27.5t-6 -29.5t-2.5 -32v-133q0 -34 7.5 -60t19 -41t27 -25t30.5 -13.5t31 -3.5q30 0 54 4.5 t41.5 14t30.5 20.5t21 27.5t13 31.5t7.5 36.5t3 38t0.5 41.5q0 37 -2.5 71.5t-7 59.5t-10.5 46t-12 35t-11.5 23.5t-9.5 14t-6 4.5v287q86 0 86 467h310q0 -71 -6 -137t-15.5 -117.5t-22.5 -98t-27 -81t-29 -63.5t-28.5 -48.5t-25.5 -33.5t-20 -21t-12 -8q8 -5 13.5 -8.5 t24 -20t32 -35t32 -53t30.5 -73.5t21 -96.5t9 -122.5q0 -147 -57.5 -255.5t-169 -168t-265.5 -59.5q-89 0 -160.5 26t-117 68t-75.5 99.5t-42 116.5t-12 122v122q0 65 33 166t73 146q6 8 19 24t23 28t18 26.5t8 24.5q0 4 -3 7t-8.5 5t-12 3.5t-16 2t-17.5 1t-20 0.5h-20 h-20.5h-18.5h-125z" />
<glyph unicode="&#xe0b;" horiz-adv-x="1141" d="M57 968v278q45 0 104 -70q19 -25 42 -71q33 46 57 71q81 70 164 70q40 0 75 -16t59.5 -43t42 -62t26 -74t8.5 -78q0 -32 -6.5 -62t-14.5 -51t-23.5 -46.5t-25.5 -39.5t-30 -39l-28 -35q0 -1 -9 -14.5t-12 -19t-11 -21t-12 -27.5t-9 -28.5t-7.5 -34.5t-2.5 -37v-120 q0 -35 8 -60t21.5 -40t33 -24.5t40 -12.5t46.5 -3q36 0 62 12.5t40 31.5t22.5 48t10.5 54.5t2 59.5q0 52 -5 97t-12.5 73.5t-16.5 49.5t-15.5 30t-9.5 9v287q86 0 86 467h310q0 -91 -9 -173t-23.5 -141t-32.5 -109.5t-36.5 -82.5t-35.5 -55.5t-28.5 -34t-17.5 -12.5 q5 -3 12 -7.5t23.5 -19.5t31.5 -34t32.5 -52.5t30 -72.5t21 -96.5t8.5 -122.5q0 -72 -18.5 -142t-56.5 -132.5t-90.5 -110.5t-126 -76t-158.5 -28q-69 0 -127.5 10t-102 29.5t-78.5 45t-58.5 58t-40 66.5t-26 73.5t-13 75.5t-3.5 76v90q0 171 95 330q7 10 34.5 43t48.5 60.5 t21 35.5q0 16 -15 23.5t-37 -11.5q-9 -8 -30 -30.5t-30 -31.5q-15 -19 -30 -34q-21 17 -55 42q-65 42 -89 42z" />
<glyph unicode="&#xe0c;" horiz-adv-x="1978" d="M57 921q54 102 130 174q176 176 438 176q85 0 167 -19t153 -56.5t125 -88.5t85 -119.5t31 -144.5v-463q16 -28 45 -52q58 -50 179 -50q25 0 42.5 3.5t37 16.5t31 36.5t19.5 66.5t8 103v742h314v-819q0 -56 -14.5 -116.5t-44 -119.5t-70.5 -106t-100 -76t-127 -29 q-159 0 -258 119q-42 50 -62 119v-218h-315v791q0 61 -29 105.5t-84.5 68t-132.5 23.5q-126 0 -181 -33q-25 -14 -33 -34l162 -130q-37 -37 -52 -57q-50 -67 -50 -151v-245q0 -13 3.5 -23.5t12.5 -18.5t22 -8h79v-288h-122h-3q-24 0 -38 0.5t-41.5 2.5t-44.5 6t-42.5 12.5 t-41.5 20.5t-34.5 30.5t-29 42.5t-18 57t-7.5 73v338q0 75 21 154q17 45 21 54q-20 16 -76 65q-75 60 -75 65z" />
<glyph unicode="&#xe0d;" horiz-adv-x="1991" d="M57 921q50 94 133 174q177 176 431 176q84 0 166 -19t153.5 -56.5t126 -88.5t86 -119.5t31.5 -144.5v-409q0 -32 6.5 -56.5t16.5 -40.5t27 -27.5t30.5 -17t36.5 -8.5t35 -3h34q71 0 131 47q19 13 45 49v869h313l12 -955q1 -91 -14 -171.5t-43.5 -143.5t-68.5 -115 t-86.5 -88.5t-98.5 -61.5t-104.5 -37t-105.5 -12q-187 0 -328 93q-69 46 -114 94l60 136q40 -45 72 -65q96 -66 206 -66q129 0 211 91t82 251v22q-21 -64 -62 -124q-88 -123 -226 -123q-76 0 -140 26.5t-109 71.5t-76.5 105.5t-46.5 129t-15 140.5v347q0 48 -18.5 85 t-45 57.5t-62 33.5t-63.5 17t-54 4q-125 0 -179 -33q-25 -14 -33 -34l161 -130q-37 -37 -52 -54q-49 -67 -49 -154v-245q0 -1 -0.5 -9.5t0 -10.5t1 -9t2.5 -9t4.5 -5.5t7 -5t10.5 -1.5h91v-288h-161q-72 0 -125 19.5t-82 54t-42.5 77t-13.5 94.5v338q0 75 21 154q9 25 24 54 q-21 16 -76 65q-19 15 -36.5 30t-27 24t-9.5 11z" />
<glyph unicode="&#xe0e;" horiz-adv-x="1303" d="M57 921q50 94 130 174q176 176 421 176q72 0 151 -19t155 -57t137 -88.5t98 -119.5t37 -144v-1049q0 -17 -1 -34t-5.5 -43.5t-11.5 -50.5t-20 -52t-30.5 -51.5t-44 -46t-59 -38t-77 -25t-96.5 -9.5q-108 0 -209 72q-45 29 -88 73q-64 -42 -139 -73q-154 -72 -314 -72v283 q149 0 314 77q68 32 136 79q32 -41 62 -65q76 -66 156 -66q32 0 53 7t33 17t17.5 32t7 42.5t1.5 58.5v882q0 92 -67.5 144.5t-185 52.5t-171.5 -33q-28 -16 -36 -34l162 -130q-22 -16 -45 -47q-42 -71 -42 -161v-338q0 -73 -17.5 -121.5t-54.5 -75.5t-85 -37.5t-118 -10.5 h-146v278h79q7 1 11.5 3t7 5t3.5 8.5t1 9.5t-0.5 13t-0.5 13v253q0 75 21 154q17 45 21 54q-20 16 -76 65q-75 60 -75 65z" />
<glyph unicode="&#xe0f;" horiz-adv-x="1303" d="M57 921q54 102 130 174q78 78 190 127t258 49q67 0 134.5 -13.5t128.5 -39t114 -63.5t91.5 -84.5t60.5 -105t22 -122.5v-1051q0 -20 -2 -42.5t-10.5 -58t-22.5 -67.5t-40 -66t-60.5 -58.5t-87.5 -40t-117 -15.5q-66 0 -141 75q-30 30 -62 76l-99 -107l-89 101 q-55 -36 -135 -73q-60 -31 -122 -51.5t-107 -20.5v283q136 0 260 80q48 28 104 84l86 -109l99 143l10 -18.5t21 -38.5t29 -46.5t36 -46.5t40.5 -34t42.5 -14l4.5 -0.5t8.5 -0.5t10 0.5t10.5 3t9 7t7 13t2.5 19.5v1022q0 83 -62 140t-174 57q-126 0 -185 -33q-27 -15 -39 -34 l172 -130q-33 -23 -50 -47q-47 -70 -47 -161v-338q0 -52 -12.5 -94.5t-39 -77t-74 -54t-112.5 -19.5h-183v278h79q8 1 13 3.5t7 8t2.5 8.5t0 11.5t-0.5 10.5v268q0 83 21 151q2 6 9.5 24.5t11.5 27.5q-20 16 -76 65q-75 60 -75 65z" />
<glyph unicode="&#xe10;" horiz-adv-x="1261" d="M29 1017q35 65 109 127q164 127 426 127q53 0 118.5 -13.5t116.5 -31.5q17 5 29 12.5t20 20.5t12 23.5t6 32t2.5 35.5t0.5 44h312q0 -69 -23.5 -138.5t-64 -119t-86.5 -62.5q86 -82 131.5 -201.5t45.5 -224.5q0 -104 -20 -192t-54.5 -153t-83.5 -117.5t-105.5 -86.5 t-122 -56.5t-130.5 -32.5t-135 -10h-116l-99 385q-2 5 -5 15t-4.5 12.5t-5 7.5t-9 6t-13.5 1h-73v285h135q30 0 53.5 -2.5t58 -16t62 -37t57 -69t51.5 -108.5l43 -191q14 0 34 11.5t43 32.5t45.5 53.5t40.5 70.5t29 88.5t11 103.5q0 62 -13 113.5t-34 85.5t-49.5 60.5 t-56.5 40.5t-59.5 23t-53 12t-41.5 3q-104 0 -179 -33.5t-140 -88.5q-65 -61 -96 -122zM89 -263q158 0 259 97q46 42 74 99l96 -139l95 139q0 -4 18 -34t43 -66.5t58 -66t59 -29.5q3 0 13 5q15 12 15 27v199h313v-218q0 -37 -10 -76t-34 -79t-59 -71t-90 -50.5t-122 -19.5 q-101 0 -162 75q-29 34 -44 76l-93 -99l-96 85q-46 -42 -99 -70q-118 -67 -234 -67v283z" />
<glyph unicode="&#xe11;" horiz-adv-x="1286" d="M57 965v278q45 0 104 -70q19 -25 42 -71q34 48 60 71q80 70 148 70q20 0 37.5 -3.5t35 -12t31 -23.5t24.5 -35.5t16.5 -50.5t5.5 -68q36 58 87 110q111 111 223 111q61 0 112.5 -30t85.5 -78t58.5 -109t35 -121.5t10.5 -115.5v-820l-312 3v739q0 60 -6.5 103.5 t-15.5 66.5t-24 36.5t-28 16.5t-30 3q-52 0 -97.5 -23.5t-79 -62t-61.5 -89t-46 -104.5t-30.5 -108t-18 -99t-5.5 -79v-18q0 -3 -0.5 -9t-0.5 -9t1 -5v-359h-312v338q0 88 17.5 169t43.5 137.5t56.5 109t57 87.5t44 68t17.5 56q0 2 -1 5t-3 7.5t-8 7.5t-13 3q-30 0 -73 -55 q-6 -8 -20.5 -26.5t-21.5 -27.5q-13 20 -39 42q-22 15 -32.5 21.5t-32 14.5t-42.5 8z" />
<glyph unicode="&#xe12;" horiz-adv-x="1971" d="M57 635q0 86 10.5 163.5t30 140.5t46 116t58 91.5t67.5 66t74 40.5t76 13q52 0 137 -95q9 -11 23.5 -28t28 -34t24.5 -32q29 48 63 96q75 96 134 96q52 0 104.5 -24.5t95.5 -66t76.5 -93.5t52 -110t18.5 -111v-484q27 -31 55 -52q70 -52 171 -52q29 0 47 3.5t37 16.5 t29.5 37.5t17 67t6.5 103.5v742h313v-819q0 -57 -10.5 -116.5t-34.5 -120.5t-59.5 -108t-91 -77t-122.5 -30q-161 0 -278 127q-51 58 -80 129v-231h-312v864q0 24 -6.5 45.5t-15.5 35.5t-19.5 24t-18.5 14.5t-13 4.5q-13 0 -31.5 -15t-31.5 -30.5t-36 -44.5 q-8 -13 -28.5 -43t-31.5 -49q-10 16 -33 46t-33 46q-7 8 -21.5 25.5t-22.5 26t-19 19t-20 15t-17 4.5q-9 0 -15.5 -1.5t-17 -9.5t-18.5 -21.5t-17 -40t-15 -62.5t-9.5 -92t-3.5 -126v-3q0 -39 1 -64.5t6 -76.5t19 -86t35 -72.5t59 -57.5t88 -20q44 0 117 33q9 4 64 35v-284 q-29 -24 -52 -34q-58 -30 -129 -30t-137 18.5t-124 55t-105.5 93t-82 128t-53.5 165t-19 200.5z" />
<glyph unicode="&#xe13;" horiz-adv-x="1976" d="M57 921q50 94 130 174q173 173 409 176q51 2 106.5 -4.5t113 -22.5t110.5 -39.5t100.5 -59t82 -79t55 -101t20.5 -122.5v-339q0 -52 3.5 -88.5t13.5 -61.5t21 -39.5t32.5 -22t42.5 -9.5t56 -2q82 0 141 49q24 18 52 50v866h313v-1246h-313v218q-19 -69 -64 -121 q-97 -122 -256 -122q-67 0 -123 20.5t-94 56.5t-66 81t-44 97t-23 100.5t-7 96.5v364q0 38 -12 69t-33.5 52t-47.5 36t-56.5 23.5t-59 12.5t-57.5 4q-109 0 -164 -33q-22 -15 -30 -34l161 -130q-31 -26 -52 -54q-49 -67 -49 -154v-245q0 -20 9 -35t29 -15h78v-288h-104h-3 q-24 0 -38.5 0.5t-43 2.5t-47 6t-45.5 12.5t-44.5 20.5t-37 30.5t-31.5 42.5t-19.5 57t-7.5 73v338q0 75 20 154q17 45 22 54q-21 16 -76 65q-19 15 -36.5 30t-27 24t-9.5 11z" />
<glyph unicode="&#xe14;" horiz-adv-x="1294" d="M57 635q0 122 31.5 226t86 178.5t127 127.5t156 78.5t172.5 25.5q115 0 215.5 -30.5t173.5 -85.5t115 -135.5t42 -176.5v-843h-312v794q0 41 -10 73.5t-28 53t-39.5 34.5t-50 21t-53 9.5t-53.5 2.5q-17 0 -36 -3t-45 -13t-50 -26t-48 -43.5t-41.5 -63t-28.5 -88.5 t-11 -116q0 -23 0.5 -42t2 -46t5 -50t8.5 -50.5t13.5 -49.5t19.5 -44.5t26.5 -39.5t34.5 -30.5t44 -20.5t54 -7q76 0 134 33q23 10 47 35v-281q-22 -23 -49 -34q-64 -33 -146 -33q-96 0 -178 33.5t-142 93.5t-102.5 143t-63.5 181.5t-21 208.5z" />
<glyph unicode="&#xe15;" horiz-adv-x="1294" d="M57 635q0 86 10.5 163.5t30 140.5t46 116t58 91.5t67.5 66t74 40.5t76 13q49 0 135 -95q61 -71 78 -94q27 50 63 96q75 96 134 96q68 0 133 -38t111 -96.5t74.5 -131t28.5 -139.5v-864h-312v864q0 34 -11 60.5t-26 39t-26.5 18.5t-18.5 6q-13 0 -34.5 -23t-55.5 -67 q-8 -13 -28.5 -43t-31.5 -49q-10 16 -33 46t-33 46q-7 8 -21.5 25.5t-22.5 26t-19 19t-20 15t-17 4.5q-99 0 -99 -358q0 -191 54.5 -283t156.5 -92q44 0 117 33q9 4 64 35v-284q-37 -27 -57 -34q-67 -30 -156 -30q-140 0 -251.5 83.5t-174.5 234.5t-63 342z" />
<glyph unicode="&#xe16;" horiz-adv-x="1303" d="M57 921q48 89 136 174q78 78 186 127t246 49q85 0 167 -19t153 -56.5t125 -88.5t85 -119.5t31 -144.5v-625q0 -33 -22 -67t-62 -76q-37 -42 -80 -75h-151v791q0 98 -63.5 147.5t-182.5 49.5q-126 0 -181 -33q-25 -14 -33 -34l162 -130q-37 -37 -52 -57q-50 -67 -50 -151 v-240v-10.5v-10t0.5 -8t1.5 -7.5l3 -6t4.5 -5.5t6.5 -3t10 -1.5l91 -3v-288l-216 3q-40 1 -76 15.5t-65.5 43.5t-47 76t-17.5 107v338q0 75 21 154q17 45 21 54q-20 16 -76 65q-75 60 -75 65z" />
<glyph unicode="&#xe17;" horiz-adv-x="1281" d="M97 0v1246h312v-221q23 68 70 122q104 124 268 124q85 0 163 -40t132.5 -104t87 -146t32.5 -164v-817h-311v739q0 26 -1 43t-5 43t-12 43t-24 37t-38 32t-56 20t-77 8q-93 0 -167 -54q-34 -27 -62 -55l-4 -856h-308z" />
<glyph unicode="&#xe18;" horiz-adv-x="1203" d="M57 916q0 113 72 194.5t194 121t280 39.5q183 0 360 -65q60 -21 134 -64v-301q-42 36 -122 75q-152 75 -372 75q-26 0 -40 -0.5t-39.5 -1t-40.5 -2.5t-35.5 -5.5t-32 -9t-23.5 -13.5t-17 -19t-5 -24q0 -20 21 -33t57 -18.5t84.5 -12t102.5 -11.5t111.5 -19t112 -32.5 t102.5 -53t84.5 -79.5t57.5 -114.5t21 -155.5q0 -59 -19 -117.5t-59 -112t-97 -94t-138 -64.5t-176 -24q-558 0 -558 425v84h318v-84q0 -30 6.5 -53.5t15.5 -39t26 -26t30.5 -15.5t37.5 -7.5t37.5 -3t40.5 -0.5h4.5h4.5h5q29 0 54.5 3t55 12t50.5 23.5t35 40t14 58.5 q0 50 -26 84t-69.5 52t-100.5 29.5t-119.5 20.5t-125 20t-119 33.5t-100 56t-69.5 91.5t-26 137z" />
<glyph unicode="&#xe19;" horiz-adv-x="1281" d="M97 429v788h312v-741q-1 -41 9 -74.5t24.5 -53.5t35.5 -34.5t38.5 -20.5t37.5 -9t27.5 -3.5t13.5 0.5h1q103 0 186 54q48 34 69 57l2 825h309v-1217h-311v221q-29 -66 -79 -124q-107 -122 -273 -122q-85 0 -161.5 40t-128.5 105t-82 146t-30 163z" />
<glyph unicode="&#xe1a;" horiz-adv-x="1256" d="M97 444v802h312v-812q0 -81 42.5 -130t89.5 -49h109q70 0 122 48t52 131v817h313v-807q0 -61 -16.5 -125.5t-51.5 -126t-84 -110t-120.5 -78t-154.5 -29.5h-182q-88 0 -161.5 29.5t-122.5 77.5t-83 110.5t-49 126t-15 125.5z" />
<glyph unicode="&#xe1b;" horiz-adv-x="1256" d="M97 444v802h312v-812q0 -82 45 -130.5t102 -48.5h109q31 0 59 12t50.5 34t36 56.5t13.5 76.5v1150h313v-1140q0 -62 -16 -125.5t-51.5 -126t-87 -110.5t-128.5 -77.5t-169 -29.5h-183q-79 0 -147 29.5t-114.5 78t-79.5 110t-48.5 126t-15.5 125.5z" />
<glyph unicode="&#xe1c;" horiz-adv-x="1482" d="M97 918q0 50 7 92.5t19.5 76t31.5 60t41.5 45t49 30.5t55.5 18t61 6h169v-286l-97 3q-25 0 -30.5 -8.5t-3.5 -38.5q11 -218 39 -331q11 -57 27 -104l161 388h148l156 -388q27 45 49 140q49 185 73 625l312 5q-9 -491 -139 -926q-64 -201 -131 -325h-203l-182 422 l-184 -422h-203q-56 100 -115 265q-111 312 -111 653z" />
<glyph unicode="&#xe1d;" horiz-adv-x="1474" d="M97 918q0 68 12 122t34 92.5t53.5 64t69.5 37.5t82 12h180v-286l-99 3q-22 0 -26.5 -6t-4.5 -39q0 -208 31 -333q8 -43 35 -104l161 388h145l158 -388q31 64 58 204q57 310 57 896h315q0 -699 -132 -1214q-62 -232 -131 -367h-206l-182 422l-184 -422h-203 q-58 104 -112 268q-111 311 -111 650z" />
<glyph unicode="&#xe1e;" horiz-adv-x="1591" d="M18 1246h312l208 -715l141 715h207l139 -715l208 715h313l-360 -1246h-275l-129 653l-137 -653h-265z" />
<glyph unicode="&#xe1f;" horiz-adv-x="1685" d="M18 1246h312l208 -715l141 715h210l136 -715l305 1050h311l-455 -1581h-275l-129 627l-127 -627h-275z" />
<glyph unicode="&#xe20;" horiz-adv-x="1303" d="M57 921q50 94 130 174q176 176 411 176q164 0 297.5 -52t212 -150.5t78.5 -225.5v-625q0 -59 -81 -146q-30 -33 -80 -72h-154v791q0 103 -73 150t-200 47q-84 0 -143 -33q-29 -17 -44 -34l162 -130q-22 -16 -45 -47q-42 -71 -42 -161v-338q0 -96 -65.5 -173t-144.5 -77 l-211 -3v291h79q5 1 9 2.5t7 3t4.5 5t2.5 5.5t1.5 7.5t0.5 8.5v10v10l-5 248q-3 65 20 154q10 25 24 54q-20 16 -76 65q-75 60 -75 65z" />
<glyph unicode="&#xe21;" horiz-adv-x="1281" d="M97 0v1246h312v-799q36 -32 70 -55q74 -52 139 -52q69 0 116.5 15.5t72 44.5t34.5 62t10 76v708h311v-819q0 -50 -15.5 -108.5t-49 -119.5t-79 -111t-113.5 -81.5t-146 -31.5q-166 0 -273 122q-46 50 -77 121v-218h-312z" />
<glyph unicode="&#xe22;" horiz-adv-x="1216" d="M57 387q0 151 109 251q48 43 112 62q-50 10 -99 44q-95 76 -95 202q0 70 27 133t71.5 106t101.5 68t116 25q105 0 198 -32q40 -10 84 -29v-301q-12 5 -39.5 18t-41.5 18q-89 36 -125 36q-1 0 -10 0.5t-16.5 1t-18.5 -1.5t-18 -6.5t-12.5 -13.5t-5.5 -22q0 -16 3 -29 t10 -23t14 -17.5t21.5 -13t24.5 -9.5t30.5 -6.5t33.5 -4t39 -2t40.5 -0.5h45.5h25v-285q-80 0 -141.5 -13t-98 -37t-54.5 -53.5t-18 -65.5q0 -23 4.5 -42t14.5 -32t21 -22.5t26.5 -15.5t28.5 -9.5t31 -5t28.5 -2t26.5 -0.5q66 0 119 19t86 60t29 97v812h312v-802 q0 -63 -16 -125.5t-56.5 -126t-100.5 -111t-156.5 -77t-216.5 -29.5q-108 0 -194.5 23.5t-141.5 63t-91.5 94t-51.5 111.5t-15 120z" />
<glyph unicode="&#xe23;" horiz-adv-x="1099" d="M97 75v260q51 -23 114 -42q131 -38 253 -38q32 0 55.5 2t48.5 6.5t42 14t31 23.5t20.5 36t6.5 50q0 32 -19.5 54.5t-52.5 37t-76 26.5t-90.5 26t-94.5 32t-90 47.5t-76 69t-52.5 101.5t-19.5 140q0 67 32.5 130t90.5 112t144.5 78.5t186.5 29.5q166 0 278 -51 q37 -14 99 -52v-304q-38 35 -91 62q-122 62 -283 62q-77 0 -111 -20.5t-34 -61.5q0 -23 19.5 -40.5t52.5 -30.5t76 -26t90.5 -29t94.5 -36.5t90 -52.5t76 -72t52.5 -99.5t19.5 -132.5q0 -33 -4 -66t-13.5 -69.5t-27.5 -69t-42.5 -64.5t-61 -57.5t-81.5 -45t-106 -30 t-132 -10.5q-182 0 -301 48q-41 14 -114 52z" />
<glyph unicode="&#xe24;" horiz-adv-x="1303" d="M57 921q55 97 136 174q78 78 183 127t235 49q112 0 216 -30.5t184 -85t127.5 -136t47.5 -176.5v-1171q0 -23 -13.5 -50t-28 -46t-39.5 -47q-38 -42 -80 -75h-154v1337q0 197 -273 197q-97 0 -151 -33q-23 -13 -36 -34l159 -130q-37 -37 -49 -57q-50 -67 -50 -151v-240 v-10.5v-10t0.5 -8t1.5 -7.5l3 -6t4.5 -5.5t6.5 -3t10 -1.5l91 -3v-285h-185q-72 0 -125 27.5t-82.5 82.5t-29.5 132v338q0 75 21 154q17 45 21 54q-20 16 -76 65q-75 60 -75 65z" />
<glyph unicode="&#xe25;" horiz-adv-x="1189" d="M57 348q0 75 31 142t82 115t115.5 83t132 52t131.5 17q147 0 193 5q21 4 17 8v36q0 43 -10 74t-27.5 51.5t-45.5 32.5t-60.5 17t-74.5 5q-143 0 -263 -100q-57 -48 -88 -97l-115 275q41 51 115 104q159 103 351 103q113 0 203 -25.5t150.5 -71t101 -109.5t58.5 -138.5 t18 -161.5v-765h-313v494q-3 -4 -31 -8q-30 -7 -187 -7q-35 0 -65.5 -8t-54.5 -23.5t-37.5 -41t-13.5 -58.5q0 -39 32.5 -66t104.5 -27q48 0 111 26q34 14 53 26v-297q-12 -9 -44 -18q-55 -17 -151 -17q-119 0 -213 42.5t-150 128.5t-56 202z" />
<glyph unicode="&#xe26;" horiz-adv-x="1303" d="M57 921q49 99 127 174q177 176 443 176q59 0 123 -13.5t126 -39t118.5 -64t99 -84.5t67.5 -105t25 -122v-1171q0 -23 -13.5 -50t-28 -46t-39.5 -47q-38 -42 -80 -75h-154v1337q0 24 -6.5 47.5t-19 45.5t-32.5 41t-45.5 33t-58.5 22t-71 8q-129 0 -188 -33 q-27 -15 -39 -34l162 -130q-22 -16 -45 -47q-42 -71 -42 -161v-338q0 -100 -64 -170.5t-162 -71.5l-195 -3v283h79q5 1 9 2.5t7 3t4.5 5t2.5 5.5t1.5 7.5t0.5 8.5v10v10l-5 248q-3 65 20 154q10 25 24 54q-20 16 -76 65q-75 60 -75 65z" />
<glyph unicode="&#xe27;" horiz-adv-x="1184" d="M57 169l114 288q43 -58 97 -100q121 -102 253 -102q19 0 41.5 6t49 19.5t52 33.5t49 50t41.5 66t29 85.5t11 105.5q0 77 -19.5 139t-49 99.5t-67.5 62t-72 34t-65 9.5q-127 0 -256 -81q-50 -31 -99 -80l-109 273q58 58 117 96q148 98 333 98q102 0 194.5 -31t166 -89.5 t127.5 -137.5t83 -179.5t29 -212.5t-27.5 -212t-79 -179t-122.5 -136.5t-161 -88t-191 -30.5q-188 0 -342 95q-63 39 -127 99z" />
<glyph unicode="&#xe28;" horiz-adv-x="1308" d="M97 0v843q0 78 31 147.5t83.5 119.5t119.5 87t140.5 55.5t144.5 18.5q126 0 201 -25q11 5 20 10t15.5 12t11 11.5t7.5 14.5t5 14.5t2.5 18.5t0.5 19.5v23.5v24h310q0 -44 -6.5 -87.5t-19.5 -83.5t-35 -70.5t-51 -42.5q42 -32 69 -87.5t35 -99t8 -80.5v-843h-313v843 q0 65 -72 106.5t-188 41.5q-55 0 -98.5 -16.5t-66.5 -40.5t-34.5 -47.5t-11.5 -43.5v-175q36 28 84 47q113 50 206 50v-308q-137 0 -226 -40q-44 -22 -64 -42v-375h-308z" />
<glyph unicode="&#xe29;" horiz-adv-x="1256" d="M97 444v802h312v-791q0 -98 43.5 -149t108.5 -51h110q137 0 148 177l5 99h-233v208h233l-2 512h315v-512h77v-208h-80l-5 -87q-13 -225 -124 -347t-293 -122h-181q-88 0 -167.5 34t-138.5 94t-93.5 149t-34.5 192z" />
<glyph unicode="&#xe2a;" horiz-adv-x="1221" d="M57 348q0 76 26 142t70 113t100.5 81t119.5 51t126 17q182 0 221 7q13 2 47 11v36q0 180 -216 180q-146 0 -265 -100q-57 -48 -88 -97l-112 285q48 56 115 99q158 98 350 98q81 0 151 -12q26 9 43 19t26 18.5t13 23t4.5 24.5t0.5 32v6.5v5.5v6h311q0 -157 -177 -240 q49 -36 85 -95t56.5 -135t20.5 -159l-3 -765h-315v494q-43 -9 -57 -10q-42 -8 -211 -8q-37 0 -65.5 -24.5t-41 -53t-12.5 -50.5q0 -39 32 -66t104 -27q57 0 111 31q29 12 52 32l6 -308q-11 -4 -58 -18q-60 -17 -115 -17q-72 0 -138 14.5t-124 45t-101 74t-67.5 105 t-24.5 134.5z" />
<glyph unicode="&#xe2b;" horiz-adv-x="1182" d="M97 0v1246h312v-372l385 372h426l-450 -440q33 -6 62.5 -16t65 -27t64.5 -39.5t57.5 -56t47.5 -74.5t31 -97t12 -121v-375h-314l-2 338q0 59 -13.5 109.5t-34.5 83.5t-48 57t-51.5 36t-48.5 16l-189 -190l-4 -450h-308z" />
<glyph unicode="&#xe2c;" horiz-adv-x="1685" d="M25 1246h313l208 -715l141 715h211l135 -715l143 460q10 23 10 62q0 84 -70 153q-34 30 -71 53q72 31 141 83q140 110 140 239h322q0 -157 -152 -258q-70 -46 -151 -64q42 -13 67 -31q69 -46 79 -131q2 -23 -1 -52t-10 -55.5t-13.5 -48t-13 -39.5t-6.5 -21l-253 -881 h-273l-130 627l-128 -627h-273z" />
<glyph unicode="&#xe2d;" horiz-adv-x="1289" d="M57 789q19 135 87 241q156 241 469 241q97 0 179.5 -22t142.5 -60t108 -90.5t79 -110t51.5 -122.5t29.5 -125t9 -120q0 -148 -44.5 -270t-123.5 -204.5t-189.5 -127t-241.5 -44.5q-122 0 -225.5 38.5t-173.5 105t-109.5 156.5t-39.5 191q0 67 16 116t44 76.5t62.5 40.5 t75.5 13h325v-285l-161 5q-22 6 -33.5 -6t-6.5 -34q10 -31 28 -55.5t40.5 -38.5t44 -23.5t46.5 -13t39.5 -5t30.5 -1.5q69 0 120 19t88 61.5t55.5 113.5t18.5 172q0 77 -16.5 140t-44 104.5t-64.5 69.5t-77 40.5t-83 12.5q-123 0 -204 -102q-35 -44 -50 -97h-302z" />
<glyph unicode="&#xe2e;" horiz-adv-x="1289" d="M57 791q18 132 87 239q156 241 462 241h21h25t24.5 -0.5t28.5 -1.5t28 -3.5t31 -5.5t30 -8t33 -11q10 3 18.5 7t14.5 11t10.5 12t7 15l4 16t2 20.5t0.5 21v24.5v26h302q0 -88 -48 -173t-111 -107q93 -92 139 -220.5t46 -272.5q0 -148 -44.5 -270t-123.5 -204.5 t-189.5 -127t-241.5 -44.5q-122 0 -225.5 38.5t-173.5 105t-109.5 156.5t-39.5 191q0 26 2.5 50t8.5 49t15.5 46t24.5 40t34.5 32.5t46 21t58.5 7.5h333v-285h-159q-49 0 -39 -40q7 -33 28.5 -58t47 -38.5t57 -22t53 -11t40.5 -2.5q67 0 117.5 19t88 61t57 114t19.5 172 q0 95 -25 168t-67 116t-92.5 64.5t-107.5 21.5q-114 0 -195 -102q-32 -42 -52 -98h-302z" />
<glyph unicode="&#xe2f;" horiz-adv-x="1203" d="M57 1246h307q1 0 1 -1q13 -56 20 -81.5t22 -60.5t33.5 -49t48.5 -25.5t72 -11.5q52 0 95.5 25t78 77t54.5 127h296v-802q0 -80 -12 -145t-32.5 -111t-51.5 -80t-65 -54.5t-78 -32.5t-85.5 -16.5t-92.5 -4.5v283h9h18t16.5 1t14.5 3.5t11.5 6.5t10.5 10t7.5 15.5t6.5 21.5 t4 28.5t3 37t1 45.5v344q-29 -20 -63 -31q-71 -31 -184 -31q-51 0 -97.5 10t-84 28.5t-71 44.5t-60 56t-48.5 66.5t-38.5 73.5t-30 77.5t-22 78t-14.5 77.5z" />
<glyph unicode="&#xe30;" horiz-adv-x="881" d="M97 427v158h298v-91q0 -35 21.5 -48.5t87.5 -13.5h255l-116 -276h-240q-306 0 -306 271zM97 998v144h298v-92q0 -35 21.5 -48.5t87.5 -13.5h255l-116 -278h-253q-68 0 -119.5 15t-84 41t-53 63.5t-28.5 78.5t-8 90z" />
<glyph unicode="&#xe31;" d="M-715 1714v143h306v-85q0 -35 21.5 -49t87.5 -14h496l-119 -268h-496q-39 0 -73 4.5t-68.5 15.5t-61.5 31.5t-48.5 49.5t-33 73t-11.5 99z" />
<glyph unicode="&#xe32;" horiz-adv-x="1060" d="M57 846v280q43 43 97 73q114 72 251 72q112 0 210.5 -34.5t170.5 -96t113.5 -152t41.5 -197.5v-791h-311v765q0 50 -15.5 90.5t-39 64.5t-54.5 40t-58.5 22t-53.5 6q-107 0 -235 -72q-43 -22 -117 -70z" />
<glyph unicode="&#xe33;" horiz-adv-x="1060" d="M-653 1717q0 117 80.5 199t192.5 82q119 0 201 -82t82 -199q0 -112 -82.5 -194t-200.5 -82q-111 0 -192 82t-81 194zM-464 1717q0 -33 23 -56t56 -23q32 0 55 23t23 56q0 31 -23 54.5t-55 23.5q-33 0 -56 -23t-23 -55zM57 846v280q43 43 97 73q114 72 251 72 q112 0 210.5 -34.5t170.5 -96t113.5 -152t41.5 -197.5v-791h-311v765q0 50 -15.5 90.5t-39 64.5t-54.5 40t-58.5 22t-53.5 6q-107 0 -235 -72q-43 -22 -117 -70z" />
<glyph unicode="&#xe34;" d="M-1077 1441l117 257h806v-257h-923z" />
<glyph unicode="&#xe35;" d="M-1077 1441l117 271h491v145h315v-416h-923z" />
<glyph unicode="&#xe36;" d="M-1077 1441l114 271h315q-1 7 4.5 21t5.5 17q18 72 88.5 115.5t146.5 43.5q53 0 96 -15.5t71 -40.5t47 -57t27 -64.5t8 -63.5q0 -52 -25.5 -96.5t-64 -72t-80.5 -43t-79 -15.5h-674zM-442 1675q0 -15 12 -27t27.5 -12t27 12t11.5 27t-11.5 27t-27 12t-27.5 -12t-12 -27z " />
<glyph unicode="&#xe37;" d="M-1077 1441l117 271h284v145h207v-145h79v145h236v-416h-923z" />
<glyph unicode="&#xe38;" d="M-541 -196h154q136 0 213 -60t77 -186v-248h-314v159q0 24 -16 42.5t-42 19.5h-72v273z" />
<glyph unicode="&#xe39;" d="M-911 -196h188q58 0 116 -21t99.5 -63.5t41.5 -94.5q0 -20 1 -33t4 -20.5t7.5 -10.5t11.5 -3q18 0 24.5 12.5t6.5 52.5v181h314v-259q0 -23 -3 -45t-13 -49t-26 -50t-44.5 -45.5t-66 -38t-92.5 -25.5t-122 -10q-75 0 -134.5 14.5t-97 40t-57 58.5t-19.5 72q0 24 -16 42 t-41 20h-82v275z" />
<glyph unicode="&#xe3a;" d="M-411 -196h314v-285h-314v285z" />
<glyph unicode="&#xe3f;" horiz-adv-x="1177" d="M97 0v1407h248v211h305l-2 -224q99 -17 175.5 -72t116.5 -129t40 -155q0 -69 -22 -128.5t-69 -105.5t-114 -65q129 -22 206.5 -103.5t77.5 -208.5q0 -101 -51.5 -192.5t-146 -153.5t-211.5 -76v-223h-305v218h-248zM409 278h119q51 0 90.5 11t63 27.5t39 37.5t21 39 t5.5 34q0 19 -4 37.5t-14 38t-28.5 36t-44.5 29.5t-66.5 20.5t-90.5 7.5h-90v-318zM409 881h75q11 0 17 0.5t27.5 2.5t36.5 6.5t36 14t34.5 23t23 35.5t9.5 49q0 23 -8.5 41.5t-20.5 29.5t-31 19t-32.5 11.5t-33.5 5.5t-26 2h-17h-90v-240z" />
<glyph unicode="&#xe40;" horiz-adv-x="591" d="M97 245v1001h312v-911v-9v-9v-7.5t1 -7t2 -6t3 -5t4.5 -3.5t6.5 -3l8 -2h78v-283h-182q-33 0 -64 7t-62.5 24.5t-55 44.5t-37.5 70.5t-14 98.5z" />
<glyph unicode="&#xe41;" horiz-adv-x="1130" d="M97 245v1001h312v-911v-9v-9v-7.5t1 -7t2 -6t3 -5t4.5 -3.5t6.5 -3l8 -2h78v-283h-207q-40 0 -77 15.5t-66.5 45t-47 77.5t-17.5 107zM625 245v1001h311v-911v-6q0 -16 1 -23.5t7 -14.5t19 -8h77v-283h-206q-40 0 -76.5 15.5t-66.5 45t-48 77.5t-18 107z" />
<glyph unicode="&#xe42;" horiz-adv-x="730" d="M182 1527q0 58 28.5 110.5t80.5 92.5t130.5 63t171.5 23h403v-279h-202q-153 0 -225 -10t-72 -40q0 -22 8.5 -57.5t18.5 -71t17.5 -100.5t4.5 -139v-786v-7q0 -16 1 -23.5t7 -14t19 -7.5h77v-281h-211q-51 0 -98.5 33.5t-77 90.5t-29.5 121v874q0 94 -13 175t-26 138.5 t-13 94.5z" />
<glyph unicode="&#xe43;" horiz-adv-x="919" d="M0 1608q42 63 99 117q125 119 246 119q65 0 126 -13.5t118 -44t99.5 -75.5t68 -114t25.5 -153q0 -51 -7 -95t-15.5 -73t-15.5 -87.5t-7 -135.5v-705q0 -3 -0.5 -10.5t0 -10t0.5 -8t1 -7.5l3 -6t4.5 -5.5t7 -3t9.5 -1.5h79v-296h-201q-62 0 -112.5 33.5t-78 89.5 t-27.5 122v808q0 88 12 163t24.5 130.5t12.5 97.5q0 6 -2 16.5t-9.5 29t-20 33.5t-37 26.5t-57.5 11.5q-85 0 -171 -112q-44 -61 -67 -109z" />
<glyph unicode="&#xe44;" horiz-adv-x="1016" d="M0 1537v282q17 0 36 -4.5t36 -12t35 -17.5t33.5 -21t31.5 -23.5t28 -23.5t24 -23t19.5 -20t14 -15t7.5 -8q22 50 50 81q36 39 79 61.5t105 22.5q64 0 117.5 -25.5t90 -68t62 -98.5t37 -115t11.5 -120v-1051v-5q-1 -11 -0.5 -16.5t3 -13.5t8.5 -11.5t15 -3.5h80v-288h-193 q-105 0 -165.5 70.5t-60.5 174.5v1144q0 8 0.5 26t0.5 26.5t-1 24t-3.5 23t-6.5 18.5t-10.5 16t-16.5 9t-23 5q-38 0 -101 -104q-42 -76 -55 -103q-19 48 -62 103q-89 104 -226 104z" />
<glyph unicode="&#xe45;" horiz-adv-x="1060" d="M57 846v280q44 44 99 73q119 72 276 72q101 0 193.5 -34.5t162.5 -96t111.5 -152.5t41.5 -197v-1119q0 -23 -13 -50t-28 -46.5t-39 -46.5q-34 -38 -81 -75h-150v1311q0 55 -18.5 97.5t-44 65.5t-58.5 37.5t-56.5 18.5t-43.5 4q-107 0 -235 -72q-43 -22 -117 -70z" />
<glyph unicode="&#xe46;" horiz-adv-x="1216" d="M57 895q0 68 25 135t68.5 120.5t107.5 87t137 33.5q27 0 55.5 -25.5t65.5 -72.5q34 -48 62 -96q33 57 65 96q77 98 124 98q62 0 116 -24t92.5 -63t66.5 -88.5t41.5 -101t13.5 -99.5v-1223q0 -33 -21 -67t-59 -76q-34 -38 -81 -75h-151v1389q0 36 -3.5 63.5t-9 42.5 t-12 24.5t-11.5 12t-10 2.5q-3 0 -6.5 -1.5t-8 -6l-8.5 -8.5t-10.5 -11.5t-11 -13.5t-11.5 -16t-12 -16t-13 -18t-13 -18q-58 -91 -67 -107q-13 20 -37 55.5t-34 51.5q-79 109 -93 109q-25 0 -37 -36q-7 -23 -7 -57q0 -60 47 -120q15 -19 49 -38l-104 -251q-86 23 -154 75 q-151 121 -151 334z" />
<glyph unicode="&#xe47;" d="M-1025 1688q0 263 315 275l208 5q98 0 202 89q51 41 87 89v-302q-30 -12 -87 -25q-109 -27 -202 -27h-183q-71 0 -100 -30t-29 -74q0 -17 8 -34.5t26.5 -30.5t42.5 -13q27 0 45 16t34 44q13 31 23 60h74q3 -33 15 -60q19 -60 47 -60q38 0 57.5 32t19.5 88h209 q0 -53 -18 -104t-50 -92.5t-82.5 -67t-110.5 -25.5q-52 0 -96 58q-24 33 -36 59q-12 -28 -39 -59q-57 -58 -117 -58q-113 0 -188 69t-75 178z" />
<glyph unicode="&#xe48;" d="M-411 1441v416h314v-416h-314z" />
<glyph unicode="&#xe49;" d="M-780 1584v273h309q40 0 72 -27.5t32 -65.5q0 -22 15.5 -38t36.5 -14l432 -3l-114 -268h-512q-24 0 -42.5 3.5t-38 12t-30 27.5t-10.5 48q0 52 -46 52h-104z" />
<glyph unicode="&#xe4a;" d="M-975 1610q0 48 17 90t44.5 70.5t62 49t69.5 30t67 9.5q46 0 88 -59q19 -35 29 -60q14 38 28 57q15 25 38 42.5t51 17.5q42 0 91.5 -17.5t85.5 -46.5t36 -58q0 -6 0.5 -10.5t2.5 -7.5l3 -4.5t4.5 -2t5 -1t7 -0.5h6.5h356l-114 -268h-336q-34 0 -59.5 19t-38 47 t-18.5 54.5t-6 48.5q0 32 -13.5 55t-38.5 23q-13 0 -21.5 -5t-13 -11t-7 -18t-2.5 -20v-24h-94v15v16t-1 13.5t-4 14t-8 10t-13 7.5t-19 2q-21 0 -36.5 -23.5t-15.5 -54.5q0 -52 63 -114q23 -23 63 -55h-268q-28 28 -47 55q-44 62 -44 114z" />
<glyph unicode="&#xe4b;" d="M-541 1511v273h130v73h314v-75h131v-271h-131v-70h-314v70h-130z" />
<glyph unicode="&#xe4c;" d="M-744 1441v120q0 46 27.5 99.5t70.5 96.5t99.5 71.5t109.5 28.5h253l-118 -273h-46q-21 0 -36 -4.5t-23 -11.5t-12.5 -20.5t-6 -27t-1.5 -35.5v-44h-317z" />
<glyph unicode="&#xe4d;" d="M-653 1714q0 117 80.5 199t192.5 82q119 0 201 -81.5t82 -199.5q0 -55 -22 -106t-59.5 -88t-90 -59t-111.5 -22q-111 0 -192 81t-81 194zM-464 1714q0 -33 23 -55.5t56 -22.5q32 0 55 22.5t23 55.5q0 32 -23 55t-55 23q-33 0 -56 -23t-23 -55z" />
<glyph unicode="&#xe4e;" d="M-759 1605q0 56 19.5 101.5t50.5 74t71.5 47.5t79.5 26.5t78 7.5q0 39 29.5 71t77.5 51t105.5 29t117.5 10v-152q-81 0 -129 -63t-48 -195q-148 0 -148 -99q0 -37 21 -57q11 -12 23 -16h-284q-64 65 -64 164z" />
<glyph unicode="&#xe4f;" horiz-adv-x="1320" d="M97 531q0 113 44 215.5t118.5 176.5t177 118t213.5 44q115 0 218.5 -44t177.5 -118t117 -176.5t43 -215.5q0 -90 -27.5 -174.5t-78.5 -153t-119 -120.5t-153.5 -80t-177.5 -28q-111 0 -213.5 44t-177 119t-118.5 178t-44 215zM302 531q0 -94 47 -174.5t127.5 -127.5 t173.5 -47q96 0 176.5 47t126 127.5t45.5 174.5q0 96 -46 176t-125.5 126t-176.5 46q-94 0 -174 -46t-127 -126t-47 -176zM414 531q0 99 68.5 167.5t167.5 68.5t167.5 -68.5t68.5 -167.5t-68.5 -168.5t-167.5 -69.5t-167.5 69.5t-68.5 168.5z" />
<glyph unicode="&#xe50;" horiz-adv-x="1278" d="M57 528q0 56 12 111t34 104.5t53.5 95t70.5 83.5t85 69.5t96.5 53t106.5 33.5t112 12q113 0 218.5 -46t183.5 -121.5t125 -179.5t47 -215t-49.5 -215t-131 -178.5t-189.5 -119t-220 -44.5q-89 0 -173.5 28.5t-152.5 80t-119.5 120.5t-80 153.5t-28.5 174.5zM367 531 q0 -118 77 -200.5t188 -82.5q108 0 185.5 83t77.5 200t-77 199t-186 82q-73 0 -134 -37.5t-96 -102t-35 -141.5z" />
<glyph unicode="&#xe51;" horiz-adv-x="1281" d="M57 625q0 92 44.5 177.5t119 147.5t177.5 99.5t215 37.5q73 0 140.5 -14.5t125.5 -42.5t108.5 -67t89.5 -90t67 -110t42.5 -128t14.5 -144q0 -96 -26.5 -179.5t-70 -142.5t-101.5 -106.5t-118.5 -77t-124 -49t-115 -27.5t-94.5 -8q-6 0 -83 1t-83 1l81 271h10 q37 0 79 7.5t89.5 22t90.5 40.5t77.5 60t55.5 82.5t21 104.5q0 78 -22.5 139.5t-61.5 99t-88 57t-104 19.5t-102 -16.5t-77.5 -42.5t-47 -58t-16.5 -64q0 -29 4 -52.5t11.5 -38.5t16 -26t17 -16.5t15 -8t10.5 -2.5q11 0 17.5 5t9 17.5t3 23t0.5 33.5v6.5v6.5v7v50h311v-118 q0 -22 -3 -46t-13 -55.5t-25 -59.5t-41.5 -56.5t-61 -48.5t-85 -32.5t-112.5 -12.5q-32 0 -67 7t-73 23.5t-73.5 40t-67 58.5t-55 77t-37.5 98.5t-14 119.5z" />
<glyph unicode="&#xe52;" horiz-adv-x="1554" d="M18 1326v279h39q73 0 146 -30.5t129.5 -79.5t101 -107.5t68.5 -117t24 -104.5v-682q0 -63 13 -109t36.5 -71t50.5 -37t59 -12h340q68 0 102.5 41t34.5 118v257v23q1 17 0.5 34.5t-1 34.5t-2.5 33.5t-4.5 31.5t-8 27t-12 21t-17 14t-22.5 5q-47 0 -83 -52q-7 -9 -21 -29 t-16 -23q-19 35 -34 52q-36 52 -80 52q-29 0 -48 -34.5t-19 -80.5q0 -19 8 -33.5t21.5 -23.5t31.5 -15.5t38 -9.5t41.5 -4.5t41.5 -1.5h38h19v-281q-72 0 -110 1.5t-96 8.5t-88.5 20.5t-68 40t-56 65.5t-31.5 97.5t-13 135.5q0 30 7.5 68.5t26 83.5t46 81.5t73.5 61.5 t101 25q25 0 47 -11.5t36 -26t32 -37.5q26 -35 39 -73q14 32 49 73q61 75 130 75q66 0 120.5 -29t90 -74.5t60.5 -103.5t35.5 -114t10.5 -108v-281q0 -193 -122.5 -304t-331.5 -111h-414q-47 0 -97.5 18t-99 54t-87.5 85t-62.5 116.5t-23.5 141.5v783q0 58 -17 89.5 t-64.5 47.5t-136.5 16z" />
<glyph unicode="&#xe53;" horiz-adv-x="1544" d="M57 536q0 122 26.5 221.5t79 173.5t135.5 115t191 41q30 0 58.5 -8.5t51 -22.5t44 -34t37.5 -39.5t32 -43.5q42 -63 65 -148q23 82 66 148q92 148 221 148q84 0 158.5 -40.5t128 -112.5t85 -175t31.5 -223q0 -204 -87 -392q-37 -81 -85 -144h-294q39 67 76 159 q75 183 75 377q0 140 -36.5 206.5t-93.5 66.5q-25 0 -43.5 -9.5t-31 -32t-20.5 -51t-12 -75.5t-5.5 -95t-1.5 -119h-292q0 63 -2 110.5t-6.5 93t-12.5 76.5t-20.5 55t-31 35.5t-41.5 11.5q-10 0 -19 -2t-22 -8.5t-24 -18t-22.5 -32.5t-19.5 -48.5t-13 -69.5t-5 -94 q0 -143 51 -212t145 -69q41 0 106 13q9 3 60 15v-249q-17 -21 -42 -31q-52 -32 -127 -32q-67 0 -136 20t-137.5 65t-121 109t-85.5 160t-33 211z" />
<glyph unicode="&#xe54;" horiz-adv-x="1502" d="M57 523q0 55 4.5 105.5t17 106t31.5 103t51 91t73 74t100 48.5t130 18h395q36 0 64 4.5t56.5 17t47.5 34t30.5 59t11.5 87.5v339l315 -5l-6 -463q0 -62 -16.5 -114.5t-45.5 -90t-67 -66.5t-81.5 -45.5t-89 -23t-90.5 -3.5h-408q-105 0 -157.5 -75.5t-52.5 -205.5 q0 -68 9 -111.5t32.5 -72.5t61.5 -41t97 -12l309 -3q-65 33 -130 94q-128 123 -128 283h320q0 -111 34 -194t105.5 -131.5t172.5 -48.5h131v-281h-905q-84 0 -162 42.5t-135 113t-91 167t-34 200.5z" />
<glyph unicode="&#xe55;" horiz-adv-x="1507" d="M57 518q0 54 5 105.5t18 107t32.5 104t51.5 92t72 75t96 49.5t123 18h21l-1 11q-1 10 -1 17q0 110 75.5 185.5t184.5 75.5t184 -75.5t75 -185.5v-7q19 11 33.5 24t23.5 25t14.5 28.5t8 30t3.5 35t0.5 37.5t-1.5 44t-1 49v247h318v-442q0 -93 -29 -165t-80 -116t-117 -66 t-144 -22h-424q-107 0 -164 -76t-57 -205t39 -183t145 -54h325q-62 29 -129 91q-130 125 -130 283h323q0 -63 17 -122t46 -104t65.5 -79t76.5 -51.5t78 -17.5h159v-281h-908q-69 0 -135 31t-118 83.5t-91.5 119t-61 140.5t-21.5 144zM655 1077q0 -33 23 -56t56 -23h8 q30 6 50 27t20 52t-23.5 54t-54.5 23q-33 0 -56 -22.5t-23 -54.5z" />
<glyph unicode="&#xe56;" horiz-adv-x="1685" d="M18 1326v282h54q113 0 205 -30t158.5 -82.5t118 -132t85.5 -169t61 -203.5q40 31 85 54q111 55 253 55q111 0 205 -31.5t160 -85t112.5 -123.5t68 -147t21.5 -157q0 -86 -23.5 -170t-71.5 -158t-114.5 -130.5t-159 -89.5t-198.5 -33q-94 0 -176.5 30.5t-141 76.5 t-108.5 110.5t-80 122t-53 119.5h317q37 -87 100 -133t142 -46q19 0 43 6.5t53.5 19.5t57 37t50.5 56t37 79t14 103q0 44 -11.5 82t-31 66t-45 49.5t-54.5 34.5t-57.5 19.5t-55.5 6.5q-46 0 -83.5 -14.5t-64.5 -39t-48 -61t-35 -75.5t-25 -88h-278q-32 150 -56.5 247 t-57 195.5t-65.5 156t-78.5 105t-101 67t-127.5 19.5z" />
<glyph unicode="&#xe57;" horiz-adv-x="2040" d="M57 536q0 159 47.5 281t136 189.5t206.5 67.5q39 0 74.5 -14.5t61.5 -36t50.5 -53.5t39.5 -58t30 -59.5t20 -48t11 -32.5q2 -6 3 -7q0 3 5 20.5t16.5 46t27 60.5t39.5 64.5t51.5 58.5t65 42.5t78.5 16.5q177 0 283.5 -145.5t106.5 -392.5v-54t0.5 -42.5t0 -31t-2 -27 t-4.5 -23.5t-7.5 -27t-12.5 -31q20 2 34 8.5t23.5 19.5t15 28t8.5 42.5t3.5 54t0.5 70.5v678q0 88 26.5 158t71 116t107.5 76.5t132 43.5t147 13h37v-282q-56 0 -91.5 -4t-60 -12.5t-36 -26t-16 -39.5t-4.5 -58v-783q0 -62 -19 -118.5t-50.5 -100t-72.5 -79t-85.5 -58 t-88 -35t-82.5 -12.5h-453q54 84 84 159q82 190 82 377q0 98 -10.5 153t-32.5 77.5t-61 22.5q-74 0 -101.5 -71.5t-27.5 -233.5h-261q0 141 -32.5 223t-94.5 82q-18 0 -28.5 -2t-27.5 -15.5t-26.5 -38.5t-16.5 -75t-7 -122q0 -69 16.5 -124.5t44 -88.5t60 -50.5t65.5 -17.5 q43 0 112 18q11 4 34 10.5t32 9.5v-259q-33 -18 -69 -31q-61 -28 -111 -28q-62 0 -119.5 15t-106.5 43.5t-91.5 67.5t-75.5 88t-56.5 104.5t-35.5 117t-12 125.5z" />
<glyph unicode="&#xe58;" horiz-adv-x="1510" d="M57 536q0 84 19.5 162.5t58 145.5t92.5 117.5t128.5 79t160.5 28.5h353q35 0 63.5 4.5t57 18t47.5 35.5t31 60t12 88v335h314v-401q0 -72 -14 -132t-37.5 -102t-57.5 -75t-71 -53t-79.5 -33t-81.5 -18t-80 -5h-325q-73 0 -125.5 -17.5t-83.5 -52.5t-45 -82t-14 -111 q0 -55 7.5 -101.5t19.5 -77t27 -52t29.5 -30.5t27.5 -9q42 0 76.5 45t59.5 114q20 50 44 158q32 -84 81 -158q27 -44 55.5 -77.5t65 -57.5t71.5 -24q34 0 57 7t41 27t26.5 56.5t8.5 93.5v67h315v-67q0 -467 -448 -467q-122 0 -207 95q-44 50 -66 96q-17 -49 -46 -96 q-66 -95 -161 -95q-73 0 -145.5 42t-130.5 114.5t-94.5 179t-36.5 225.5z" />
<glyph unicode="&#xe59;" horiz-adv-x="1789" d="M57 536q0 92 24 179.5t62.5 153t86.5 116t98 76.5t94 26q52 0 96.5 -14t81 -42t62 -55t56.5 -68q-2 119 59 193.5t169 74.5q45 0 88.5 -13.5t76 -34t64.5 -44t55.5 -44t47 -34t40.5 -13.5q26 0 32 51.5t5 179.5v69v317h315v-317q0 -51 -1.5 -88.5t-5.5 -93.5t-14 -98.5 t-25.5 -91.5t-41.5 -83.5t-59.5 -64.5t-82.5 -45.5t-108 -15.5q-47 0 -93.5 14.5t-81.5 35.5t-69 45t-59 43.5t-48.5 30t-39.5 5.5l-3.5 -1t-8 -4t-9.5 -8.5t-8.5 -18t-3.5 -30.5q0 -20 3 -25l41 -144q10 -38 35 -124t68.5 -237t83.5 -294h-307l-202 705q-14 49 -57.5 81.5 t-70.5 32.5q-13 0 -25 -4t-28 -13.5t-29.5 -30.5t-25 -50.5t-18 -77t-6.5 -107.5q0 -69 14.5 -124t38.5 -88.5t53.5 -51t61.5 -17.5q39 0 107 26l62 26v-268q-21 -16 -32.5 -23t-36.5 -19t-56 -17t-70 -5q-70 0 -138 29t-124.5 82t-100 122.5t-68 154.5t-24.5 173z" />
<glyph unicode="&#xe5a;" horiz-adv-x="1645" d="M57 1246h307q9 -37 15 -59.5t15 -49.5t18.5 -43t23 -32.5t30 -25t38.5 -14t50 -5.5q53 0 98.5 25t81 77t55.5 127h296v-802q0 -56 -5 -102.5t-17 -93.5t-32 -83t-52 -68t-75 -52.5t-102.5 -32.5t-133.5 -12v283q10 0 26 -0.5t22 -1t16.5 2.5t13.5 7.5t9 16t7.5 26.5 t4 40.5t3 56.5t0.5 76v289q-29 -20 -63 -31q-71 -31 -203 -31q-84 0 -154.5 32t-118.5 82.5t-85 120t-57.5 137t-31.5 140.5zM1196 0v1251l315 -5v-1246h-315z" />
<glyph unicode="&#xe5b;" horiz-adv-x="2038" d="M97 516q0 85 20 165.5t64 153.5t108 127.5t159 87t210 32.5q82 0 152 -20.5t121 -57t87.5 -77.5t63.5 -90q58 -104 78 -241h-307q-12 62 -36 106q-60 107 -159 107q-35 0 -69 -10.5t-66 -34t-56 -56.5t-38.5 -83t-14.5 -109q0 -48 11.5 -88.5t32 -68.5t45.5 -49t54 -33 t56.5 -18t54.5 -6q78 0 173 80q41 37 75 84l134 -126l107 133l123 -131l114 139q20 -38 58 -92q62 -90 127 -90q52 0 52 43q0 54 -57 121q-6 6 -17.5 18t-21.5 21.5t-19 17.5h300q23 -20 51 -52q55 -64 55 -156q0 -34 -12 -72t-37.5 -76.5t-60.5 -69.5t-87 -50.5t-112 -19.5 q-78 0 -154 95q-36 52 -54 96l-107 -129l-119 129l-102 -129l-136 129q-33 -59 -72 -99q-97 -96 -201 -96t-197 31.5t-160 85t-116.5 123.5t-73.5 148t-24 157z" />
<glyph unicode="&#x2000;" horiz-adv-x="1194" />
<glyph unicode="&#x2001;" horiz-adv-x="2388" />
<glyph unicode="&#x2002;" horiz-adv-x="1194" />
<glyph unicode="&#x2003;" horiz-adv-x="2388" />
<glyph unicode="&#x2004;" horiz-adv-x="796" />
<glyph unicode="&#x2005;" horiz-adv-x="597" />
<glyph unicode="&#x2006;" horiz-adv-x="398" />
<glyph unicode="&#x2007;" horiz-adv-x="398" />
<glyph unicode="&#x2008;" horiz-adv-x="298" />
<glyph unicode="&#x2009;" horiz-adv-x="477" />
<glyph unicode="&#x200a;" horiz-adv-x="132" />
<glyph unicode="&#x2010;" horiz-adv-x="878" d="M97 494v255h662v-255h-662z" />
<glyph unicode="&#x2011;" horiz-adv-x="878" d="M97 494v255h662v-255h-662z" />
<glyph unicode="&#x2012;" horiz-adv-x="878" d="M97 494v255h662v-255h-662z" />
<glyph unicode="&#x2013;" horiz-adv-x="1151" d="M97 494v255h936v-255h-936z" />
<glyph unicode="&#x2014;" horiz-adv-x="1645" d="M97 494v255h1430v-255h-1430z" />
<glyph unicode="&#x2018;" horiz-adv-x="527" d="M97 936v218q0 139 116 256q51 50 117 94h346q-83 -49 -135 -94q-58 -50 -95 -115.5t-37 -140.5v-218h-312z" />
<glyph unicode="&#x2019;" horiz-adv-x="529" d="M-169 936q66 39 132 97q134 122 134 252v219h317v-219q0 -132 -121 -252q-47 -51 -116 -97h-346z" />
<glyph unicode="&#x201c;" horiz-adv-x="943" d="M97 936v218q0 139 116 256q51 50 117 94h302q-77 -51 -120 -94q-117 -117 -117 -256v-218h-298zM509 936v218q0 75 37.5 140.5t96.5 115.5q57 50 132 94h302q-87 -51 -136 -94q-58 -50 -95 -115.5t-37 -140.5v-218h-300z" />
<glyph unicode="&#x201d;" horiz-adv-x="946" d="M-169 936q66 39 132 97q134 122 134 252v219h298v-219q0 -131 -132 -252q-52 -49 -133 -97h-299zM276 936q66 44 119 97q121 120 121 252v219h298v-219q0 -133 -119 -252q-48 -51 -117 -97h-302z" />
<glyph unicode="&#x2022;" horiz-adv-x="810" d="M97 625q0 128 88 215.5t215 87.5q124 0 210.5 -87.5t86.5 -215.5q0 -122 -87.5 -209.5t-209.5 -87.5q-126 0 -214.5 87.5t-88.5 209.5z" />
<glyph unicode="&#x2026;" horiz-adv-x="1619" d="M97 0v281h312v-281h-312zM643 0v281h312v-281h-312zM1189 0v281h312v-281h-312z" />
<glyph unicode="&#x202f;" horiz-adv-x="477" />
<glyph unicode="&#x205f;" horiz-adv-x="597" />
<glyph unicode="&#x20ac;" horiz-adv-x="1510" d="M97 419v202h132l-3 66q0 48 3 78h-132v205h174q35 86 80 154.5t96.5 117.5t108.5 83.5t122 55t132 30t142 9.5q111 0 201 -13t140 -28.5t99 -38.5l-109 -273q-76 37 -165.5 57t-173.5 20q-55 0 -104.5 -11.5t-91 -33.5t-75.5 -54.5t-57 -74.5h469v-205h-539 q-1 -8 -4.5 -34.5t-3.5 -43.5q0 -46 3 -66h492v-202h-422q36 -51 86.5 -87t100 -51.5t84.5 -21.5t62 -6q44 0 86 7.5t86 25t71 30t76 37.5l4 2t4.5 2.5t4.5 2.5l4 2l109 -268q-203 -119 -476 -119q-106 0 -208.5 29.5t-189 84.5t-150.5 140.5t-89 189.5h-179z" />
<glyph unicode="&#x2122;" horiz-adv-x="1037" d="M97 1280v73h332v-73h-122v-399h-83v399h-127zM460 881v472h94l143 -341l156 341h86v-472h-73v336l-159 -336h-25l-141 336v-336h-81z" />
<glyph unicode="&#xe000;" horiz-adv-x="1065" d="M0 0v1067h1067v-1067h-1067z" />
<glyph horiz-adv-x="836" />
<glyph horiz-adv-x="1261" d="M47 1007q29 70 99 132q153 132 418 132q53 0 118.5 -13.5t116.5 -31.5q17 5 29 12.5t20 20.5t12 23.5t6 32t2.5 35.5t0.5 44h312q0 -69 -23.5 -138.5t-64 -119t-86.5 -62.5q86 -82 131.5 -201.5t45.5 -224.5q0 -104 -20 -192t-54.5 -153t-83.5 -117.5t-105.5 -86.5 t-122 -56.5t-130.5 -32.5t-135 -10h-116l-99 385q-2 5 -5 15t-4.5 12.5t-5 7.5t-9 6t-13.5 1h-73v285h135q30 0 53.5 -2.5t58 -16t62 -37t57 -69t51.5 -108.5l43 -191q14 0 34 11.5t43 32.5t45.5 53.5t40.5 70.5t29 88.5t11 103.5q0 62 -13 113.5t-34 85.5t-49.5 60.5 t-56.5 40.5t-59.5 23t-53 12t-41.5 3q-104 0 -179 -33.5t-140 -88.5q-65 -61 -96 -122z" />
<glyph horiz-adv-x="1971" d="M57 921q50 94 130 174q176 176 406 176q91 0 178.5 -19t161.5 -56.5t130.5 -88.5t88.5 -119.5t32 -144.5v-409q0 -93 24 -136t90 -43h109q63 0 97.5 46t34.5 133v812h313v-802q0 -63 -13.5 -125.5t-45.5 -125.5t-79.5 -111t-122 -77.5t-166.5 -29.5h-208q-87 0 -154.5 36 t-110 100t-64.5 149t-22 184v347q0 91 -69 144t-186 53q-120 0 -174 -33q-24 -16 -28 -34l161 -130q-24 -17 -49 -47q-52 -61 -52 -161l-3 -245v-9.5v-10.5t1 -9t2.5 -9t4 -5.5t7 -5t10.5 -1.5h94v-288l-161 -3q-71 0 -124 20.5t-82 56t-43 78t-14 93.5v338q0 75 21 154 q9 25 24 54q-21 16 -76 65q-19 15 -36.5 30t-27 24t-9.5 11z" />
<glyph d="M-1173 1690q0 273 309 273h157q99 0 203 79q50 36 85 80l2 -275q-40 -15 -87 -26q-115 -26 -203 -26h-130q-37 0 -64 -9.5t-41 -25t-20 -32.5t-6 -38q0 -29 13 -53t39 -24q50 0 70 57q12 27 12 60h49q4 -33 15 -60q20 -57 63 -57q23 0 42 24t27 49.5t8 43.5h206 q0 -127 -70.5 -208t-187.5 -81q-50 0 -93 60q-27 38 -37 60q-13 -37 -25 -57q-40 -57 -104 -57q-51 0 -94.5 17.5t-74 49t-47 77t-16.5 99.5z" />
<glyph d="M-601 2115l3 273h293q41 0 72.5 -27t31.5 -65q0 -22 15.5 -37t36.5 -15h318l-117 -270h-364q-40 0 -69.5 11t-45 31t-15.5 46q0 53 -47 53h-112z" />
<glyph d="M-702 2055q0 51 19 94t48 70t63.5 46.5t64 27.5t50.5 8q38 0 75 -59q25 -45 31 -58q19 37 33 58q42 59 92 59q112 0 184 -117q4 -5 8.5 -11t5.5 -7.5t4 -4t5.5 -2.5h8.5l179 -3l-117 -268h-159q-66 0 -94 29.5t-28 75.5q0 139 -57 139q-20 0 -29.5 -22t-9.5 -55h-52 q0 30 -10 53.5t-30 23.5q-21 0 -36.5 -23.5t-15.5 -53.5q0 -58 50 -112q15 -18 52 -55h-236q-37 37 -50 55q-49 54 -49 112z" />
<glyph horiz-adv-x="2209" d="M57 921q55 97 136 174q78 78 183 127t235 49q157 0 293.5 -59t211.5 -162q160 221 445 221q101 0 193.5 -34.5t162.5 -96t111.5 -152.5t41.5 -197v-1119q0 -33 -21 -67t-59 -76q-34 -38 -81 -75h-151v1311q0 55 -18.5 97.5t-44 65.5t-58.5 37.5t-57 18.5t-43 4 q-65 0 -119 -11t-89 -28t-62.5 -39.5t-42 -43t-24 -40t-12 -30t-2.5 -14.5v-1110q0 -23 -13.5 -50t-28 -46t-39.5 -47q-38 -42 -80 -75h-154v1337q0 197 -273 197q-97 0 -151 -33q-23 -13 -36 -34l155 -130q-95 -95 -95 -208v-240q0 -18 5.5 -30t13.5 -17.5t21.5 -8t24 -2 t27 1.5t25.5 1v-285h-185q-72 0 -125 27.5t-82.5 82.5t-29.5 132v338q0 75 21 154q17 45 21 54q-20 16 -76 65q-75 60 -75 65z" />
<glyph horiz-adv-x="2209" d="M57 921q49 99 127 174q177 176 443 176q130 0 271 -62.5t216 -165.5q20 32 46 61t66.5 60.5t87 54.5t111 37.5t136.5 14.5q101 0 193.5 -34.5t162.5 -96t111.5 -152.5t41.5 -197v-1119q0 -33 -21 -67t-59 -76q-34 -38 -81 -75h-151v1311q0 55 -18.5 97.5t-44 65.5 t-58.5 37.5t-57 18.5t-43 4q-63 0 -115.5 -10t-87.5 -26t-63 -36.5t-43 -39.5t-25 -37.5t-13.5 -28.5t-3.5 -14v-1124q0 -23 -13.5 -50t-28 -46t-39.5 -47q-38 -42 -80 -75h-154v1337q0 24 -6.5 47.5t-19 45.5t-32.5 41t-45.5 33t-58.5 22t-71 8q-129 0 -188 -33 q-27 -15 -39 -34l162 -130q-22 -16 -45 -47q-42 -71 -42 -161v-338q0 -98 -64.5 -170t-161.5 -72q-32 0 -97.5 -1.5t-97.5 -1.5v283h79q6 1 10.5 2t7 4t4 4.5t2.5 6.5t1 6.5v9.5v9l-5 258q-3 65 20 154q10 25 24 54q-20 16 -76 65q-75 60 -75 65z" />
</font>
</defs>
</svg>
