<?xml version="1.0" standalone="no"?>
<!DOCTYPE svg PUBLIC "-//W3C//DTD SVG 1.1//EN" "http://www.w3.org/Graphics/SVG/1.1/DTD/svg11.dtd" >
<svg xmlns="http://www.w3.org/2000/svg">
<metadata></metadata>
<defs>
<font id="thaisans_neuebold" horiz-adv-x="0" >
<font-face units-per-em="2048" ascent="1552" descent="-496" />
<missing-glyph horiz-adv-x="896" />
<glyph unicode="&#x3b;&#x3b;arm&#x3b;&#x3b;" horiz-adv-x="2907" d="M103 1727v112h445v223q-63 0 -114.5 66.5t-51.5 154.5q0 95 67.5 159t154.5 64q106 0 164.5 -58t58.5 -165q0 -30 -7 -60.5t-21 -58.5t-33.5 -50t-47 -36t-58.5 -16v-223h446v-112h-446v-334l299 -669h-112l-243 557l-242 -557h-112l298 669v334h-445zM215 0q0 26 6.5 52 t22 52t37.5 46t55 32t73 12q84 0 139.5 -55t55.5 -139q0 -106 -75 -159l61 -284l154 307h56l152 -307l98 582h139l-44 -234l30 56l181 42q0 194 30.5 310t90.5 166t158 50q81 0 124 -53.5t43 -140.5h-56q0 45 -21.5 78t-61.5 33q-104 0 -150 -101t-46 -314l204 49l25 -102 l-229 -58v-112q0 -81 -1 -143.5t-5 -131t-11 -119t-18.5 -103t-27.5 -89t-39 -70t-52.5 -53.5t-67.5 -31.5t-84 -11.5q-87 0 -140.5 43.5t-53.5 123.5h56q0 -39 33 -61.5t78 -22.5q41 0 73 11.5t55 40t39.5 56t26.5 82.5t16 95t8.5 116.5t3 125t0.5 142.5v83l-222 -56 l-95 -500h-72l-196 417l-194 -417h-72l-90 445l50 34q-3 -3 -16 -3q-8 -3 -40 -3q-18 0 -38.5 4.5t-42.5 13.5t-42 24.5t-36 35.5t-25.5 49.5t-9.5 64.5zM326 0q0 -34 22 -57t61 -23q83 0 83 80q0 83 -83 83q-40 0 -61.5 -23.5t-21.5 -59.5zM492 2283q0 -47 26.5 -79 t85.5 -32q31 0 53.5 9.5t34.5 25.5t17.5 35t5.5 41q0 31 -9 53.5t-25.5 35t-35.5 18t-41 5.5q-48 0 -80 -26t-32 -86zM1134 724l634 1727h480l556 -1727h-444l-170 530h-750l-196 -530h-110zM1496 1393h646l-303 946zM1855 56l56 279h83l-83 -279h-56zM1933 2368l36 -109 l64 109h-100zM1988 2209l23 -78l145 237h-70zM1994 56l56 279h84l-84 -279h-56zM2030 2078l32 -101l155 263l-30 94zM2089 1894l16 -55l157 258l-17 56zM2128 1772l17 -56l156 259l-18 55zM2164 -276q0 137 43 258.5t120.5 196t170.5 74.5q98 0 167 -45.5t104 -133 t35 -210.5q0 -266 -94.5 -397.5t-266.5 -131.5q-56 0 -104 22t-88.5 67t-63.5 122t-23 178zM2169 1643l18 -56l155 257l-19 59zM2206 1531l19 -66l156 259l-19 67zM2245 1404l19 -56l154 260l-15 55zM2275 -220l391 167q-4 50 -22 95q-44 97 -146 97q-120 0 -183 -181 q-27 -75 -40 -178zM2275 -359q0 -32 10.5 -65.5t30 -63t53 -48.5t74.5 -19q40 0 72.5 15t55 42.5t38 57t28.5 67.5q25 80 29 181zM2283 1278l18 -44l155 254l-13 53zM2320 1170l16 -45l157 257l-16 47zM2357 1058l16 -53l159 254l-17 59zM2392 947l21 -64l155 262l-19 61z M2429 835l8 -27h37l130 220l-19 67zM2517 808h56l68 114l-20 56zM2618 808h56l-19 61z" />
<glyph unicode=" "  horiz-adv-x="896" />
<glyph unicode="&#x09;" horiz-adv-x="896" />
<glyph unicode="&#xa0;" horiz-adv-x="896" />
<glyph unicode="!" horiz-adv-x="447" d="M103 0v239h242v-239h-242zM103 385v1125h242v-1125h-242z" />
<glyph unicode="&#x22;" horiz-adv-x="809" d="M103 1002v508h237v-508h-237zM471 1002v508h236v-508h-236z" />
<glyph unicode="#" horiz-adv-x="1619" d="M103 404l56 212h211l58 214h-210l53 209h216l103 388h242l-104 -388h308l106 388h242l-106 -388h240l-59 -209h-236l-59 -214h240l-62 -212h-236l-109 -404h-239l108 404h-308l-112 -404h-239l107 404h-211zM613 616h309l59 214h-309z" />
<glyph unicode="$" horiz-adv-x="1172" d="M103 101v200q77 -38 139 -59q160 -58 298 -58q145 0 216 65.5t71 170.5q0 48 -20.5 86.5t-55 63.5t-81 48t-98.5 38.5t-107 36.5t-107 41.5t-98.5 53.5t-81 72.5t-55 98t-20.5 130.5q0 95 51 170.5t135 121.5t192 65v215h237v-213q116 -12 220 -55q50 -22 75 -40v-200 q-58 26 -117 45q-149 44 -306 44q-38 0 -80.5 -11.5t-79.5 -31t-61 -49t-24 -61.5q0 -42 25 -75t67 -56t96 -43.5t114 -42t120 -46t114.5 -60.5t96 -81.5t66.5 -113t25 -151.5q0 -60 -10.5 -114t-36.5 -107t-65 -94t-101 -72t-141 -44v-220h-234v207q-145 3 -274 63 q-51 25 -104 62z" />
<glyph unicode="%" horiz-adv-x="1670" d="M103 1193q0 199 83.5 316.5t225.5 117.5q136 0 217 -112t81 -303q0 -193 -86 -314t-226 -121q-137 0 -216 114.5t-79 301.5zM265 0l977 1738h265l-981 -1738h-261zM340 1198q0 -67 5.5 -111t16 -64t21.5 -27t26.5 -7t26.5 7.5t21.5 28t16 65t5.5 111.5q0 51 -4 89.5 t-10 61.5t-15.5 37.5t-19 19.5t-21.5 5q-24 0 -38 -16t-22.5 -64.5t-8.5 -135.5zM962 367q0 202 82.5 323t228.5 121q134 0 214.5 -116t80.5 -307q0 -190 -87 -307.5t-222 -117.5t-216 110.5t-81 293.5zM1198 375q0 -205 67 -205q72 0 72 205q0 223 -72 223q-33 0 -50 -52 t-17 -171z" />
<glyph unicode="&#x26;" horiz-adv-x="1617" d="M103 385q0 150 77.5 252t234.5 174q-73 47 -123 124.5t-50 175.5q0 74 31.5 138t86 109t131 70.5t163.5 25.5q105 0 195 -43t141.5 -115t51.5 -156q0 -51 -11.5 -92.5t-31 -74.5t-52.5 -64t-70.5 -55.5t-90.5 -53.5q67 -45 111.5 -78.5t81 -71t59 -64.5t62.5 -81 q71 125 101.5 234t37.5 225l3 75h249q-11 -174 -76.5 -371t-172.5 -347q29 -36 64 -59.5t87.5 -36.5t121.5 -13v-212q-288 0 -423 151q-107 -91 -226 -133t-270 -42q-111 0 -200 24t-155 72.5t-102 128t-36 184.5zM345 385q0 -201 251 -201q115 0 189.5 30t163.5 100 q-12 17 -39.5 56.5t-39 55t-36.5 48.5t-41 49t-43 42t-51.5 43t-57.5 36.5t-70 35.5l-35 -17.5t-33 -17.5t-32.5 -20t-29 -21t-27.5 -24.5t-22.5 -28t-20 -33.5t-13.5 -37.5t-10 -44.5t-3 -51zM484 1111q0 -123 117 -200q102 42 150.5 97t48.5 117q0 49 -45.5 79t-100.5 30 q-83 0 -126.5 -37.5t-43.5 -85.5z" />
<glyph unicode="'" horiz-adv-x="447" d="M103 1002v508h242v-508h-242z" />
<glyph unicode="(" horiz-adv-x="686" d="M61 552q0 280 92 524.5t262 443.5h250q-172 -209 -272.5 -459.5t-100.5 -508.5q0 -500 377 -942h-254q-180 214 -267 440t-87 502z" />
<glyph unicode=")" horiz-adv-x="686" d="M19 -390q374 438 374 938q0 182 -48.5 359t-130 325.5t-195.5 287.5h252q112 -131 190.5 -280t122 -324.5t43.5 -363.5q0 -546 -356 -942h-252z" />
<glyph unicode="*" horiz-adv-x="803" d="M103 1103l226 117l-226 117l91 125l160 -150l-30 219h155l-33 -221l165 152l91 -125l-229 -117l229 -117l-91 -125l-165 152l33 -222h-155l30 219l-160 -149z" />
<glyph unicode="+" horiz-adv-x="1116" d="M103 496v211h349v362h213v-362h348v-211h-348v-329h-213v329h-349z" />
<glyph unicode="," horiz-adv-x="450" d="M-114 -303q54 33 109 88q108 120 108 246v197h245v-197q0 -140 -111 -251q-53 -53 -112 -83h-239z" />
<glyph unicode="-" horiz-adv-x="824" d="M103 529v201h618v-201h-618z" />
<glyph unicode="." horiz-adv-x="447" d="M103 0v228h242v-228h-242z" />
<glyph unicode="/" horiz-adv-x="739" d="M19 0l468 1738h234l-468 -1738h-234z" />
<glyph unicode="0" horiz-adv-x="1228" d="M61 685q0 178 40.5 323.5t113 243.5t174.5 151.5t224 53.5q119 0 219.5 -49.5t175 -141.5t117 -233.5t42.5 -317.5q0 -171 -44.5 -312t-123 -234t-184 -143t-227.5 -50q-118 0 -215 47t-166.5 136t-107.5 223.5t-38 302.5zM303 694q0 -111 16.5 -199t44 -145.5 t66.5 -95.5t81 -54t90 -16q50 0 95 17t87 56.5t72.5 98t48.5 147.5t18 199q0 113 -18 205t-48 153t-72 102t-87.5 59t-95.5 18q-47 0 -89 -18t-80.5 -59t-66.5 -102.5t-45 -155.5t-17 -210z" />
<glyph unicode="1" horiz-adv-x="712" d="M61 983v210q112 42 231 141q68 63 98 93h221v-1427h-244v1103q-51 -34 -136 -68t-170 -52z" />
<glyph unicode="2" horiz-adv-x="1018" d="M61 0v173q0 54 22 108.5t59 103t85 96.5t101 93.5t106.5 91t101.5 91.5t85 91.5t59 96t22 99.5q0 54 -17 93t-46.5 60.5t-64 31.5t-75.5 10q-95 0 -205 -35t-177 -96v204q62 64 162 104.5t220 40.5q200 0 322.5 -110t122.5 -286q0 -42 -7.5 -81.5t-17.5 -73t-30 -69 t-37 -62t-46.5 -59.5t-49 -53.5t-55.5 -52.5t-55.5 -48t-57.5 -48q-46 -38 -70 -58.5t-62 -56t-59 -61t-42 -59.5t-31 -67h676v-212h-939z" />
<glyph unicode="3" horiz-adv-x="1047" d="M103 69v221q64 -54 156 -80t190 -26q39 0 78 6.5t78.5 22t70 38.5t49.5 59t19 80q0 87 -48.5 138t-158 75t-295.5 24v208q110 -4 223 20q45 9 82.5 24t70.5 38t51.5 58t18.5 78q0 186 -192 186q-215 0 -337 -91v205q70 46 157.5 75t179.5 29q79 0 156.5 -26t139.5 -71.5 t100 -114.5t38 -147t-25 -139.5t-70.5 -103.5t-103 -68.5t-127.5 -39.5q55 -7 108 -23.5t103 -46t87.5 -67.5t60.5 -91.5t23 -114.5q0 -194 -143.5 -311t-393.5 -117q-91 0 -185.5 27.5t-160.5 65.5z" />
<glyph unicode="4" horiz-adv-x="1077" d="M19 326v192l643 909h226v-884h170v-217h-170v-326h-242v326h-627zM311 543h335v480z" />
<glyph unicode="5" horiz-adv-x="991" d="M103 42v231q33 -22 86 -45q103 -42 199 -42q66 0 118 11.5t94 38t65 74.5t23 116q0 54 -17.5 100.5t-51 83t-88.5 57.5t-124 21q-94 0 -218 -19q-76 -18 -86 -20v778h732v-215h-490v-324h83q106 0 196.5 -28.5t159 -83.5t107.5 -141.5t39 -196.5q0 -214 -140 -338 t-402 -124q-160 0 -285 66z" />
<glyph unicode="6" horiz-adv-x="1088" d="M61 622q0 206 44.5 366.5t124.5 262t189 154t241 52.5q47 0 97.5 -4t104 -14t85.5 -25v-213q-67 13 -89 19q-93 19 -198 19q-104 -1 -179.5 -52t-116 -140t-50.5 -212q90 90 268 90q86 0 167 -35.5t143 -96.5t99 -149t37 -187q0 -137 -64 -247.5t-174.5 -172 t-244.5 -61.5q-68 0 -130.5 19t-116 56t-97.5 93t-75 126.5t-48 160t-17 191.5zM317 471q0 -76 20 -133.5t53.5 -90t72.5 -48t82 -15.5q42 0 84 18.5t77.5 52.5t57.5 87t22 115q0 70 -20.5 121.5t-55.5 79.5t-76 41.5t-89 13.5q-47 0 -86.5 -16.5t-65 -42t-43.5 -58 t-25.5 -64t-7.5 -61.5z" />
<glyph unicode="7" horiz-adv-x="1007" d="M19 1212v215l970 -3v-84l-502 -1340h-250l459 1212h-677z" />
<glyph unicode="8" horiz-adv-x="1060" d="M61 393q0 236 210 375q-79 56 -116.5 135t-37.5 169q0 74 30 143t82.5 123t131 86.5t168.5 32.5q85 0 163 -34t132.5 -88t87 -123.5t32.5 -139.5q0 -65 -18 -119.5t-51 -98.5t-83 -86q99 -59 153.5 -159t54.5 -216q0 -191 -125 -304t-341 -113q-227 0 -350 112t-123 305z M303 423q0 -61 18.5 -108t50 -75t71.5 -42t86 -14t86.5 13.5t72.5 41t51 74.5t19 107q0 106 -64.5 173t-164.5 67q-43 0 -82.5 -14.5t-72 -42t-52 -74.5t-19.5 -106zM359 1055q0 -87 47 -134t123 -47q41 0 80 19.5t67 62.5t28 99q0 30 -11 61.5t-32 59.5t-55.5 45.5 t-76.5 17.5q-38 0 -68.5 -12t-49 -31t-31 -44t-17 -48.5t-4.5 -48.5z" />
<glyph unicode="9" horiz-adv-x="1085" d="M61 972q0 106 39 197.5t104.5 154t152.5 98t183 35.5q145 0 256 -84t170 -234.5t59 -344.5q0 -399 -162 -608.5t-459 -209.5q-70 0 -142.5 9t-120.5 26v215q13 -5 40.5 -12t36.5 -10q89 -20 183 -20q51 0 96.5 11.5t90.5 41t80 74.5t62.5 116.5t40.5 162.5 q-85 -88 -266 -88q-89 0 -170.5 38t-141.5 101t-96 150t-36 181zM301 972q0 -57 13 -103.5t40.5 -82.5t74.5 -56t111 -20q50 0 92 19t67 46.5t42 61.5t23.5 61.5t6.5 48.5q0 44 -7.5 85t-25 79.5t-43.5 66.5t-66 44.5t-89 16.5q-53 0 -99.5 -24.5t-76.5 -63t-46.5 -85.5 t-16.5 -94z" />
<glyph unicode=":" horiz-adv-x="447" d="M103 0v239h242v-239h-242zM103 797v239h242v-239h-242z" />
<glyph unicode=";" horiz-adv-x="450" d="M-114 -303q63 50 109 99q108 131 108 235v206h245v-206q0 -123 -111 -240q-43 -43 -112 -94h-239zM103 794v242h245v-242h-245z" />
<glyph unicode="&#x3c;" horiz-adv-x="1079" d="M61 431v117l1000 555v-242l-657 -369l657 -317v-233z" />
<glyph unicode="=" horiz-adv-x="1116" d="M103 306v209h910v-209h-910zM103 660v209h910v-209h-910z" />
<glyph unicode="&#x3e;" horiz-adv-x="1079" d="M19 -58v233l658 317l-658 369v242l1001 -555v-117z" />
<glyph unicode="?" horiz-adv-x="949" d="M103 1114v201q36 46 78 69q109 73 268 73q103 0 194 -43t147.5 -122t56.5 -175q0 -60 -18.5 -111t-48 -87.5t-65 -68.5t-71 -59t-65 -52.5t-48 -56t-18.5 -63.5v-234h-242v247q0 39 14 74.5t37.5 63.5t53.5 56t61 51t61 50t53.5 52t38 56.5t14.5 64.5q0 71 -47 105 t-129 34q-122 0 -236 -64q-53 -30 -89 -61zM271 0v239h242v-239h-242z" />
<glyph unicode="@" horiz-adv-x="1821" d="M103 552q0 108 31 210.5t86.5 188.5t133.5 159t169.5 123t198 78.5t216.5 28.5q160 0 304 -52.5t249 -142t166.5 -216.5t61.5 -269q0 -87 -23 -169t-63.5 -145.5t-92 -112t-111.5 -74.5t-119 -26q-56 0 -96.5 11t-67 34t-42 50t-28.5 67q-20 -37 -42 -63.5t-53.5 -50 t-76.5 -36t-102 -12.5q-72 0 -138.5 27.5t-118.5 78.5t-83 129.5t-31 174.5q0 98 39.5 183.5t103 142.5t142.5 89.5t158 32.5q50 0 100 -18t85.5 -46.5t51.5 -60.5l23 112h200l-83 -457q-4 -59 0 -106q8 -49 22.5 -76.5t47.5 -27.5q35 0 68 16.5t57.5 44.5t45 63.5 t33.5 74.5t20 77.5t7 72.5q0 46 -13 97t-39.5 103.5t-63.5 102t-89 93t-112.5 75.5t-137 51t-159.5 19q-97 0 -189 -28.5t-164 -77.5t-132 -114t-99.5 -137t-61 -147t-21.5 -145q0 -74 19 -147t55 -140t91.5 -124.5t124.5 -100t158.5 -66.5t188.5 -24q186 0 402 81v-145 q-222 -75 -402 -75q-164 0 -312 56t-256.5 153.5t-172.5 236t-64 295.5zM677 543q0 -56 14.5 -97t37.5 -61t44 -28.5t40 -8.5q55 0 95 24.5t62 68t32.5 95t10.5 113.5q0 148 -110 148q-54 0 -97.5 -21t-71 -56.5t-42.5 -81t-15 -95.5z" />
<glyph unicode="A" horiz-adv-x="1313" d="M19 0l526 1427h221l529 -1427h-248l-133 356h-521l-137 -356h-237zM468 571h370l-181 524z" />
<glyph unicode="B" horiz-adv-x="1143" d="M103 0v1427h426q99 0 180 -27t135.5 -74t84.5 -111t30 -139q0 -68 -24 -124.5t-64.5 -94.5t-91 -62t-107.5 -32q54 -4 105 -18.5t99.5 -42t85 -65.5t58.5 -94t22 -123q0 -78 -28 -146t-76.5 -117.5t-114 -85.5t-141 -53.5t-156.5 -17.5h-423zM345 212h165q130 0 210 58.5 t80 149.5q0 101 -77 163.5t-236 62.5h-142v-434zM345 861h117q120 0 186.5 47t66.5 139q0 47 -19.5 80.5t-54 51t-72.5 25.5t-82 8h-142v-351z" />
<glyph unicode="C" horiz-adv-x="1225" d="M61 699q0 97 18 186t52.5 164.5t82.5 139.5t109 113.5t131.5 84t151.5 52.5t168 18q134 0 247.5 -21t184.5 -54l-84 -210q-137 67 -348 67q-70 0 -132 -18t-108.5 -49.5t-85 -74t-64.5 -91t-44 -102t-26 -104.5t-8 -101q0 -233 128 -374t340 -141q97 0 174.5 24t173.5 74 l84 -207q-81 -48 -199 -73.5t-252 -25.5q-153 0 -282 53.5t-219.5 148t-141.5 229t-51 292.5z" />
<glyph unicode="D" horiz-adv-x="1353" d="M103 0v1427h410q182 0 324 -41t244.5 -124.5t156.5 -218.5t54 -315q0 -135 -39.5 -251t-111.5 -203t-170.5 -149t-219 -93.5t-255.5 -31.5h-393zM345 212h151q105 0 194.5 25t155 71t112 109.5t69.5 142t23 168.5q0 484 -537 484h-168v-1000z" />
<glyph unicode="E" horiz-adv-x="1005" d="M103 0v1427h800v-215h-558v-393h502v-215h-502v-392h558v-212h-800z" />
<glyph unicode="F" horiz-adv-x="920" d="M103 0v1427h800v-215h-558v-393h502v-215h-502v-604h-242z" />
<glyph unicode="G" horiz-adv-x="1380" d="M61 685q0 161 57.5 303.5t157.5 245.5t243.5 163t307.5 60q173 0 324 -53q61 -20 100 -51v-234q-20 17 -55.5 35t-91 38.5t-135.5 33.5t-167 13q-81 0 -152.5 -23t-125.5 -63t-96.5 -93.5t-69.5 -115.5t-41 -127.5t-14 -131.5q0 -78 18.5 -151t56.5 -137t93 -111.5 t132.5 -74.5t170.5 -27q91 0 142.5 9t119.5 38v321h-306v211h548v-677q-100 -57 -235 -83.5t-280 -26.5q-84 0 -162.5 16t-148.5 48.5t-130.5 78t-108 105.5t-81.5 130.5t-52.5 155t-18.5 175.5z" />
<glyph unicode="H" horiz-adv-x="1311" d="M103 0v1427h242v-580h622l-3 580h245v-1427h-242v632h-622v-632h-242z" />
<glyph unicode="I" horiz-adv-x="447" d="M103 0v1427h242v-1427h-242z" />
<glyph unicode="J" horiz-adv-x="792" d="M19 31l84 187q29 -12 51 -18q62 -16 108 -16q92 0 138 78t46 248v917h245v-917q0 -112 -23.5 -202.5t-64.5 -152t-97.5 -103.5t-121 -60.5t-136.5 -18.5q-83 0 -168 27q-36 14 -61 31z" />
<glyph unicode="K" horiz-adv-x="1180" d="M103 0v1427h242v-616l500 616h292l-407 -510l431 -917h-258l-335 721l-223 -272v-449h-242z" />
<glyph unicode="L" horiz-adv-x="920" d="M103 0v1427h242v-1215h558v-212h-800z" />
<glyph unicode="M" horiz-adv-x="1701" d="M103 0v1427h285l450 -1048l474 1048h287v-1427h-243v981l-453 -981h-135l-423 967v-967h-242z" />
<glyph unicode="N" horiz-adv-x="1395" d="M103 0v1427h267l677 -1048v1048h245v-1427h-267l-680 1034v-1034h-242z" />
<glyph unicode="O" horiz-adv-x="1505" d="M61 694q0 169 48.5 310.5t137 241.5t219.5 155.5t292 55.5q154 0 283.5 -56t218 -153.5t137.5 -232.5t49 -291q0 -227 -84 -395.5t-245 -260.5t-381 -92q-102 0 -193 23.5t-165 68t-133.5 108.5t-100 143.5t-62 174.5t-21.5 200zM303 694q0 -123 34.5 -221.5t94.5 -161 t137.5 -95t166.5 -32.5q100 0 184 32.5t148 97.5t100 169.5t36 240.5q0 122 -35.5 221.5t-96.5 163t-140 97t-169 33.5q-100 0 -183 -34t-145 -100.5t-97 -171.5t-35 -239z" />
<glyph unicode="P" horiz-adv-x="1074" d="M103 0v1427h407q110 0 201 -27.5t159 -82t105.5 -141t37.5 -198.5q0 -120 -41 -213t-114.5 -151t-171.5 -88t-215 -30h-126v-496h-242zM345 707h126q157 0 228.5 71.5t71.5 196.5q0 45 -6 78.5t-22.5 64.5t-45 50.5t-75.5 31.5t-112 12h-165v-505z" />
<glyph unicode="Q" horiz-adv-x="1505" d="M61 694q0 168 49.5 310t138 241.5t216 155.5t279.5 56q160 0 292.5 -56t221.5 -153.5t138.5 -232t49.5 -291.5q0 -234 -91 -405t-247 -258q33 -14 59 -27.5t57.5 -36.5t52 -48.5t35 -62t14.5 -78.5h-231q0 36 -17.5 68t-46 54t-57 37.5t-57.5 24.5q-71 -16 -202 -16 q-144 0 -266 53t-207 147t-133 227.5t-48 290.5zM303 694q0 -124 33 -222t91.5 -160.5t137 -95t171.5 -32.5q99 0 182.5 33t148 97.5t101 169.5t36.5 240q0 99 -23 182.5t-64.5 144.5t-99 103.5t-126.5 63.5t-147 21q-90 0 -169 -34.5t-140 -100t-96.5 -171.5t-35.5 -239z " />
<glyph unicode="R" horiz-adv-x="1215" d="M103 0v1427h445q59 0 116 -11.5t109.5 -33.5t97 -56t77 -78t51 -101.5t18.5 -123.5q0 -70 -29 -129.5t-76 -99t-102 -64.5t-111 -34q23 -8 49 -29.5t46 -43.5t49 -63t46 -67t49 -77q3 -5 4.5 -8t4.5 -7t5 -8l246 -393h-279l-212 351q-137 226 -269 226h-93v-577h-242z M345 792l170 2q256 4 256 229q0 86 -63.5 137.5t-192.5 51.5h-170v-420z" />
<glyph unicode="S" horiz-adv-x="1172" d="M103 101v205q55 -33 123 -61q140 -59 284 -59q74 0 130 12.5t99 39t65.5 72.5t22.5 110q0 45 -18.5 81t-42 59t-72 47t-80.5 35.5t-96 32.5q-56 19 -85.5 29.5t-81 32.5t-80 41.5t-65.5 52t-56 67.5t-33 84.5t-14 106.5q0 105 67.5 189.5t177 130t237.5 45.5 q186 0 329 -50q59 -20 99 -51v-208q-80 36 -119 48q-159 46 -309 46q-99 0 -168 -43t-69 -107q0 -44 24.5 -78t66.5 -57t96 -43.5t114 -41t119.5 -44.5t113.5 -59t96 -80.5t66.5 -113.5t24.5 -152q0 -76 -16.5 -140.5t-55.5 -121.5t-98.5 -97t-149 -62.5t-204.5 -22.5 q-181 0 -327 61q-72 30 -115 64z" />
<glyph unicode="T" horiz-adv-x="1047" d="M19 1212v215h1009v-215h-377v-1212h-242v1212h-390z" />
<glyph unicode="U" horiz-adv-x="1311" d="M103 548v879h242v-867q0 -103 19.5 -176t58 -117t92 -63.5t126.5 -19.5q54 0 101 10.5t89 37t71.5 66.5t47 102.5t17.5 142.5v884h242v-859q0 -153 -39.5 -267t-114.5 -185t-178.5 -105.5t-235.5 -34.5q-259 0 -398.5 140.5t-139.5 431.5z" />
<glyph unicode="V" horiz-adv-x="1313" d="M19 1427h246l392 -1084l390 1084h248l-529 -1427h-221z" />
<glyph unicode="W" horiz-adv-x="1893" d="M19 1427h246l293 -1060l319 1060h167l268 -1054l317 1054h245l-439 -1427h-255l-225 962l-272 -962h-255z" />
<glyph unicode="X" horiz-adv-x="1263" d="M19 0l468 713l-437 714h285l297 -505l327 505h285l-470 -714l470 -713h-285l-327 505l-329 -505h-284z" />
<glyph unicode="Y" horiz-adv-x="1191" d="M19 1427h252l311 -648l337 648h253l-470 -903v-524h-245v518z" />
<glyph unicode="Z" horiz-adv-x="1143" d="M19 0v90l747 1122h-691v215h1050v-93l-746 -1122h719v-212h-1079z" />
<glyph unicode="[" horiz-adv-x="620" d="M103 -390v1913h498v-211h-272v-1490h272v-212h-498z" />
<glyph unicode="\" horiz-adv-x="739" d="M19 1738h234l468 -1738h-234z" />
<glyph unicode="]" horiz-adv-x="620" d="M19 -178h273v1490h-273v211h499v-1913h-499v212z" />
<glyph unicode="^" horiz-adv-x="1383" d="M103 537l498 986h120l560 -986h-242l-374 649l-322 -649h-240z" />
<glyph unicode="_" horiz-adv-x="1116" d="M103 61h910v-197h-910v197z" />
<glyph unicode="`" horiz-adv-x="742" d="M103 1597h264l274 -372h-232z" />
<glyph unicode="a" horiz-adv-x="1066" d="M103 861q26 53 86 109q131 108 329 108q71 0 135.5 -15.5t121.5 -48.5t99 -80.5t66 -115.5t24 -149v-669h-231v141q-23 -25 -37.5 -39.5t-45 -40.5t-58 -41t-67 -27t-79.5 -12q-98 0 -177 38.5t-123 111.5q-40 67 -40 151v16q2 50 15.5 92t35 71.5t51 52t60.5 36.5 t67 22.5t67 12t63 3.5q133 0 207 19q45 15 58 23q0 250 -217 250q-144 0 -257 -86q-45 -32 -86 -84zM337 298q0 -128 165 -128q31 0 65.5 9t65 24t57 36.5t43.5 44.5v170q-22 -5 -71 -16q-87 -15 -152 -15q-39 0 -78 -14t-67 -43.5t-28 -67.5z" />
<glyph unicode="b" horiz-adv-x="1199" d="M103 0v1510h229v-616q23 51 66 95q96 95 237 95q42 0 88.5 -10t95.5 -32t95 -53t87.5 -76t72 -98t48.5 -122t18 -145q0 -99 -22.5 -183.5t-61.5 -144.5t-89 -106t-108 -73.5t-116 -41t-116 -13.5q-145 0 -231 92q-45 40 -64 92v-170h-229zM332 314q34 -34 83 -64 q100 -64 204 -64q56 0 106.5 20.5t93 61.5t67.5 113.5t25 166.5q0 60 -17 114t-46 93.5t-66.5 68.5t-79 44t-83.5 15q-100 0 -204 -67q-35 -21 -83 -64v-438z" />
<glyph unicode="c" horiz-adv-x="932" d="M61 505q0 125 42.5 233t114.5 182.5t171 116t209 41.5q93 0 221 -47q39 -16 95 -45l-93 -197q-15 11 -66 43q-92 48 -154 48q-91 0 -163.5 -54t-110 -139.5t-37.5 -181.5q0 -149 85.5 -235t228.5 -86q67 0 154 44q43 28 63 48l93 -201q-41 -22 -101 -44 q-132 -45 -220 -45q-110 0 -205.5 34t-168.5 97.5t-115.5 163.5t-42.5 224z" />
<glyph unicode="d" horiz-adv-x="1199" d="M61 548q0 99 31 186.5t81.5 149t114 106.5t128 66.5t124.5 21.5q134 0 249 -92q47 -41 80 -92v616h229v-1510h-229v170q-28 -54 -77 -92q-105 -89 -244 -89q-57 0 -113.5 15.5t-111.5 45t-102 77t-83 107.5t-56.5 141t-20.5 173zM290 548q0 -84 23 -154t61.5 -115.5 t87.5 -70t101 -24.5q126 0 226 64q46 27 80 66v438q-43 43 -77 64q-109 64 -226 64q-52 0 -102 -26.5t-88.5 -70.5t-62 -106t-23.5 -129z" />
<glyph unicode="e" horiz-adv-x="1058" d="M61 515q0 114 35.5 216.5t97.5 179.5t153 122t196 45q214 0 329.5 -137t121.5 -378l3 -111h-705q0 -120 81 -194t215 -74q122 0 209 50q34 19 61 50l80 -175q-37 -30 -98 -61q-119 -59 -269 -59q-113 0 -205 31.5t-161 94.5t-106.5 165t-37.5 235zM301 651h457 q-2 43 -16.5 83.5t-41 73t-67.5 52.5t-90 20q-60 0 -114.5 -34.5t-88 -87t-39.5 -107.5z" />
<glyph unicode="f" horiz-adv-x="726" d="M19 840v202h178l3 114q2 56 10 103t23.5 91t40.5 77.5t59.5 58.5t82.5 38t108 13q89 0 141 -14q10 -3 42 -13v-210q-24 10 -42 21q-57 19 -88 19q-149 0 -149 -184v-114h279v-202h-279v-840h-228v840h-181z" />
<glyph unicode="g" horiz-adv-x="1199" d="M61 515q0 110 30.5 204t81 159t116 111t134.5 67.5t137 21.5q76 0 132 -25t105 -67q40 -34 72 -92l-3 170h232v-1003q0 -284 -143 -416t-437 -132q-143 0 -268 61q-60 32 -102 64l83 187q31 -32 72 -56q81 -53 215 -53q61 0 110.5 8t95.5 30t77 57t49.5 91.5t18.5 131.5 v136q-29 -56 -69 -92q-91 -92 -234 -92q-68 0 -138 21.5t-136 65.5t-117.5 105.5t-82.5 149t-31 187.5zM290 515q0 -62 22.5 -123.5t59.5 -107.5t87 -74.5t101 -28.5q129 0 229 64q51 31 80 64v440q-38 39 -80 64q-109 64 -229 64q-53 0 -101.5 -25.5t-86.5 -71t-60 -114.5 t-22 -151z" />
<glyph unicode="h" horiz-adv-x="1116" d="M103 0v1510h229v-644q28 59 69 106q95 106 221 106q98 0 174.5 -31.5t123 -87t70 -126.5t23.5 -153v-680h-227v688q0 78 -60 128t-163 50q-84 0 -170 -64q-33 -28 -61 -61v-741h-229z" />
<glyph unicode="i" horiz-adv-x="433" d="M103 0v1064h229v-1064h-229zM103 1214v226h229v-226h-229z" />
<glyph unicode="j" horiz-adv-x="433" d="M-292 -412l83 184q17 -15 39 -28q46 -28 78 -28q195 0 195 298v1050h229v-1016q0 -162 -47.5 -280.5t-144.5 -185t-235 -66.5q-81 0 -144 35q-29 12 -53 37zM103 1214v226h229v-226h-229z" />
<glyph unicode="k" horiz-adv-x="1018" d="M103 0v1510h229v-928l378 468h268l-303 -373l319 -677h-231l-231 502l-200 -252v-250h-229z" />
<glyph unicode="l" horiz-adv-x="433" d="M103 0v1510h229v-1510h-229z" />
<glyph unicode="m" horiz-adv-x="1799" d="M103 0v1064h229v-198q0 5 10 25.5t34 53t57 62t86 50.5t113 21q69 0 126.5 -18t99.5 -50.5t71.5 -70.5t51.5 -84q1 3 5 8q11 18 18.5 29.5t26.5 36t36.5 42t44.5 39.5t54.5 35.5t63.5 23t73 9.5q98 0 175 -32.5t123.5 -89t70.5 -126.5t24 -150v-680h-229v688 q0 70 -56.5 124t-156.5 54q-84 0 -170 -64q-43 -33 -71 -61v-741h-227v688q0 79 -59.5 127.5t-163.5 48.5q-85 0 -167 -62q-33 -25 -64 -61v-741h-229z" />
<glyph unicode="n" horiz-adv-x="1116" d="M103 0v1064h229v-198q32 66 72 106q106 106 234 106q92 0 165 -32.5t118 -89t68.5 -127t23.5 -149.5v-680h-227l-4 688q0 72 -56 125t-149 53q-92 0 -179 -64q-40 -31 -66 -61v-741h-229z" />
<glyph unicode="o" horiz-adv-x="1169" d="M61 518q0 167 62.5 293.5t183.5 196.5t286 70q80 0 150.5 -18t127 -52t101.5 -82t75 -108t45.5 -130.5t15.5 -147.5q0 -255 -142.5 -404.5t-391.5 -149.5q-154 0 -270.5 67.5t-179.5 188t-63 276.5zM290 518q0 -69 17.5 -128.5t51 -106t89 -73t126.5 -26.5q78 0 137 26 t95.5 73.5t55 112t18.5 144.5q0 70 -18.5 131t-53 108t-90 74t-125.5 27q-77 0 -136.5 -29.5t-95 -80t-53.5 -114.5t-18 -138z" />
<glyph unicode="p" horiz-adv-x="1199" d="M103 -443v1507h229v-170q36 56 77 92q50 42 100 67t113 25q81 0 156.5 -21.5t141.5 -67.5t114.5 -111.5t77 -158.5t28.5 -204q0 -100 -32.5 -188t-84.5 -149t-117 -105.5t-130.5 -65.5t-124.5 -21q-143 0 -244 92q-46 35 -75 92v-613h-229zM332 309q34 -35 83 -64 q100 -64 220 -64q29 0 64 12t72.5 39t67.5 64.5t49.5 95t19.5 123.5q0 85 -20 151t-50 104.5t-70.5 63.5t-76.5 34t-72 9q-96 0 -204 -64q-35 -21 -83 -64v-440z" />
<glyph unicode="q" horiz-adv-x="1199" d="M61 515q0 110 28 204t74.5 159t108 111t128 67.5t134.5 21.5q137 0 252 -92q49 -39 83 -92v170h229v-1507h-229v613q-31 -61 -72 -92q-102 -92 -237 -92q-66 0 -135 21.5t-134.5 65.5t-116.5 105.5t-82 149t-31 187.5zM290 515q0 -48 10 -91.5t27.5 -76.5t40.5 -61 t48 -47t52 -32.5t51.5 -19.5t46.5 -6q116 0 216 64q59 36 87 64v440q-39 35 -87 64q-108 64 -205 64q-22 0 -46 -4.5t-52.5 -16t-54.5 -29t-51 -46t-43 -65t-29 -88.5t-11 -113z" />
<glyph unicode="r" horiz-adv-x="704" d="M103 0v1064h229v-290q23 80 61 154q18 31 36 55.5t41.5 48t53 36.5t61.5 13t66 -15q6 -1 17.5 -5t16.5 -6v-231q-10 2 -39 14q-40 15 -78 15q-72 0 -161 -117q-44 -61 -75 -114v-622h-229z" />
<glyph unicode="s" horiz-adv-x="949" d="M103 56v197q36 -24 89 -41q108 -42 215 -42q212 0 212 139q0 32 -14.5 58t-39.5 42.5t-58 32t-70 26.5t-76 25.5t-76 29.5t-70 39t-58 52.5t-39.5 71.5t-14.5 96q0 55 23.5 105.5t62 87t87 63.5t99.5 40.5t98 13.5q133 0 242 -45q49 -21 77 -45v-191q-41 22 -90 42 q-120 41 -229 41q-56 0 -98.5 -35.5t-42.5 -76.5q0 -27 17.5 -47.5t47.5 -34t68.5 -25t81.5 -24.5t85.5 -29.5t81 -43t68.5 -61.5t47.5 -88t17.5 -120q0 -71 -28 -131t-81 -105.5t-135 -71t-185 -25.5q-104 0 -221 38q-34 10 -94 42z" />
<glyph unicode="t" horiz-adv-x="726" d="M19 840v202h181l-3 468h231v-468h279v-202h-279v-473q0 -45 8.5 -79t21.5 -53.5t32.5 -31.5t37.5 -15.5t40 -3.5q48 0 97 16q25 10 42 20v-206q-14 -10 -38 -14q-42 -11 -140 -11q-85 0 -149 27.5t-104 78t-59.5 118t-19.5 151.5v476h-178z" />
<glyph unicode="u" horiz-adv-x="1116" d="M103 385v679h229v-668q0 -48 17.5 -86t47.5 -60.5t65.5 -34t74.5 -11.5q94 0 178 64q54 41 71 64v732h227v-1059h-227v192q-17 -49 -58 -102q-86 -100 -226 -100q-98 0 -176 31.5t-125.5 86t-72.5 124t-25 148.5z" />
<glyph unicode="v" horiz-adv-x="1066" d="M19 1064h263l263 -738l268 738h234l-375 -1064h-249z" />
<glyph unicode="w" horiz-adv-x="1544" d="M19 1064h260l183 -713l232 713h170l205 -713l209 713h248l-331 -1064h-223l-198 688l-219 -688h-238z" />
<glyph unicode="x" horiz-adv-x="1015" d="M19 0l360 532l-360 532h260l228 -343l231 343h259l-359 -546l359 -518h-259l-231 329l-231 -329h-257z" />
<glyph unicode="y" horiz-adv-x="1130" d="M24 -418l82 184q6 -3 14.5 -7.5t16.5 -9t14 -7.5q46 -26 86 -26q114 0 170 148l64 167l-447 1033h249l320 -724l271 724h247l-487 -1237q-33 -82 -64.5 -135.5t-75.5 -95.5t-101.5 -61t-134.5 -19q-105 0 -168 32q-31 14 -56 34z" />
<glyph unicode="z" horiz-adv-x="999" d="M103 0v92l535 774h-482v198h825v-100l-532 -767h523v-197h-869z" />
<glyph unicode="{" horiz-adv-x="656" d="M61 426v190q46 5 75 14.5t52.5 30.5t34.5 58.5t11 93.5v327q0 71 13 127t42 102.5t75.5 79t115 52t158.5 25.5v-211q-29 0 -57.5 -9.5t-54.5 -29.5t-42 -56.5t-16 -85.5v-334q0 -109 -59 -184t-159 -103q97 -25 157.5 -100t60.5 -187v-321q0 -46 11.5 -79.5t28 -52 t41 -29.5t45 -14t44.5 -3v-211q-204 0 -304 96t-100 274v332q0 45 -7.5 79t-21 56.5t-35.5 37.5t-47.5 22.5t-61.5 12.5z" />
<glyph unicode="|" horiz-adv-x="436" d="M103 -348v2009h232v-2009h-232z" />
<glyph unicode="}" horiz-adv-x="656" d="M19 -273q24 0 44.5 3t45 14t41 29.5t28 52t11.5 79.5v321q0 112 60.5 187t157.5 100q-101 28 -159.5 103t-58.5 184v334q0 49 -16 85.5t-42 56.5t-54.5 29.5t-57.5 9.5v211q112 -7 190.5 -35.5t125.5 -78.5t67.5 -116.5t20.5 -155.5v-327q0 -56 10.5 -93.5t34.5 -58.5 t53 -30.5t75 -14.5v-190q-45 -6 -75 -17.5t-53 -34.5t-34 -61.5t-11 -94.5v-332q0 -178 -100 -274t-304 -96v211z" />
<glyph unicode="~" horiz-adv-x="1113" d="M103 460q0 46 9 91t30 87t50.5 74t74.5 51t100 19q39 0 76.5 -10.5t66 -26t59 -34t55.5 -34t54.5 -26t57.5 -10.5q42 0 59 32t24 109h191q-3 -69 -19 -126t-46 -102t-80 -69.5t-116 -24.5q-49 0 -96.5 14t-83 34.5t-68 41t-64 34.5t-58.5 14q-47 0 -67 -31.5t-20 -106.5 h-189z" />
<glyph unicode="&#xa9;" horiz-adv-x="1829" d="M103 674.5q0 167.5 64 318t173 258.5t259.5 171t317.5 63t317.5 -63t258.5 -171t171 -258.5t63 -318t-63 -317.5t-171 -257.5t-258.5 -170t-317.5 -62.5t-317.5 62.5t-259.5 170t-173 257.5t-64 317.5zM218 672q0 -143 54.5 -271.5t148 -221t223 -147t273.5 -54.5 t273.5 54.5t222.5 147t148 221t55 271.5q0 144 -55 273.5t-148 222.5t-222.5 148t-273.5 55t-273.5 -55t-223 -148t-148 -222.5t-54.5 -273.5zM441 660q0 158 62 276.5t174 181t259 62.5q68 0 146.5 -10t126.5 -28l-42 -87q-84 40 -229 40q-89 0 -163.5 -35t-123.5 -95 t-76 -138.5t-27 -166.5q0 -123 46 -219t135.5 -151.5t208.5 -55.5q72 0 121.5 13t107.5 45l39 -88q-106 -60 -281 -60q-220 0 -352 140t-132 376z" />
<glyph unicode="&#xad;" horiz-adv-x="824" d="M103 529v201h618v-201h-618z" />
<glyph unicode="&#xae;" horiz-adv-x="1829" d="M103 674.5q0 167.5 64 318t173 258.5t259.5 171t317.5 63t317.5 -63t258.5 -171t171 -258.5t63 -318t-63 -317.5t-171 -257.5t-258.5 -170t-317.5 -62.5t-317.5 62.5t-259.5 170t-173 257.5t-64 317.5zM218 672q0 -144 54.5 -273t148 -222t223 -147t273.5 -54t273.5 54 t222.5 147t148 222t55 273t-55 273.5t-148 222.5t-222.5 148t-273.5 55t-273.5 -55t-223 -148t-148 -222.5t-54.5 -273.5zM619 186v1009h298q63 0 117.5 -16.5t97 -49t67 -85t24.5 -119.5q0 -65 -19.5 -114.5t-54 -80.5t-75.5 -49t-91 -27q49 -27 95 -70.5t70 -84.5 l192 -313h-131l-170 285q-28 46 -69 82.5t-78 53.5t-65 17h-99v-438h-109zM728 713h133q50 0 95 13t81.5 38.5t58 67t21.5 93.5q0 83 -60 130.5t-166 47.5h-163v-390z" />
<glyph unicode="&#xbc;" horiz-adv-x="2063" d="M122 1478v115q70 27 126 78q38 34 53 51h119v-781h-130v603q-86 -48 -168 -66zM428 0l1026 1738h236l-1028 -1738h-234zM1435 284v106l351 495h122v-484h91v-117h-91v-178h-133v178h-340zM1593 401h182v261z" />
<glyph unicode="&#xbd;" horiz-adv-x="2094" d="M122 1478v115q70 27 126 78q38 34 53 51h119v-781h-130v603q-86 -48 -168 -66zM428 0l1026 1738h236l-1028 -1738h-234zM1488 106v94q0 38 19.5 76.5t51 72t69.5 67t76 66.5t69.5 65t51 68t19.5 70q0 109 -114 109q-51 0 -111.5 -19.5t-100.5 -53.5v114q36 36 92 59 t120 23q73 0 129.5 -28t87 -78t30.5 -115q0 -49 -16 -93.5t-43 -79t-60 -65.5t-68 -59.5t-66 -55t-56 -58t-36 -62.5h377v-117h-521z" />
<glyph unicode="&#xbe;" horiz-adv-x="2091" d="M103 994v120q74 -59 189 -59q27 0 54 6t52 18.5t40.5 35t15.5 52.5q0 73 -61 101.5t-215 28.5v115q67 0 123 12q122 26 122 105q0 103 -106 103q-113 0 -184 -50v111q85 56 184 56q58 0 112 -23t90 -68.5t36 -103.5q0 -159 -180 -193q54 -5 100 -26.5t78 -63.5t32 -96 q0 -71 -34 -123.5t-100.5 -81.5t-158.5 -29q-97 0 -189 53zM457 0l1025 1738h237l-1028 -1738h-234zM1462 284v106l351 495h122v-484h93v-117h-93v-178h-133v178h-340zM1621 401h181v261z" />
<glyph unicode="&#xe01;" horiz-adv-x="1274" d="M61 949q53 99 125 168q170 170 404 170q89 0 173 -17t158.5 -51.5t130 -83.5t88 -118t32.5 -151v-669q0 -64 -72 -136q-32 -32 -69 -61h-103v811q0 61 -21 108t-53.5 75.5t-77.5 46.5t-88 24.5t-90 6.5q-120 0 -208 -62q-41 -31 -66 -61l168 -138q-20 -21 -38 -56 q-39 -88 -39 -181v-574h-240v588q0 88 25 164q10 27 26 59q-16 12 -44.5 36t-40.5 33q-80 65 -80 69z" />
<glyph unicode="&#xe02;" horiz-adv-x="1074" d="M61 1050v209h176q86 0 152 -20t108 -57.5t63.5 -89t21.5 -114.5q0 -65 -28.5 -124t-74.5 -105q-28 -28 -59.5 -92t-31.5 -125v-112q0 -55 8.5 -97t27.5 -74t52 -48.5t79 -16.5q47 0 82 19t55 53t29 75t9 89v839h242v-839q0 -50 -5.5 -95.5t-19.5 -91t-36.5 -83t-57 -70.5 t-79.5 -56t-106.5 -35.5t-135.5 -12.5q-87 0 -154.5 24.5t-110 66t-70 100t-38.5 120.5t-11 133v112q0 37 5.5 72.5t17 68t21.5 56.5t28 53.5t27.5 43l28.5 40.5q4 6 18.5 26t22.5 31t15.5 27.5t7.5 27.5q0 33 -26.5 52.5t-76.5 19.5h-176z" />
<glyph unicode="&#xe03;" horiz-adv-x="1074" d="M61 1050v209q24 0 50 -16.5t45 -41.5q26 -31 44 -56q19 27 53 56q64 58 137 58q29 0 58 -9.5t56.5 -30t49 -49.5t34.5 -71t13 -91q0 -140 -105 -245q-108 -109 -108 -229v-114q0 -55 8 -96.5t27.5 -74t53 -49t81.5 -16.5q44 0 78 20.5t54 56t30 78t10 89.5v831h242v-818 q0 -76 -12 -142t-42.5 -126.5t-77 -103.5t-118.5 -68t-164 -25q-94 0 -167 24.5t-119 66t-75.5 100t-41 120.5t-11.5 133v120q0 93 34.5 169t97.5 155q6 8 18.5 21.5t24.5 26t23 27.5t18 31.5t7 31.5q0 32 -23 45.5t-54 -0.5q-26 -14 -64 -53q-29 -28 -34 -35q-27 32 -38 43 q-54 48 -93 48z" />
<glyph unicode="&#xe04;" horiz-adv-x="1283" d="M103 0v866q0 92 45 172t119.5 133.5t171.5 84.5t202 31q68 0 135 -13.5t127 -38.5t111 -62t88 -82.5t57.5 -103.5t20.5 -121v-866h-242v866q0 44 -23 82.5t-62.5 65.5t-94.5 42.5t-117 15.5q-127 0 -211.5 -57.5t-84.5 -148.5v-281q39 43 89 75q115 76 217 76v-240 q-122 0 -228 -62q-49 -30 -78 -59v-375h-242z" />
<glyph unicode="&#xe05;" horiz-adv-x="1283" d="M103 0v866q0 58 18 118.5t50 113t73.5 95t93 67t103.5 24.5q32 0 64.5 -22t71.5 -61q36 -41 66 -84q26 42 59 84q74 86 138 86q69 0 133 -39t109 -99.5t71.5 -135.5t26.5 -147v-866h-242v866q0 85 -36 145.5t-91 60.5q-40 0 -107 -89q-39 -50 -61 -89q-39 54 -66 89 q-35 43 -60 66t-46 23q-34 0 -63 -28t-46 -75.5t-17 -102.5v-281q43 47 86 75q116 76 220 76v-240q-129 0 -228 -58q-49 -30 -78 -59v-379h-242z" />
<glyph unicode="&#xe06;" horiz-adv-x="1297" d="M61 1050v209q23 0 45 -14.5t50 -43.5q26 -31 44 -56q17 28 53 59q61 55 137 55q94 -2 157.5 -75t63.5 -179q0 -51 -12.5 -93t-32 -72t-43.5 -56t-47.5 -49.5t-43.5 -48.5t-32 -58.5t-12 -72.5v-201q43 -48 83 -72q100 -70 223 -70q61 0 106.5 14.5t80.5 47.5t53 91 t18 140v754h243v-821q0 -128 -49.5 -233t-145 -167t-218.5 -62q-172 0 -298 110q-61 56 -96 111v-197h-244v577q0 50 12.5 93t32 72.5t43.5 55.5t47.5 47.5t43.5 43t32 48.5t12 57q0 64 -58 64q-25 0 -75 -50q-25 -25 -42 -49q-6 7 -13.5 14.5t-16.5 16t-14 12.5 q-53 48 -87 48z" />
<glyph unicode="&#xe07;" horiz-adv-x="1098" d="M64 861h245l164 -646q41 0 84.5 16t86.5 50t77 81.5t55 117t21 150.5q0 101 -33.5 181.5t-92 130.5t-132.5 76t-160 26v215q102 0 197.5 -24.5t179.5 -76t147 -125t99.5 -177.5t36.5 -226q0 -106 -33 -205t-90.5 -175t-130.5 -133t-155.5 -87t-164.5 -30h-192z" />
<glyph unicode="&#xe08;" horiz-adv-x="1233" d="M50 1028q36 69 112 128q164 131 398 131q89 0 172 -24.5t149.5 -67.5t121.5 -102t92 -129t57 -148.5t20 -158.5q0 -105 -22.5 -201t-70.5 -179.5t-117.5 -145t-169 -96.5t-218.5 -35h-140l-110 441q-4 9 -7 14.5t-9.5 7.5t-9 2.5t-14.5 0t-16 -0.5h-56v215h112 q31 0 50 -1.5t46.5 -9.5t47 -23t41 -44t39.5 -70l84 -317q81 0 149 61t107.5 162.5t39.5 218.5q0 113 -38.5 199t-98.5 130t-118.5 65t-112.5 21q-190 0 -326 -125q-68 -60 -101 -123z" />
<glyph unicode="&#xe09;" horiz-adv-x="1268" d="M61 521v215h159q96 0 144 -61.5t48 -175.5v-79q0 -62 11 -103t34 -64t53.5 -32t74.5 -9q116 0 242 72q37 20 98 72v399q0 51 -9.5 96t-31.5 86t-55.5 70.5t-85 47t-116.5 17.5q-150 0 -292 -81q-74 -33 -126 -77l-84 200q79 59 137 87q175 86 365 86q256 0 398 -135.5 t142 -369.5v-782h-242v197q-42 -55 -106 -111q-137 -110 -293 -110q-164 0 -256 109.5t-92 293.5v83q0 19 -2 30t-10.5 20t-24.5 9h-80z" />
<glyph unicode="&#xe0a;" horiz-adv-x="1130" d="M61 1047v215h154q186 0 276.5 -76t90.5 -208q0 -125 -98 -223q-96 -97 -96 -223v-142q0 -100 42.5 -153t143.5 -53q50 0 90.5 17.5t65 45.5t41 65.5t23 74.5t6.5 75q0 147 -46.5 235.5t-121.5 88.5v214q59 0 103.5 69.5t68 184.5t23.5 256h242q0 -70 -6 -133t-17 -113.5 t-25 -95.5t-31 -79t-34 -63t-34.5 -49.5t-32.5 -36t-28.5 -25.5t-21.5 -15t-12 -6q0 -1 1 -1q9 -5 18.5 -10t32.5 -22.5t42 -38t42.5 -57t39.5 -78t27.5 -102t11.5 -128.5q0 -79 -16.5 -149.5t-53 -131.5t-90.5 -105.5t-133.5 -69.5t-177.5 -25q-81 0 -146.5 16t-111 46.5 t-78 69.5t-51.5 88t-27.5 99t-8.5 106v131q0 175 128 334q4 6 18.5 26t22.5 31t15.5 27.5t7.5 27.5q0 31 -35.5 50t-92.5 19h-151z" />
<glyph unicode="&#xe0b;" horiz-adv-x="1130" d="M61 1050v209q24 0 50 -16.5t45 -41.5q26 -31 44 -56q19 27 53 56q64 58 137 58q96 0 152 -72.5t56 -181.5q0 -42 -8.5 -77t-27.5 -66.5t-33 -50t-42 -49.5q-2 -3 -3.5 -4.5t-3.5 -4t-4 -4.5q-1 -2 -16.5 -22t-24.5 -34.5t-22 -39.5t-19 -53.5t-6 -59.5v-150 q0 -103 45 -153.5t157 -50.5q45 0 82 18t60 46.5t39 65t22.5 72.5t6.5 72q0 97 -21.5 171.5t-59.5 114.5t-87 40v214q46 0 83.5 40t61.5 110t37 162t13 198h242q0 -70 -6 -133t-17 -113.5t-25 -95.5t-31 -79t-34 -63t-34.5 -49.5t-32.5 -36t-28.5 -25.5t-21.5 -15t-12 -6 q0 -1 1 -1q10 -5 19.5 -10t32.5 -22.5t42 -38t42 -56t39.5 -77t27.5 -101.5t11 -128q0 -73 -15.5 -141t-50.5 -131t-86.5 -109.5t-128.5 -74.5t-171 -28q-76 0 -139 12.5t-108 34t-79.5 53t-56 67.5t-35 80t-19 86.5t-5.5 91.5v131q0 179 123 326q6 9 33.5 37t45 54.5 t17.5 52.5q0 28 -22.5 44.5t-49.5 6.5q-24 -11 -67 -53q-31 -32 -36 -38q-9 8 -25 22.5t-23 20.5q-5 3 -17.5 12.5t-18.5 13t-15.5 9.5t-17 8t-14.5 2z" />
<glyph unicode="&#xe0c;" horiz-adv-x="1999" d="M61 949q53 99 125 168q170 170 415 170q84 0 165.5 -17t155 -51.5t129.5 -83.5t88.5 -118.5t32.5 -150.5v-515q28 -41 64 -69q85 -70 212 -70q117 0 160 62.5t43 230.5v754h246v-839q0 -50 -9 -100.5t-27.5 -100.5t-48 -93t-68 -76.5t-91 -52.5t-112.5 -19 q-182 0 -290 108q-52 52 -79 111v-197h-244v811q0 55 -18.5 100t-49 74.5t-72.5 49.5t-88.5 28.5t-98.5 8.5q-128 0 -216 -62q-45 -34 -61 -61l168 -138q-18 -19 -38 -53q-39 -77 -39 -170v-317q0 -28 6 -41t28 -15h83v-215h-120q-38 0 -68 4t-63 18t-55 37.5t-36.5 66 t-14.5 100.5v362q0 88 25 164q10 27 26 59q-16 12 -44.5 36t-40.5 33q-80 65 -80 69z" />
<glyph unicode="&#xe0d;" horiz-adv-x="2004" d="M61 949q53 99 125 168q74 74 178.5 122t236.5 48q84 0 165 -17t154.5 -51.5t128.5 -83.5t88 -118.5t33 -150.5v-438q0 -118 58.5 -167t166.5 -49q105 0 189 70q33 25 67 69v908h243l6 -1055q0 -88 -22 -167t-60 -140t-88 -110t-108 -80.5t-118.5 -48.5t-119.5 -17 q-164 0 -300 83q-58 34 -109 84l61 142q43 -49 78 -70q100 -69 220 -69q138 0 226 98t88 269v19q-28 -62 -80 -114q-110 -110 -258 -110q-68 0 -125 17t-99 48t-73 73.5t-50.5 95.5t-28.5 111t-9 123v370q0 62 -22 110t-55 76t-78 45.5t-85.5 23.5t-83.5 6q-128 0 -216 -62 q-45 -34 -61 -61l168 -138q-20 -17 -40 -53q-40 -77 -40 -170v-317v-7q0 -18 1 -25.5t7.5 -15t20.5 -8.5h88v-215h-139q-115 0 -166 57.5t-51 168.5v362q0 88 24 164q10 27 26 59q-22 17 -82 69q-80 65 -80 69z" />
<glyph unicode="&#xe0e;" horiz-adv-x="1274" d="M61 949q53 99 125 168q170 170 410 170q77 0 156.5 -17t155 -51.5t134.5 -83t94.5 -118.5t35.5 -151v-1070q0 -23 -2 -45.5t-10 -55.5t-21 -62t-38 -59t-58.5 -51.5t-84.5 -35t-113 -13.5q-114 0 -223 72q-54 30 -93 75q-57 -49 -122 -75q-153 -72 -315 -72v215 q177 0 315 74q67 31 122 78q41 -41 82 -69q90 -70 181 -70q44 0 71 9.5t41.5 32t19 50.5t4.5 75v942q0 46 -13 85t-36 67.5t-53.5 49.5t-67.5 33.5t-77 19t-83 6.5q-123 0 -210 -62q-44 -33 -64 -61l168 -138q-24 -25 -35 -51q-37 -71 -37 -172v-362q0 -127 -54.5 -176.5 t-171.5 -49.5h-130v212h84q6 1 10.5 2.5t7.5 3t5 5.5l3 6t1.5 8t0.5 9t-0.5 11t-0.5 11v320q0 88 25 164q10 27 26 59q-16 12 -44.5 36t-40.5 33q-80 65 -80 69z" />
<glyph unicode="&#xe0f;" horiz-adv-x="1274" d="M61 949q53 99 125 168q170 170 421 170q67 0 134.5 -12t131 -35t117.5 -59t95 -81.5t64 -105.5t23 -128v-1055q0 -22 -1.5 -43.5t-8.5 -57t-19.5 -65.5t-36.5 -62.5t-56 -55.5t-82.5 -38t-112.5 -15q-78 0 -153 74q-36 28 -70 77l-100 -130l-101 126q-88 -57 -120 -73 q-130 -72 -219 -72v213q120 0 237 77q50 30 102 78l98 -128l103 145q1 0 5 -7.5t8.5 -15.5t12.5 -20t16 -23.5t19 -24.5t22 -24.5t24.5 -22t27 -18t29 -12t31.5 -4.5q49 0 75 25.5t26 70.5v1026q0 67 -26.5 118.5t-72 82t-102 45.5t-120.5 15q-132 0 -219 -62 q-44 -33 -64 -61l175 -138q-25 -25 -39 -51q-40 -76 -40 -172v-362q0 -111 -49 -168.5t-156 -57.5h-151v212h84q6 1 10.5 2.5t7.5 3t5 5.5l3 6t1.5 7.5t0.5 8t-0.5 9t-0.5 8.5v328q0 86 25 162l26 59q-16 12 -44.5 36t-40.5 33q-80 65 -80 69z" />
<glyph unicode="&#xe10;" horiz-adv-x="1230" d="M48 1025q32 71 100 131q153 131 404 131q112 0 234 -45q62 20 102 65.5t40 116.5h242q0 -56 -18.5 -106t-48.5 -87t-67.5 -63t-76.5 -38q102 -86 156.5 -214t54.5 -259q0 -127 -31 -234t-86 -184t-130.5 -131.5t-165.5 -81t-191 -26.5h-135l-107 428q-9 24 -17 30.5 t-31 6.5h-67v215h128q29 0 51.5 -3t47.5 -12.5t44.5 -26.5t37.5 -46.5t30 -70.5l84 -306q80 0 148 60.5t108 162.5t40 219q0 92 -26 166t-65.5 119t-91 75.5t-99.5 42.5t-94 12q-188 0 -321 -128q-56 -53 -95 -128zM92 -367q138 0 243 83q44 34 69 87l101 -143l99 143 q0 -3 10.5 -21t30 -43t43 -49t53 -40.5t56.5 -16.5q75 0 75 75v172h242v-181q0 -13 -1.5 -29t-6 -36.5t-11.5 -40.5t-19 -41.5t-27 -40.5t-37.5 -36.5t-49 -30t-62 -19.5t-76.5 -7q-106 0 -173 72q-32 32 -47 76l-99 -124l-101 117q-43 -47 -83 -72q-100 -69 -229 -69v215z " />
<glyph unicode="&#xe11;" horiz-adv-x="1283" d="M61 1064v209q23 0 45 -15t50 -44q26 -31 44 -55q19 26 53 55q64 59 132 59q31 0 60.5 -10.5t54.5 -31t40 -57.5t15 -85q24 40 80 97q101 101 218 101q60 0 114 -28.5t92 -75t66 -105t41.5 -120.5t13.5 -120v-838h-242v755q0 81 -12.5 139.5t-35 91t-50 47t-61.5 14.5 q-57 0 -110 -27.5t-92.5 -73.5t-74 -105.5t-58 -122t-40 -125t-24 -113.5t-7.5 -87v-45v-348h-242v326q0 95 17.5 183t43.5 151t57 121.5t57 98t43.5 76.5t17.5 61q0 12 -4.5 22t-12 17t-18.5 11.5t-23 4.5q-26 0 -75 -49q-15 -15 -42 -48q-19 29 -36 45q-18 18 -43.5 31 t-51.5 13z" />
<glyph unicode="&#xe12;" horiz-adv-x="1993" d="M61 643q0 129 20 235.5t55 181t82.5 125.5t101.5 75t114 24q41 0 124 -83q51 -57 72 -84q14 20 64 84q74 86 122 86q70 0 135.5 -35.5t112 -92t75 -128.5t28.5 -143v-537q30 -43 72 -72q90 -70 207 -70q118 0 160 63t42 233v754h244v-839q0 -61 -11 -121t-36.5 -119 t-63 -104t-96 -72.5t-131.5 -27.5q-172 0 -297 114q-51 47 -90 114v-204h-242v888q0 79 -39 131.5t-89 52.5q-39 0 -106 -89q-39 -50 -61 -89q-40 54 -67 89q-35 43 -60 66t-46 23q-20 0 -39 -9.5t-40.5 -38t-37.5 -73.5t-26.5 -124.5t-10.5 -183.5q0 -54 4.5 -103.5 t15 -104t30.5 -97.5t48.5 -79t72 -55.5t97.5 -19.5q9 0 17 0.5t17 2t14 2.5t15.5 4t13 4t14 5t13.5 5q32 16 46 24v-212q-6 -5 -20 -12t-18 -10q-49 -21 -112 -21q-114 0 -208.5 47t-161 132.5t-103.5 211t-37 276.5z" />
<glyph unicode="&#xe13;" horiz-adv-x="1996" d="M61 949q53 99 125 168q167 166 402 170q64 0 129.5 -10.5t131.5 -31.5t123.5 -56t101.5 -80t70 -107.5t26 -135.5v-361q0 -88 8.5 -141t33.5 -89t67 -49.5t111 -13.5q107 0 192 70q39 30 69 69v908h243v-1259h-243v197q-26 -57 -80 -111q-116 -110 -290 -110 q-78 0 -140.5 27.5t-101.5 72t-65 104.5t-36 119t-10 121v391q0 51 -15 92.5t-41 69t-58.5 48t-71.5 31t-75 15.5t-74 5q-128 0 -211 -62q-39 -30 -58 -61l168 -138q-20 -17 -40 -53q-40 -77 -40 -170v-317q0 -28 6.5 -41t27.5 -15h83v-215h-111q-27 0 -49.5 2t-48 8t-46 16 t-40 27t-32.5 40.5t-21 57t-8 75.5v362q0 88 24 164q10 27 26 59q-22 17 -82 69q-80 65 -80 69z" />
<glyph unicode="&#xe14;" horiz-adv-x="1268" d="M61 643q0 130 32.5 238t86.5 182t127.5 125t153.5 75t166 24q88 0 167.5 -17t147.5 -51.5t118 -83.5t78.5 -118t28.5 -151v-866h-242v840q0 43 -12 78.5t-34 60t-50 43t-62 29.5t-68.5 16t-71.5 5q-39 0 -80.5 -13t-86 -44.5t-79 -78.5t-56.5 -123t-22 -170 q0 -69 7 -130.5t25.5 -123.5t47.5 -106t77 -71.5t111 -27.5q62 0 114 23q28 16 36 24v-212q-4 -4 -9.5 -7t-13.5 -7.5t-13 -7.5q-49 -21 -119 -21q-153 0 -268.5 85.5t-176 236t-60.5 345.5z" />
<glyph unicode="&#xe15;" horiz-adv-x="1268" d="M61 643q0 129 20 235.5t55 181t82.5 125.5t101.5 75t114 24q28 0 59 -22t70 -61q37 -41 67 -84q25 42 58 84q22 25 39.5 41.5t42 30.5t46.5 14q67 0 132 -35.5t112.5 -92t77 -128.5t29.5 -143v-888h-242v888q0 78 -43 131t-88 53q-33 0 -100 -89q-37 -47 -64 -89 q-40 54 -67 89q-35 43 -60 66t-46 23q-20 0 -39 -10t-40.5 -38.5t-37.5 -74.5t-26.5 -125.5t-10.5 -182.5q0 -217 66.5 -337t201.5 -120q9 0 17 0.5t17 2t14 2.5t15.5 4t13 4t14 5t13.5 5q32 16 46 24v-212q-6 -4 -41 -22q-63 -21 -122 -21q-112 0 -205.5 49.5t-157 138 t-99 212t-35.5 267.5z" />
<glyph unicode="&#xe16;" horiz-adv-x="1274" d="M61 949q59 102 128 168q170 170 412 170q84 0 165.5 -17t155 -51.5t129.5 -83.5t88.5 -118.5t32.5 -150.5v-669q0 -64 -72 -136q-32 -32 -69 -61h-103v811q0 58 -18.5 103.5t-48.5 74.5t-73 48t-88.5 27t-98.5 8q-128 0 -216 -62q-45 -34 -61 -61l168 -138 q-18 -19 -38 -53q-39 -77 -39 -170v-315v-7q0 -17 1 -25.5t7.5 -15.5t19.5 -7l89 -3v-215h-168q-87 0 -138 56.5t-51 169.5v362q0 88 25 164q10 27 26 59q-16 12 -44.5 36t-40.5 33q-80 65 -80 69z" />
<glyph unicode="&#xe17;" horiz-adv-x="1255" d="M103 0v1259h242v-198q33 56 93 111q131 115 300 115q74 0 140.5 -26.5t115.5 -71t85.5 -102t55 -122t18.5 -127.5v-838h-242v755q0 53 -7 94.5t-25 80t-48.5 63.5t-79 39.5t-113.5 14.5q-105 0 -210 -72q-40 -24 -83 -72v-903h-242z" />
<glyph unicode="&#xe18;" horiz-adv-x="1172" d="M61 947q0 52 16.5 98t45 80.5t69 62t87 46.5t100.5 31.5t108.5 18t110.5 5.5q160 0 343 -64q76 -28 143 -61v-223q-65 40 -135 67q-171 68 -351 68q-32 0 -52 -0.5t-54.5 -3t-57 -7t-49.5 -14.5t-43 -23t-27.5 -34t-11.5 -47q0 -22 8.5 -38.5t28.5 -28.5t38 -19.5t55 -14 t60 -9.5t71 -8q53 -6 81.5 -9.5t81.5 -13t84 -19.5t77 -28t73.5 -40.5t59.5 -55.5t49 -73t29 -93.5t12 -117.5q0 -59 -17.5 -115.5t-56 -109t-95 -92t-140.5 -63t-186 -23.5q-49 0 -90.5 2.5t-98 12.5t-101.5 27t-91.5 48.5t-78 74t-51 107.5t-19.5 145v144h246v-144 q0 -60 19 -102t43 -62.5t66 -31.5t67 -12t68 -1h3q54 0 102.5 14t86 39t60 63t22.5 82q0 42 -12 75.5t-28 56.5t-49 41.5t-58 29t-72 20.5t-75 14t-83 11q-47 6 -71 9.5t-67.5 11.5t-67.5 15.5t-59.5 21t-55.5 29t-44 38.5t-36.5 50t-21 63t-8.5 79z" />
<glyph unicode="&#xe19;" horiz-adv-x="1255" d="M103 420v824h242v-754q0 -54 10.5 -98t29.5 -73.5t43.5 -51t54.5 -33t59 -17t62 -5.5q119 0 223 72q43 26 84 72v888h242v-1244h-242v197q-29 -50 -95 -111q-126 -110 -303 -110q-73 0 -138.5 25.5t-114 69.5t-84.5 101t-54.5 121t-18.5 127z" />
<glyph unicode="&#xe1a;" horiz-adv-x="1228" d="M103 441v818h242v-831q0 -63 23.5 -118.5t69.5 -90.5t105 -35h117q65 0 117 35t79 90.5t27 118.5v834h242v-821q0 -65 -16 -130t-50 -125.5t-82 -107t-117 -74.5t-150 -28h-195q-83 0 -153 28t-117 74t-79.5 107t-47.5 125.5t-15 130.5z" />
<glyph unicode="&#xe1b;" horiz-adv-x="1228" d="M103 441v818h242v-831q0 -64 23 -118.5t70 -90t110 -35.5h117q64 0 115 35t77 90.5t26 118.5v1193h242v-1180q0 -54 -11.5 -108.5t-33.5 -107t-58 -97.5t-82 -79t-108.5 -53.5t-135.5 -19.5h-194q-78 0 -145 28t-113 74.5t-78 107t-47.5 125.5t-15.5 130z" />
<glyph unicode="&#xe1c;" horiz-adv-x="1470" d="M103 947q0 91 24 160t76.5 110.5t128.5 41.5h144v-215h-88q-17 0 -28 -9t-15.5 -26t-6 -31t-1.5 -34q3 -184 56 -401q18 -77 50 -158l208 509h117l207 -509q38 85 61 178q64 245 89 696l243 3q-24 -516 -148 -933q-55 -187 -120 -329h-162l-225 532l-226 -532h-158 q-62 127 -114 284q-112 351 -112 663z" />
<glyph unicode="&#xe1d;" horiz-adv-x="1467" d="M103 947q0 67 13 122.5t38.5 99t69 67t100.5 23.5h152v-215h-91q-16 0 -26.5 -8.5t-14.5 -25t-5.5 -31t-1.5 -35.5q0 -238 53 -404q16 -67 53 -155l206 509h117l206 -509q46 107 72 266q75 391 75 984h246q0 -687 -134 -1234q-59 -237 -131 -401h-162l-225 532l-226 -532 h-161q-57 122 -111 287q-112 356 -112 660z" />
<glyph unicode="&#xe1e;" horiz-adv-x="1553" d="M19 1259h237l234 -813l209 813h156l206 -813l234 813h239l-362 -1259h-189l-206 811l-209 -811h-186z" />
<glyph unicode="&#xe1f;" horiz-adv-x="1659" d="M19 1259h237l234 -813l209 813h156l206 -813l343 1189h236l-468 -1635h-189l-206 797l-206 -797h-189z" />
<glyph unicode="&#xe20;" horiz-adv-x="1274" d="M61 949q53 99 125 168q170 170 404 170q75 0 146 -12t136 -35t120 -59t95 -81.5t62.5 -105.5t22.5 -128v-669q0 -61 -69 -136q-33 -32 -69 -61h-106v811q0 49 -13.5 89.5t-37.5 68.5t-55 48.5t-70 32t-78.5 17t-83.5 5.5q-112 0 -200 -62q-41 -31 -66 -61l168 -138 q-24 -25 -35 -51q-37 -71 -37 -172v-362q0 -70 -24.5 -121.5t-68 -78t-99.5 -26.5l-164 -3v218h84q5 0 9 1t7 3.5t5 4t3.5 5.5t2 6.5t1 7.5t0.5 8t-0.5 9.5t-0.5 10.5l-2 317q0 88 24 164q14 36 29 59q-16 12 -44.5 36t-40.5 33q-80 65 -80 69z" />
<glyph unicode="&#xe21;" horiz-adv-x="1255" d="M103 0v1259h242v-874q46 -51 83 -74q101 -69 202 -69q79 0 134 18t87 55t46 87t14 119v738h242v-839q0 -57 -16.5 -117.5t-50.5 -119t-81.5 -105t-115.5 -74.5t-145 -28q-177 0 -303 110q-66 61 -96 111v-197h-242z" />
<glyph unicode="&#xe22;" horiz-adv-x="1185" d="M61 379q0 162 154 267q67 47 152 67q-66 10 -139 47q-138 85 -138 218q0 61 18 112.5t48.5 87.5t70.5 61.5t83 37.5t86 12q94 0 178 -21q45 -15 64 -24v-221q-10 4 -31 12t-30 12q-83 25 -131 25q-44 0 -79 -25t-35 -69q0 -159 306 -159v-215q-84 0 -150.5 -20.5 t-105.5 -54t-59 -72t-20 -78.5q0 -193 255 -193q68 0 123 20t89 54.5t52 77.5t18 90v831h244v-818q0 -69 -16.5 -132.5t-56 -125t-98.5 -107t-150.5 -73t-204.5 -27.5q-108 0 -193.5 21.5t-141.5 59t-93 89.5t-53 109.5t-16 123.5z" />
<glyph unicode="&#xe23;" horiz-adv-x="1060" d="M103 80v204q69 -35 115 -50q142 -50 261 -50q236 0 236 195q0 44 -21 75.5t-56 50.5t-81 33.5t-97 28t-101.5 30.5t-96.5 45t-81.5 66.5t-56.5 100t-21 140.5q0 96 57.5 173.5t156.5 121t220 43.5q157 0 271 -56q42 -19 95 -56v-223q-46 36 -90 58q-125 62 -276 62 q-86 0 -139 -34t-53 -97q0 -37 21 -65t56.5 -46.5t81.5 -34t97 -31.5t102 -35t97 -48.5t81.5 -68t56.5 -98.5t21 -135q0 -41 -5.5 -79t-19 -79.5t-35.5 -76t-58 -66.5t-82.5 -54t-112 -35t-144.5 -13q-175 0 -290 51q-46 15 -109 53z" />
<glyph unicode="&#xe24;" horiz-adv-x="1274" d="M61 949q59 102 128 168q170 170 407 170q85 0 167.5 -17t156.5 -51.5t130 -83.5t89 -118.5t33 -150.5v-1251q0 -61 -69 -136q-33 -33 -69 -61h-106v1393q0 261 -338 261q-123 0 -205 -62q-45 -34 -61 -61l168 -138q-18 -19 -38 -53q-39 -77 -39 -170v-315v-7 q0 -17 1 -25.5t7.5 -15.5t19.5 -7l89 -3v-215h-150q-207 0 -207 226v362q0 88 25 164q10 27 26 59q-16 12 -44.5 36t-40.5 33q-80 65 -80 69z" />
<glyph unicode="&#xe25;" horiz-adv-x="1157" d="M61 337q0 81 30.5 148t80 112t115 76.5t134 45.5t137.5 14q153 0 221 16q31 9 34 19v59q0 118 -64.5 181.5t-193.5 63.5q-159 0 -287 -117q-62 -57 -98 -117l-87 212q39 64 109 117q153 120 363 120q104 0 187.5 -23.5t141.5 -67t97 -106t56.5 -139.5t17.5 -169v-782 h-242v560q-14 -11 -47 -20q-65 -19 -211 -19q-40 0 -82 -10.5t-81 -31t-64 -57.5t-25 -85q0 -72 52 -112.5t137 -40.5q50 0 109 20q7 3 16 7t17.5 7.5t14.5 7.5v-221q-14 -6 -42 -16q-63 -16 -131 -16q-193 0 -304 94.5t-111 269.5z" />
<glyph unicode="&#xe26;" horiz-adv-x="1274" d="M61 949q47 96 123 168q170 170 420 170q77 0 156 -17t153 -51.5t132 -83.5t92.5 -118.5t34.5 -150.5v-1251q0 -61 -69 -136q-33 -33 -69 -61h-106v1393q0 44 -12 81.5t-33.5 66t-50.5 50.5t-65 35.5t-75 20.5t-81 7q-136 0 -223 -62q-44 -33 -64 -61l168 -138 q-24 -25 -35 -51q-37 -71 -37 -172v-362q0 -106 -53 -166t-147 -60h-156v215h84q5 0 9 1t7 3.5t5 4t3.5 5.5t2 6.5t1 7.5t0.5 8t-0.5 9.5t-0.5 10.5l-2 317q0 88 24 164q14 36 29 59q-16 12 -44.5 36t-40.5 33q-80 65 -80 69z" />
<glyph unicode="&#xe27;" horiz-adv-x="1149" d="M61 141l87 218q39 -53 91 -88q114 -87 260 -87q63 0 123.5 29t110.5 83t81 141t31 193q0 71 -14 132t-39 106t-57.5 80t-71.5 56.5t-80 32t-84 10.5q-132 0 -262 -69q-48 -25 -93 -70l-83 209q37 47 101 84q141 86 330 86q126 0 235.5 -46.5t189.5 -130.5t126 -208 t46 -272t-44.5 -271.5t-123 -207t-186.5 -129.5t-233 -46q-188 0 -335 82q-68 40 -106 83z" />
<glyph unicode="&#xe28;" horiz-adv-x="1283" d="M103 0v866q0 78 31 146.5t83 118t119.5 85t142.5 53.5t151 18q122 0 194 -25q58 24 86 62t28 100h242q0 -90 -40.5 -161.5t-105.5 -103.5q71 -50 108.5 -130.5t37.5 -162.5v-866h-242v866q0 39 -16 72.5t-44.5 58.5t-67 43t-84.5 27t-96 9q-124 0 -204.5 -61t-80.5 -149 v-268q43 43 86 67q116 71 220 71v-240q-129 0 -228 -58q-35 -21 -78 -59v-379h-242z" />
<glyph unicode="&#xe29;" horiz-adv-x="1228" d="M103 441v818h242v-821q0 -68 23.5 -125t71.5 -93t112 -36h117q51 0 92 20t66 54t38.5 77t14.5 91l3 151h-251v178h251l-3 504h245v-504h84v-178h-84l-3 -136q-4 -135 -53.5 -239.5t-142 -165t-216.5 -60.5h-195q-92 0 -170 36.5t-130.5 99.5t-82 148t-29.5 181z" />
<glyph unicode="&#xe2a;" horiz-adv-x="1172" d="M61 337q0 81 28 148t74.5 111.5t108 75.5t128 44.5t134.5 13.5q161 0 234 19q38 10 48 19v59q0 116 -65.5 180.5t-190.5 64.5q-159 0 -287 -117q-61 -57 -98 -117l-85 215q40 65 107 117q150 117 363 117q85 0 153 -17q32 13 54 28t35 34t19 41t6 51h242q0 -81 -45 -141 t-124 -97q39 -29 69 -70.5t50.5 -93t31 -112t10.5 -128.5v-782h-245v560q-20 -11 -58 -20q-74 -19 -224 -19q-51 0 -102.5 -22.5t-87 -66t-35.5 -95.5q0 -72 51 -112.5t136 -40.5q41 0 108 23q6 3 23 10t24 11l3 -223q-7 -2 -47 -16q-63 -16 -111 -16q-128 0 -224.5 39 t-153.5 122.5t-57 202.5z" />
<glyph unicode="&#xe2b;" horiz-adv-x="1169" d="M103 0v1259h242v-470l476 470h330l-441 -432q34 -7 67 -16.5t72.5 -28t73.5 -42.5t67 -60.5t56 -80.5t37.5 -104.5t14.5 -130.5v-364h-245v326q0 77 -21 141t-52 104t-70 69t-71 41.5t-60 17.5l-234 -237v-462h-242z" />
<glyph unicode="&#xe2c;" horiz-adv-x="1659" d="M22 1259h240l234 -813l206 813h159l203 -813l175 588q12 28 12 66q0 86 -84 159q-53 42 -80 53q73 24 155 78q159 109 159 245h245q0 -51 -13.5 -94t-37.5 -74.5t-50 -53.5t-60 -42q-73 -42 -162 -59q44 -15 78 -44q73 -55 84 -151q2 -35 -7.5 -75t-18.5 -61l-281 -981 h-189l-210 797l-202 -797h-189z" />
<glyph unicode="&#xe2d;" horiz-adv-x="1260" d="M61 838q21 129 87 223q152 226 465 226q93 0 173 -22t139 -59t106.5 -88.5t78.5 -109.5t52 -123.5t30 -128.5t9 -126q0 -158 -44.5 -283.5t-124 -206t-186 -122.5t-233.5 -42q-160 0 -285 60t-194.5 171t-69.5 255q0 115 43.5 166.5t129.5 51.5h295v-215l-178 3 q-47 0 -43 -42q17 -112 97.5 -177t204.5 -65q174 0 258 112t84 334q0 209 -94.5 325.5t-247.5 116.5q-159 0 -254 -117q-41 -52 -61 -117h-237z" />
<glyph unicode="&#xe2e;" horiz-adv-x="1260" d="M61 840q21 130 87 224q150 223 463 223q120 0 194 -28q120 35 120 165h231q0 -62 -26.5 -118t-65.5 -91.5t-83 -53.5q111 -93 165.5 -233.5t54.5 -297.5q0 -158 -44.5 -283.5t-124 -206t-186 -122.5t-233.5 -42q-160 0 -285 60t-194.5 171t-69.5 255q0 49 7.5 86.5t26 68 t53 47t83.5 16.5h298v-215h-176q-46 0 -42 -42q10 -107 92.5 -173t206.5 -66q342 0 342 446q0 210 -95 328t-249 118q-157 0 -252 -117q-41 -51 -61 -119h-237z" />
<glyph unicode="&#xe2f;" horiz-adv-x="1164" d="M61 1259h240q12 -52 23 -86.5t29.5 -68t42 -52.5t58 -30.5t80.5 -11.5q104 0 183 64.5t110 184.5h234v-818q0 -125 -21.5 -210.5t-67 -136t-109 -72.5t-153.5 -22v215h3q28 0 40.5 2t28.5 13t22 35.5t10.5 69t4.5 114.5v484q-35 -45 -75 -69q-104 -67 -229 -67 q-81 0 -150 24.5t-119.5 67.5t-88.5 102t-61 126t-35 142z" />
<glyph unicode="&#xe30;" horiz-adv-x="801" d="M103 420v123h232v-100q0 -37 23 -52.5t94 -15.5h247l-88 -208h-232q-142 0 -209 62.5t-67 190.5zM103 1034v114h232v-101q0 -25 8.5 -38.5t34 -20.5t74.5 -7h247l-88 -210h-238q-60 0 -105 11t-76.5 32t-51 53.5t-28.5 73t-9 93.5z" />
<glyph unicode="&#xe31;" d="M-718 1722v117h234v-98q0 -38 23 -52.5t94 -14.5h506l-86 -207h-499q-63 0 -109.5 11.5t-84.5 39t-58 79t-20 125.5z" />
<glyph unicode="&#xe32;" horiz-adv-x="1018" d="M61 941v215q51 40 93 64q114 67 244 67q79 0 153.5 -19.5t141 -59t116.5 -95.5t79 -134t29 -168v-811h-242v782q0 61 -17.5 111t-46 82.5t-67 55t-78 32t-81.5 9.5q-111 0 -226 -67q-24 -12 -98 -64z" />
<glyph unicode="&#xe33;" horiz-adv-x="1018" d="M-616 1724q0 106 76.5 182.5t180.5 76.5q106 0 182 -76t76 -183q0 -104 -76 -180.5t-182 -76.5t-181.5 75.5t-75.5 181.5zM-446 1724q0 -35 24.5 -59.5t59.5 -24.5q34 0 58.5 24.5t24.5 59.5q0 34 -24.5 58.5t-58.5 24.5q-35 0 -59.5 -24.5t-24.5 -58.5zM61 941v215 q51 40 93 64q114 67 244 67q79 0 153.5 -19.5t141 -59t116.5 -95.5t79 -134t29 -168v-811h-242v782q0 61 -17.5 111t-46 82.5t-67 55t-78 32t-81.5 9.5q-111 0 -226 -67q-24 -12 -98 -64z" />
<glyph unicode="&#xe34;" d="M-1036 1467l87 202h787v-202h-874z" />
<glyph unicode="&#xe35;" d="M-1036 1467l87 210h542v162h245v-372h-874z" />
<glyph unicode="&#xe36;" d="M-1036 1467l87 210h353q-1 5 -1 10.5t0.5 10t0.5 11v10.5q10 76 73 125.5t141 49.5q52 0 95 -19t69.5 -50.5t41 -70t14.5 -77.5q0 -60 -34.5 -109t-84.5 -75t-101 -26h-654zM-423 1679.5q0 -16.5 12.5 -29.5t28.5 -13t29 13t13 29.5t-13 29.5t-29 13t-28.5 -13 t-12.5 -29.5z" />
<glyph unicode="&#xe37;" d="M-1036 1467l87 210h319v162h178v-162h85v162h205v-372h-874z" />
<glyph unicode="&#xe38;" d="M-484 -207h139q74 0 128.5 -25.5t85 -77t30.5 -124.5v-226h-244v179q0 17 -7.5 32t-22 24.5t-32.5 9.5h-77v208z" />
<glyph unicode="&#xe39;" d="M-847 -207h156q94 0 161.5 -53.5t67.5 -140.5q0 -44 12 -61t43 -17q34 0 48 17t14 61v194h244v-239q0 -30 -4.5 -55.5t-16 -54.5t-34 -51.5t-56 -41.5t-85.5 -29t-118 -10q-77 0 -135 16.5t-90.5 46t-48 64.5t-15.5 77q0 26 -17.5 46t-44.5 20h-81v211z" />
<glyph unicode="&#xe3a;" d="M-345 -207h244v-231h-244v231z" />
<glyph unicode="&#xe3f;" horiz-adv-x="1143" d="M103 0v1429h267v232h234v-241q109 -11 190.5 -60t123 -122.5t41.5 -161.5q0 -73 -26.5 -138t-79.5 -114t-125 -69q139 -25 226.5 -112.5t87.5 -222.5q0 -167 -123 -284t-315 -133v-234h-234v231h-267zM345 212h173q67 0 122 18.5t89 48.5t52.5 66.5t18.5 74.5 q0 48 -18 87.5t-54.5 71t-98 49.5t-142.5 18h-142v-434zM345 861h126q33 0 65 5t65.5 18t58 33.5t40 54t15.5 75.5q0 44 -20 77.5t-53.5 52.5t-72.5 28t-82 9h-142v-353z" />
<glyph unicode="&#xe40;" horiz-adv-x="516" d="M103 226v1033h242v-988v-11v-11t0.5 -9t1.5 -8l3 -6t5 -5.5t7.5 -3.5t10.5 -2h84v-215h-151q-35 0 -64 7t-55 23.5t-44.5 42t-29 64.5t-10.5 89z" />
<glyph unicode="&#xe41;" horiz-adv-x="1032" d="M103 226v1033h242v-988v-11v-11t0.5 -9t1.5 -8l3 -6t5 -5.5t7.5 -3.5t10.5 -2h84v-215h-162q-88 0 -140 56.5t-52 169.5zM619 226v1033h242v-988v-9.5v-8.5v-7.5t0.5 -7t1.5 -6t2 -5.5t3 -4.5t5 -4t6.5 -2.5t8.5 -1h84v-215h-161q-88 0 -140 56.5t-52 169.5z" />
<glyph unicode="&#xe42;" horiz-adv-x="665" d="M194 1599q0 129 103.5 200.5t306.5 71.5h334v-210h-214q-102 0 -163 -8t-92 -27t-31 -52q0 -29 8.5 -70.5t18.5 -81.5t18.5 -110.5t8.5 -150.5v-893v-7q0 -17 1 -25t7.5 -15.5t20.5 -8.5h83v-212h-163q-85 0 -138 60.5t-53 165.5v935q0 102 -14 189t-28 148.5t-14 100.5z " />
<glyph unicode="&#xe43;" horiz-adv-x="848" d="M0 1707q26 50 78 95q109 98 239 98q87 0 160 -22.5t130.5 -68.5t90 -122.5t32.5 -176.5q0 -55 -8 -102t-18 -78t-18.5 -93.5t-8.5 -144.5v-816v-11v-10.5t0.5 -8.5t1.5 -8.5t3 -6.5t5 -5.5t7.5 -3t9.5 -2.5h85v-220h-159q-92 0 -145.5 60t-53.5 166v866q0 95 14 175 t28 139t14 104q0 78 -43 126.5t-130 48.5q-86 0 -173 -92q-33 -43 -61 -92z" />
<glyph unicode="&#xe44;" horiz-adv-x="888" d="M0 1661v210q115 0 244 -134l4 -4q20 36 53 69q74 69 170 69q244 0 244 -420v-1180v-7q0 -18 1 -25.5t7.5 -15t20.5 -8.5h83v-215h-152q-98 0 -150 59.5t-52 166.5v1225q0 9 1 34.5t0.5 41.5t-1.5 40.5t-6 39.5t-12.5 30t-21 20.5t-32.5 3.5q-40 -11 -90 -96 q-21 -39 -40 -83q-28 50 -67 89q-90 90 -204 90z" />
<glyph unicode="&#xe45;" horiz-adv-x="1018" d="M61 941v215q51 40 93 64q114 67 255 67q76 0 149 -19.5t138 -59t114 -95.5t78 -134t29 -168v-1196q0 -61 -70 -136q-28 -28 -70 -61h-102v1364q0 64 -19 115.5t-48 83t-68.5 53t-77.5 30t-77 8.5q-111 0 -226 -67q-24 -12 -98 -64z" />
<glyph unicode="&#xe46;" horiz-adv-x="1185" d="M61 922q0 98 38.5 180.5t111.5 133.5t164 51q20 0 44.5 -14.5t41 -29.5t44.5 -42q36 -41 66 -84q41 52 70 84q40 41 71 63.5t59 22.5q61 0 113 -22t88 -58.5t62 -84t38 -98.5t12 -102v-1307q0 -60 -71 -136q-32 -33 -69 -61h-104v1448q0 206 -99 206q-29 0 -103 -97 q-11 -18 -34.5 -51.5t-32.5 -46.5q-11 16 -35 48.5t-34 49.5q-75 97 -101 97q-38 0 -68 -37t-30 -113q0 -78 45 -143q21 -29 48 -41l-82 -198q-74 21 -128 71q-125 109 -125 311z" />
<glyph unicode="&#xe47;" d="M-997 1693q0 55 16.5 99.5t44.5 73.5t66 48t78.5 27.5t84.5 8.5l223 3q104 0 192 67q42 32 69 64v-224q-17 -9 -69 -27q-95 -28 -192 -28h-196q-40 0 -68.5 -10t-43 -26.5t-21 -35t-6.5 -40.5q0 -29 22.5 -56t60.5 -27q58 0 90 53q13 21 22 53h64q4 -31 17 -53 q19 -53 59 -53q39 0 61 31.5t22 74.5h178q0 -47 -17 -91.5t-46.5 -79.5t-74.5 -56.5t-96 -21.5q-53 0 -101 43q-24 24 -38 44q-14 -21 -42 -44q-60 -43 -125 -43q-43 0 -83.5 14.5t-75 41t-55 71t-20.5 99.5z" />
<glyph unicode="&#xe48;" d="M-345 1467v372h244v-372h-244z" />
<glyph unicode="&#xe49;" d="M-789 1629v210h257q43 0 77.5 -32.5t34.5 -73.5q0 -24 16 -41t40 -15l420 -3l-83 -207h-478q-58 0 -95.5 28t-37.5 79q0 55 -50 55h-101z" />
<glyph unicode="&#xe4a;" d="M-914 1610q0 69 35.5 122.5t88.5 80t110 26.5q50 0 95 -45q20 -25 30 -45q14 27 31 45q40 45 96 45q75 0 134.5 -42.5t59.5 -95.5q0 -6 0.5 -11t2.5 -8t2.5 -4.5t4.5 -2.5t5.5 -1h7.5h7h260l-83 -207h-244q-36 0 -63 14.5t-41 37t-20 45.5t-6 46q0 16 -3.5 31t-10.5 26.5 t-18 18.5t-24 7q-61 0 -61 -83h-75q0 11 -0.5 19t-2 19t-5.5 18t-10.5 13.5t-16.5 10t-23 3.5q-23 0 -39.5 -25t-16.5 -58q0 -53 45 -103q31 -31 43 -40h-219q-22 18 -39 40q-37 47 -37 103z" />
<glyph unicode="&#xe4b;" d="M-484 1549v208h139v82h244v-85h138v-205h-138v-82h-244v82h-139z" />
<glyph unicode="&#xe4c;" d="M-649 1467v90q0 68 38 133t104.5 107t142.5 42h199l-85 -210h-51q-55 0 -79 -29.5t-24 -84.5v-48h-245z" />
<glyph unicode="&#xe4d;" d="M-616 1722q0 107 76 182.5t181 75.5q107 0 182.5 -75.5t75.5 -182.5q0 -106 -76 -180.5t-182 -74.5t-181.5 74.5t-75.5 180.5zM-446 1722q0 -36 24.5 -60.5t59.5 -24.5q34 0 58.5 24.5t24.5 60.5q0 33 -24.5 58t-58.5 25q-35 0 -59.5 -24.5t-24.5 -58.5z" />
<glyph unicode="&#xe4e;" d="M-718 1605q0 60 23.5 107.5t63 75.5t86.5 42t99 14q0 44 23 77.5t64.5 54t97.5 31t125 10.5v-128q-36 0 -63 -5t-52 -20t-41 -40.5t-25 -67t-9 -98.5q-158 0 -158 -106q0 -37 22 -64q17 -18 21 -21h-231q-46 60 -46 138z" />
<glyph unicode="&#xe4f;" horiz-adv-x="1321" d="M103 531.5q0 114.5 44.5 218.5t119.5 178t178 117.5t215 43.5q114 0 218 -43.5t179 -118t119 -177.5t44 -218t-44 -218t-119 -177.5t-179 -117.5t-218 -43q-112 0 -215 43.5t-178 117t-119.5 177t-44.5 218zM287 532q0 -75 30 -144t80 -119t118.5 -80t144.5 -30 q102 0 188.5 50.5t136 136t49.5 186.5q0 103 -49.5 189t-135.5 135.5t-189 49.5q-101 0 -186.5 -49.5t-136 -136t-50.5 -188.5zM407 532q0 106 73.5 180t179.5 74t180 -74t74 -180t-74 -179.5t-180 -73.5t-179.5 73.5t-73.5 179.5z" />
<glyph unicode="&#xe50;" horiz-adv-x="1258" d="M61 529q0 76 20.5 149t57.5 134.5t89.5 113.5t114.5 88.5t135 57t149 20.5q114 0 219.5 -45t182.5 -120.5t123 -179.5t46 -218q0 -91 -30.5 -177t-85 -154t-126 -119t-159 -78.5t-178.5 -27.5q-112 0 -215 43.5t-178 117.5t-120 177.5t-45 217.5zM303 532q0 -71 26 -136 t69.5 -112t104 -75t127.5 -28q87 0 162 47.5t119 128t44 175.5q0 93 -44 173t-119 127.5t-162 47.5q-89 0 -164.5 -47.5t-119 -127.5t-43.5 -173z" />
<glyph unicode="&#xe51;" horiz-adv-x="1255" d="M61 632q0 70 26.5 138t77 125.5t117 102t152 69.5t177.5 25q121 0 227.5 -42t186 -118t125 -190.5t45.5 -251.5q0 -60 -11 -116t-31.5 -103.5t-49 -90t-63.5 -77.5t-74.5 -65t-82.5 -52.5t-87.5 -40t-89.5 -29t-88 -17t-84 -5.5q-89 0 -108 3l61 204h12q57 0 118.5 15.5 t121.5 48.5t107.5 78t76.5 109.5t29 137.5q0 94 -27.5 169t-74.5 122t-108 71.5t-131 24.5q-63 0 -116.5 -17t-87.5 -44t-58.5 -60.5t-35 -64.5t-10.5 -59q0 -46 12 -85.5t31 -64t40.5 -38t41.5 -13.5q45 0 62 27t17 79v53h242v-88q0 -33 -7 -67.5t-29 -74.5t-55.5 -70.5 t-93 -51t-136.5 -20.5q-49 0 -99 15.5t-98.5 49.5t-86 81.5t-60.5 117t-23 150.5z" />
<glyph unicode="&#xe52;" horiz-adv-x="1547" d="M19 1435v211h42q79 0 149 -29.5t118 -76t83 -104.5t51.5 -115.5t16.5 -108.5v-792q0 -45 9.5 -82t26 -62t37 -43.5t44.5 -29t46 -15t43 -4.5h365q39 0 72 10.5t61.5 33t44.5 63.5t16 97v295q0 43 -4.5 79.5t-15.5 75.5t-36 61.5t-61 22.5q-49 0 -88 -56 q-8 -9 -22.5 -30.5t-16.5 -24.5q-25 42 -36 55q-39 56 -87 56q-46 0 -73 -36t-27 -86q0 -30 9 -53t22.5 -38t35.5 -26t41 -16.5t45.5 -8.5t43 -3.5t39.5 -0.5v-211q-52 0 -90.5 2.5t-87 10.5t-83 23t-69.5 41.5t-57 63.5t-35.5 91.5t-13.5 124.5q0 31 8 68.5t28 78.5t49 74 t74 55t99 22q68 0 127 -59q20 -21 40 -56q28 39 48 56q58 59 130 59q65 0 118 -26.5t87.5 -68.5t58 -97.5t34 -111.5t10.5 -111v-301q0 -81 -21.5 -148t-60 -114.5t-91.5 -80t-115 -48t-131 -15.5h-442q-51 0 -103 15t-102 48.5t-88.5 80t-62 114.5t-23.5 148v838 q0 49 -9.5 84.5t-33 67t-70.5 47.5t-116 16z" />
<glyph unicode="&#xe53;" horiz-adv-x="1536" d="M61 537q0 263 104.5 409t302.5 146q76 0 133.5 -39.5t105.5 -103.5q46 -61 70 -138q22 74 70 138q98 143 237 143q83 0 155 -38t124.5 -108t82.5 -175.5t30 -233.5q0 -220 -81 -396q-34 -82 -77 -141h-234q47 78 72 151q75 199 75 386q0 159 -50 251t-134 92 q-82 0 -126 -104t-44 -311h-217q0 194 -45 304.5t-125 110.5q-25 0 -49 -9.5t-49 -34.5t-43.5 -62.5t-30.5 -98.5t-12 -138q0 -159 67 -256t185 -97q41 0 93 13q4 2 45 18v-199q-3 -3 -7.5 -5.5t-8.5 -5t-10 -5.5l-10 -5q-49 -22 -105 -22q-70 0 -140 23t-134 70.5t-113 113 t-78 158.5t-29 199z" />
<glyph unicode="&#xe54;" horiz-adv-x="1491" d="M61 521q0 79 13.5 154t45.5 147t78 125.5t117 86t158 32.5h446q39 0 69 4.5t61 18.5t51 37.5t32.5 63.5t12.5 94v364l245 -2l-3 -421q0 -79 -21.5 -142.5t-58 -105t-86.5 -69t-103.5 -39t-112.5 -11.5h-476q-57 0 -101 -27.5t-71 -75.5t-40.5 -108t-13.5 -129 q0 -306 221 -306h420q-72 37 -139 99q-140 135 -140 305h252q0 -85 27.5 -161t73.5 -129t107 -83.5t126 -30.5h139v-212h-911q-92 0 -171 42.5t-132.5 113.5t-84 166t-30.5 199z" />
<glyph unicode="&#xe55;" horiz-adv-x="1494" d="M61 518q0 65 10 128.5t30.5 126t54 115t77 93t104 63t131.5 22.5h77q-8 21 -8 59q0 102 73.5 175.5t175.5 73.5t175 -73.5t73 -175.5q0 -26 -9 -47q73 32 98 84.5t25 166.5v319h245v-412q0 -99 -29 -173.5t-80.5 -118.5t-116.5 -65t-144 -21h-486q-75 0 -128.5 -48.5 t-78 -124t-24.5 -167.5q0 -69 12 -123.5t36.5 -96t67 -64t99.5 -22.5h428q-78 40 -141 99q-139 134 -139 305h250q0 -57 14.5 -111t38.5 -97.5t56 -80.5t67.5 -62t72.5 -39t71 -14h154v-212h-912q-73 0 -140 29.5t-117 80.5t-87.5 116.5t-56.5 140.5t-19 151zM702 1117 q0 -36 24 -59.5t60 -23.5h8q33 6 54 28t21 55t-24.5 58.5t-58.5 25.5q-35 0 -59.5 -25t-24.5 -59z" />
<glyph unicode="&#xe56;" horiz-adv-x="1687" d="M19 1435v213h59q82 0 152 -21.5t121.5 -54.5t97.5 -91.5t77 -112t62.5 -137.5t51 -148t45.5 -161q37 53 86 86q117 90 290 90q107 0 199 -29.5t158.5 -80t114 -118.5t71 -146.5t23.5 -163.5q0 -76 -17.5 -148.5t-49.5 -137.5t-81.5 -120t-111 -94.5t-140 -61.5 t-166.5 -22q-82 0 -156 23t-131 61t-105 91t-81 109.5t-56 118.5h245q38 -91 117.5 -143t166.5 -52q43 0 87.5 14.5t87 46t75.5 75t53 106t20 134.5q0 71 -25.5 131.5t-70 102t-103.5 65.5t-124 24q-53 0 -98 -16.5t-77.5 -44t-59 -67t-43.5 -82.5t-28 -94h-226 q-30 127 -50.5 207.5t-47.5 174.5t-49.5 150t-52 116.5t-59.5 93.5t-68.5 62t-83.5 40.5t-99 11.5z" />
<glyph unicode="&#xe57;" horiz-adv-x="2007" d="M61 537q0 101 18.5 187t52 149t80 107.5t102 66.5t117.5 22q42 0 81.5 -14.5t68 -35t55 -51t42.5 -55t31 -55.5t20.5 -44t10.5 -29q1 -2 1 -3q0 5 8 26t23.5 54t41.5 68.5t57.5 67t77 51.5t95.5 20q80 0 147.5 -34.5t118 -99.5t79 -167t28.5 -231q0 -115 -10.5 -181.5 t-38.5 -135.5q155 20 155 240v791q0 181 112 289t315 108h38v-213q-57 0 -97.5 -8.5t-65 -22.5t-38 -38.5t-18 -51t-4.5 -66.5v-839q0 -79 -24.5 -147.5t-64.5 -115.5t-91.5 -81t-104.5 -49.5t-104 -15.5h-359q43 61 78 151q80 186 80 386q0 165 -35.5 241.5t-122.5 76.5 q-55 0 -96 -35.5t-65 -111.5t-24 -184h-186q0 141 -54.5 236t-129.5 95q-27 0 -48.5 -7t-43 -27.5t-35.5 -55t-23 -92.5t-9 -136q0 -154 69.5 -253.5t175.5 -99.5q35 0 98 16q20 7 48 18v-202q-9 -4 -26 -10.5t-25 -10.5q-54 -19 -98 -19q-99 0 -188 43t-154 117 t-103.5 178.5t-38.5 222.5z" />
<glyph unicode="&#xe58;" horiz-adv-x="1497" d="M61 537q0 81 19.5 158t59.5 144.5t96.5 118t134.5 79.5t169 29h385q32 0 57.5 3.5t52.5 11.5t47 24t36 39.5t24.5 59t8.5 80.5v364h244v-389q0 -93 -23 -165t-61 -116t-91.5 -72.5t-107.5 -39.5t-115 -11h-393q-73 0 -130.5 -26.5t-92.5 -72t-53.5 -103.5t-18.5 -124 q0 -155 49.5 -249t128.5 -94q44 0 81 36.5t64 91.5q25 48 48 132q36 -83 78 -132q106 -128 214 -128q179 0 179 202v72h242v-72q0 -92 -24 -166t-73.5 -130t-131.5 -86t-192 -30q-129 0 -223 82q-41 38 -69 83q-18 -41 -50 -83q-73 -82 -173 -82q-70 0 -139.5 39.5 t-127 109.5t-93.5 178.5t-36 233.5z" />
<glyph unicode="&#xe59;" horiz-adv-x="1799" d="M61 537q0 72 13 139t36 121.5t53 102t65.5 82.5t73.5 60t76 37.5t74 12.5q40 0 77.5 -9t65.5 -23t55.5 -36t47 -42t40.5 -46q17 110 81.5 176t161.5 66q42 0 84 -14.5t74.5 -36t65.5 -47t58.5 -47t52.5 -36t49 -14.5q49 0 67.5 84t18.5 243v338h245v-338 q0 -539 -317 -539q-60 0 -115 21t-93.5 50t-72 57.5t-64 47.5t-56.5 17q-42 -2 -71.5 -32.5t-29.5 -78.5q0 -23 3 -29l45 -152q11 -35 29.5 -99t37 -130.5t55 -199.5t67.5 -243h-234l-205 721q-18 64 -70 115.5t-115 51.5q-23 0 -46.5 -10.5t-49 -36.5t-45.5 -64.5 t-33 -100.5t-13 -139q0 -156 61 -254.5t165 -98.5q46 0 93 20q6 4 21 11t22 11v-207q-17 -12 -27.5 -18.5t-44.5 -15.5t-75 -9q-88 0 -171 43t-146 116.5t-101.5 179t-38.5 222.5z" />
<glyph unicode="&#xe5a;" horiz-adv-x="1553" d="M61 1259h240q12 -51 23.5 -86t29.5 -68t41 -52.5t56.5 -31t77.5 -11.5q106 0 186.5 64.5t111.5 184.5h234v-818q0 -61 -3.5 -108.5t-13.5 -95t-26.5 -82t-43.5 -65t-63.5 -49.5t-87 -30t-113.5 -11v215h14q26 -1 37 1.5t25.5 14t19.5 39.5t9 76.5t4 126.5v460 q-38 -48 -72 -69q-104 -67 -240 -67q-79 0 -146.5 24.5t-117 67.5t-87.5 102t-60.5 126t-34.5 142zM1209 0v1262l242 -3v-1259h-242z" />
<glyph unicode="&#xe5b;" horiz-adv-x="2065" d="M103 515q0 76 16 147.5t46 135.5t76.5 117t106 92t136.5 60.5t165 21.5q81 0 150 -18.5t119 -51t85 -69.5t61 -81q57 -93 78 -220h-236q-14 54 -48 114q-73 117 -209 117q-127 0 -214 -101.5t-87 -263.5q0 -76 26 -139.5t69.5 -105t99.5 -64t117 -22.5q102 0 201 78 q46 32 77 78l146 -140l111 143l128 -139l120 141q12 -19 61 -83q71 -81 133 -81q48 0 70.5 23.5t22.5 53.5q0 50 -45 115q-27 32 -42 47h237q24 -19 42 -41q42 -69 42 -134q0 -29 -8 -61.5t-29 -70.5t-52 -68t-83 -49.5t-115 -19.5q-84 0 -167 82q-34 39 -62 83l-114 -138 l-128 138l-108 -138l-146 138q-32 -50 -78 -85q-104 -83 -214 -83q-121 0 -226.5 46t-177 121.5t-112.5 173.5t-41 201z" />
<glyph unicode="&#x2000;" horiz-adv-x="1253" />
<glyph unicode="&#x2001;" horiz-adv-x="2506" />
<glyph unicode="&#x2002;" horiz-adv-x="1253" />
<glyph unicode="&#x2003;" horiz-adv-x="2506" />
<glyph unicode="&#x2004;" horiz-adv-x="835" />
<glyph unicode="&#x2005;" horiz-adv-x="626" />
<glyph unicode="&#x2006;" horiz-adv-x="417" />
<glyph unicode="&#x2007;" horiz-adv-x="417" />
<glyph unicode="&#x2008;" horiz-adv-x="313" />
<glyph unicode="&#x2009;" horiz-adv-x="501" />
<glyph unicode="&#x200a;" horiz-adv-x="139" />
<glyph unicode="&#x2010;" horiz-adv-x="824" d="M103 529v201h618v-201h-618z" />
<glyph unicode="&#x2011;" horiz-adv-x="824" d="M103 529v201h618v-201h-618z" />
<glyph unicode="&#x2012;" horiz-adv-x="824" d="M103 529v201h618v-201h-618z" />
<glyph unicode="&#x2013;" horiz-adv-x="1116" d="M103 529v201h910v-201h-910z" />
<glyph unicode="&#x2014;" horiz-adv-x="1645" d="M103 529v201h1441v-201h-1441z" />
<glyph unicode="&#x2018;" horiz-adv-x="447" d="M103 1002v199q0 117 109 242q43 43 112 94h244q-62 -47 -111 -99q-112 -128 -112 -237v-199h-242z" />
<glyph unicode="&#x2019;" horiz-adv-x="450" d="M-114 1002q59 47 109 101q108 131 108 237v197h245v-197q0 -67 -30 -124t-81 -116q-45 -48 -112 -98h-239z" />
<glyph unicode="&#x201c;" horiz-adv-x="809" d="M103 1002v199q0 117 109 242q43 43 112 94h221q-53 -43 -102 -99q-103 -125 -103 -237v-199h-237zM471 1002v199q0 114 117 242q44 44 119 94h223q-62 -47 -111 -99q-112 -128 -112 -237v-199h-236z" />
<glyph unicode="&#x201d;" horiz-adv-x="813" d="M-114 1002q59 47 109 101q108 131 108 237v197h237v-197q0 -35 -10 -69t-28.5 -65t-37 -54.5t-44.5 -51.5q-43 -46 -117 -98h-217zM265 1002q59 51 102 101q106 128 106 237v197h237v-197q0 -67 -30 -124t-82 -116q-45 -48 -111 -98h-222z" />
<glyph unicode="&#x2022;" horiz-adv-x="773" d="M103 632q0 121 84 204t203 83q118 0 200 -83t82 -204q0 -115 -82.5 -198t-199.5 -83q-78 0 -144 38t-104.5 103t-38.5 140z" />
<glyph unicode="&#x2026;" horiz-adv-x="1617" d="M103 0v228h242v-228h-242zM688 0v228h242v-228h-242zM1273 0v228h242v-228h-242z" />
<glyph unicode="&#x202f;" horiz-adv-x="501" />
<glyph unicode="&#x205f;" horiz-adv-x="626" />
<glyph unicode="&#x20ac;" horiz-adv-x="1489" d="M103 454v176h139v69q0 52 3 83h-142v177h173q56 168 158.5 279t235.5 162t300 51q270 0 417 -69l-84 -210q-137 67 -339 67q-150 0 -262 -73.5t-162 -206.5h529v-177h-579q-6 -63 -6 -83q0 -48 3 -69h526v-176h-479q43 -91 116 -154t152 -89.5t162 -26.5q51 0 95 6.5 t87.5 22t73 29t80.5 40.5l84 -207q-169 -99 -446 -99q-159 0 -294.5 55.5t-232 165t-132.5 257.5h-176z" />
<glyph unicode="&#x2122;" horiz-adv-x="1090" d="M103 1340v61h340v-61h-132v-426h-72v426h-136zM492 914v487h87l159 -373l173 373h78v-487h-61v375l-176 -375h-28l-161 375v-375h-71z" />
<glyph unicode="&#xe000;" horiz-adv-x="1058" d="M0 0v1058h1058v-1058h-1058z" />
<glyph horiz-adv-x="896" />
<glyph horiz-adv-x="1230" d="M56 1023q31 68 98 130q149 134 398 134q112 0 234 -45q62 20 102 65.5t40 116.5h242q0 -56 -18.5 -106t-48.5 -87t-67.5 -63t-76.5 -38q102 -86 156.5 -214t54.5 -259q0 -127 -31 -234t-86 -184t-130.5 -131.5t-165.5 -81t-191 -26.5h-135l-107 428q-9 24 -17 30.5 t-31 6.5h-67v215h128q29 0 51.5 -3t47.5 -12.5t44.5 -26.5t37.5 -46.5t30 -70.5l84 -306q80 0 148 60.5t108 162.5t40 219q0 92 -26 166t-65.5 119t-91 75.5t-99.5 42.5t-94 12q-188 0 -321 -128q-56 -53 -95 -128z" />
<glyph horiz-adv-x="1993" d="M61 949q53 99 125 168q170 170 402 170q88 0 171.5 -17t158 -51.5t130.5 -83.5t89 -118.5t33 -150.5v-438q0 -50 8.5 -91.5t27.5 -77t53.5 -55.5t82.5 -20h117q49 0 86.5 20t59.5 55t32.5 78t10.5 91v831h244v-818q0 -67 -13 -130.5t-43 -125t-75 -107.5t-114.5 -74 t-155.5 -28h-223q-62 0 -113.5 17t-88.5 49t-64.5 74.5t-44 95t-24.5 109.5t-8 120v370q0 46 -12.5 85t-35.5 67.5t-53.5 49.5t-68 33.5t-77 19t-82.5 6.5q-131 0 -214 -62q-39 -30 -58 -61l168 -138q-23 -20 -40 -51q-40 -76 -40 -172v-317v-7q0 -18 1 -25.5t7.5 -15 t20.5 -8.5h88v-215h-139q-217 -4 -217 226v362q0 88 24 164q10 27 26 59q-22 17 -82 69q-80 65 -80 69z" />
<glyph d="M-1117 1696q0 69 24 120t65.5 79.5t91.5 41.5t109 13h167q104 0 192 61q50 39 70 62v-210q-18 -10 -70 -27q-94 -29 -192 -29h-140q-76 0 -107 -32t-31 -79q0 -31 13.5 -57t41.5 -26q53 0 75 50q11 18 11 53h53q5 -34 16 -53q23 -50 68 -50q38 0 60.5 35.5t22.5 67.5h176 q0 -52 -17 -98t-47.5 -79t-73.5 -52.5t-93.5 -19.5t-100.5 45q-25 25 -38 45q-12 -24 -29 -45q-42 -42 -111 -42q-26 0 -50.5 6t-47.5 18t-42.5 30.5t-34 43t-23 57.5t-8.5 71z" />
<glyph d="M-593 2123v208h250q43 0 77.5 -32.5t34.5 -73.5q0 -24 16 -40t40 -16h287l-88 -205h-325q-62 0 -101 30t-39 73q0 56 -49 56h-103z" />
<glyph d="M-704 2064q0 53 22 97.5t56 71.5t72.5 41.5t74.5 14.5q42 0 81 -44l25 -42q10 23 25 42q38 44 90 44q67 0 114 -36.5t66 -96.5q7 -19 11.5 -23.5t18.5 -4.5h160l-88 -206h-138q-37 0 -64 9t-41 25.5t-20 35.5t-6 41q0 25 -5 49t-19 44.5t-34 20.5q-15 0 -25 -12 t-13.5 -30t-3.5 -41h-56q0 33 -10.5 58t-31.5 25q-23 0 -39.5 -25t-16.5 -58q0 -52 39 -103q18 -22 40 -39h-207q-18 14 -38 39q-39 51 -39 103z" />
<glyph horiz-adv-x="2129" d="M61 949q59 102 128 168q170 170 407 170q156 0 295.5 -56.5t214.5 -158.5q142 215 414 215q63 0 125 -14t118.5 -40.5t104.5 -67.5t83.5 -92.5t56 -119t20.5 -142.5v-1196q0 -61 -70 -136q-32 -33 -69 -61h-103v1364q0 64 -18.5 115.5t-48 83t-68.5 53t-77.5 30 t-77.5 8.5q-48 0 -90 -8t-72 -21t-55 -30.5t-41.5 -36t-29 -38.5t-19 -36.5t-10.5 -32t-5.5 -23.5t-1.5 -11v-1220q0 -61 -69 -136q-33 -33 -69 -61h-106v1393q0 261 -338 261q-123 0 -205 -62q-45 -34 -61 -61l166 -138q-1 0 -5.5 -4.5t-11 -14t-14.5 -22.5t-15.5 -32.5 t-14 -41t-10.5 -50t-4 -58.5v-315q0 -18 5.5 -30.5t12.5 -18.5t21 -8.5t23.5 -2.5t27.5 1t27 1v-215h-150q-207 0 -207 226v362q0 88 25 164q10 27 26 59q-16 12 -44.5 36t-40.5 33q-80 65 -80 69z" />
<glyph horiz-adv-x="2129" d="M61 949q47 96 123 168q170 170 420 170q91 0 184 -24t178.5 -74.5t136.5 -119.5q144 218 417 218q63 0 125 -14t118.5 -40.5t104.5 -67.5t83.5 -92.5t56 -119t20.5 -142.5v-1196q0 -61 -70 -136q-32 -33 -69 -61h-103v1364q0 64 -18.5 115.5t-48 83t-68.5 53t-77.5 30 t-77.5 8.5q-235 0 -302 -167q-24 -58 -22 -139v-1151q0 -61 -69 -136q-33 -33 -69 -61h-106v1393q0 44 -12 81.5t-33.5 66t-50.5 50.5t-65 35.5t-75 20.5t-81 7q-136 0 -223 -62q-44 -33 -64 -61l168 -138q-24 -25 -35 -51q-37 -71 -37 -172v-362q0 -106 -53 -166t-147 -60 h-156v215h84q11 0 17.5 7t8.5 22t2.5 26t-0.5 32t-1 27l-2 259q-3 79 24 164q14 36 29 59q-16 12 -44.5 36t-40.5 33q-80 65 -80 69z" />
</font>
</defs>
</svg>
