<?xml version="1.0" standalone="no"?>
<!DOCTYPE svg PUBLIC "-//W3C//DTD SVG 1.1//EN" "http://www.w3.org/Graphics/SVG/1.1/DTD/svg11.dtd" >
<svg xmlns="http://www.w3.org/2000/svg">
<metadata></metadata>
<defs>
<font id="thaisans_neue_extbdregular" horiz-adv-x="0" >
<font-face units-per-em="2048" ascent="1561" descent="-487" />
<missing-glyph horiz-adv-x="869" />
<glyph unicode="&#x3b;&#x3b;arm&#x3b;&#x3b;" horiz-adv-x="2822" d="M100 1676v109h432v216q-62 0 -111.5 65t-49.5 150q0 92 65.5 154.5t149.5 62.5q103 0 160 -57t57 -160q0 -50 -18 -97t-56 -80.5t-89 -37.5v-216h433v-109h-433v-324l291 -650h-109l-236 541l-235 -541h-108l289 650v324h-432zM209 0q0 32 10.5 64t32.5 60.5t59.5 46.5 t85.5 18q81 0 135 -54t54 -135q0 -103 -73 -154l60 -276l149 298h54l148 -298l95 565h135l-43 -227l29 54l176 41q0 188 29.5 300.5t87.5 161t154 48.5q52 0 89.5 -24.5t55 -66.5t17.5 -97h-54q0 44 -21 76t-60 32q-101 0 -145.5 -98t-44.5 -305l198 48l24 -99l-222 -57 v-108q0 -79 -1 -139.5t-5 -127t-10.5 -115.5t-18 -100t-27 -86.5t-38 -68t-50.5 -52t-65 -30.5t-82 -11q-84 0 -136 42t-52 120h54q0 -38 32 -60t76 -22q39 0 70.5 11t53.5 39t38 54.5t26 80t15.5 92t8 113.5t3 122t0.5 138v80l-215 -54l-93 -485h-69l-191 405l-188 -405 h-70l-87 431l48 33q-2 -2 -15 -2q-8 -3 -39 -3q-21 0 -45 5.5t-50 19.5t-46.5 34.5t-33.5 53.5t-13 73zM317 0q0 -16 5 -29.5t14.5 -24.5t25.5 -17.5t35 -6.5q81 0 81 78q0 81 -81 81q-38 0 -59 -23t-21 -58zM478 2216q0 -46 25.5 -77t83 -31t82.5 31t25 77q0 40 -16 65 t-39 34.5t-53 9.5q-46 0 -77 -25.5t-31 -83.5zM1101 702l615 1677h466l540 -1677h-432l-165 515h-727l-190 -515h-107zM1452 1352h627l-294 918zM1800 54l55 271h80l-80 -271h-55zM1876 2298l35 -105l62 105h-97zM1930 2144l22 -76l140 230h-67zM1935 54l54 271h82l-82 -271 h-54zM1971 2017l30 -98l151 255l-29 91zM2028 1839l15 -54l152 250l-16 55zM2066 1720l16 -54l151 251l-17 54zM2100 -268q0 133 42 251t117 190.5t166 72.5q143 0 220 -98.5t77 -279.5q0 -259 -92 -386t-259 -127q-54 0 -101 21.5t-86 65t-61.5 118t-22.5 172.5zM2105 1595 l18 -55l150 250l-18 57zM2141 1486l19 -64l151 252l-18 64zM2179 1362l19 -54l149 252l-15 54zM2208 -214l379 163q-3 48 -21 92q-43 94 -141 94q-117 0 -178 -176q-26 -72 -39 -173zM2208 -348q0 -44 17 -86t55.5 -73.5t90.5 -31.5q39 0 70.5 14.5t53.5 41t37 55.5t27 66 q24 78 28 176zM2216 1241l17 -44l151 247l-13 52zM2252 1135l16 -43l152 249l-16 46zM2288 1027l15 -52l155 247l-17 57zM2322 919l20 -62l150 254l-18 60zM2358 810l7 -26h36l127 214l-19 65zM2443 784h54l66 111l-19 54zM2541 784h54l-18 59z" />
<glyph unicode=" "  horiz-adv-x="869" />
<glyph unicode="&#x09;" horiz-adv-x="869" />
<glyph unicode="&#xa0;" horiz-adv-x="869" />
<glyph unicode="!" horiz-adv-x="472" d="M100 0v271h274v-271h-274zM100 400v1098h274v-1098h-274z" />
<glyph unicode="&#x22;" horiz-adv-x="851" d="M100 973v523h262v-523h-262zM490 973v523h261v-523h-261z" />
<glyph unicode="#" horiz-adv-x="1620" d="M100 392l65 238h206l47 170h-204l57 240h213l99 374h274l-101 -374h260l103 374h274l-103 -374h232l-65 -240h-232l-46 -170h235l-70 -238h-230l-106 -392h-273l106 392h-263l-105 -392h-272l104 392h-205zM643 630h263l48 170h-265z" />
<glyph unicode="$" horiz-adv-x="1174" d="M100 106v227q82 -38 140 -60q163 -59 299 -59q71 0 124 17.5t82.5 48t43.5 65.5t14 76q0 44 -20 78.5t-53.5 57.5t-78.5 44t-95.5 36.5t-104 36t-104 41.5t-95.5 54t-78.5 73t-53.5 98.5t-20 130.5q0 139 102 234t268 127v209h265v-206q102 -12 211 -57q39 -17 76 -40 v-227q-48 22 -122 43q-164 46 -305 46q-45 0 -95.5 -16t-88 -46.5t-37.5 -64.5q0 -37 24 -67t64.5 -51t93 -40.5t111 -41t116.5 -46.5t110.5 -61.5t93.5 -82t65 -113t24 -149.5q0 -58 -10.5 -111t-36 -105t-63.5 -93.5t-98 -73t-135 -46.5v-216h-266v203q-142 0 -264 62 q-53 26 -103 65z" />
<glyph unicode="%" horiz-adv-x="1659" d="M100 1171q0 126 38 225.5t111 157.5t169 58q94 0 165 -54.5t107.5 -148.5t36.5 -214q0 -127 -37.5 -226.5t-111.5 -158.5t-173 -59q-96 0 -166 56t-104.5 149.5t-34.5 214.5zM243 0l971 1720h297l-970 -1720h-298zM368 1176q0 -41 1.5 -71.5t5 -50t7.5 -31.5t10 -18 t11 -8t13 -2q5 0 10 1.5t10 6.5t9 12.5t8 21.5t6.5 33t4 46.5t1.5 62.5q0 75 -6.5 117.5t-16.5 57t-26 14.5t-25 -7t-14.5 -30t-7 -57t-1.5 -98zM933 371q0 129 37 229.5t111 160t176 59.5q91 0 160.5 -54.5t106 -151t36.5 -219.5q0 -121 -41.5 -220t-114.5 -155t-161 -56 q-143 0 -226.5 113t-83.5 294zM1197 381q0 -178 49 -178q52 0 52 178q0 197 -52 197q-49 0 -49 -197z" />
<glyph unicode="&#x26;" horiz-adv-x="1607" d="M100 387q0 144 75.5 241.5t229.5 171.5q-73 45 -121.5 120.5t-48.5 171.5t53.5 176t149.5 126.5t214 46.5q84 0 159 -27t126.5 -71.5t81.5 -103t30 -120.5q0 -48 -11.5 -88.5t-29 -70.5t-51 -61.5t-63.5 -53.5t-81 -56q129 -94 169.5 -130.5t103.5 -117.5q44 80 69 151 t34 127t14 133l2 88h279q-7 -111 -34.5 -233t-80.5 -251t-123 -226q39 -47 99.5 -67t163.5 -20v-243q-144 0 -258.5 34.5t-174.5 102.5q-106 -84 -220 -122.5t-261 -38.5q-107 0 -196 24.5t-156.5 73t-105 128.5t-37.5 185zM374 387q0 -44 14.5 -76t36 -50t53.5 -28.5 t59.5 -13.5t60.5 -3q57 0 99.5 6.5t81 23t66.5 33.5t71 48q-7 10 -30.5 43.5t-30 42t-27 36t-28.5 36.5t-27.5 31t-32 32t-33.5 27.5t-40 29t-43 25.5t-51 27q-6 -3 -27 -15t-28.5 -16.5t-26.5 -16.5t-27.5 -19.5t-23.5 -21.5t-22.5 -26t-17.5 -30t-14.5 -36t-8 -41 t-3.5 -48zM508 1092q0 -34 8 -62t24 -49t29.5 -34t33.5 -28q89 38 131 86.5t42 95.5q0 41 -36.5 66t-87.5 25q-69 0 -106.5 -32t-37.5 -68z" />
<glyph unicode="'" horiz-adv-x="472" d="M100 973v523h274v-523h-274z" />
<glyph unicode="(" horiz-adv-x="723" d="M59 549q0 187 44 362t121 321t187 274h295q-110 -137 -194 -287.5t-137 -326.5t-53 -340q0 -136 29.5 -266.5t84.5 -247t120 -215.5t150 -202h-293q-180 216 -267 438t-87 490z" />
<glyph unicode=")" horiz-adv-x="723" d="M18 -379q385 464 385 928q0 483 -382 957h291q167 -196 260 -438t93 -519q0 -275 -94.5 -507.5t-262.5 -420.5h-290z" />
<glyph unicode="*" horiz-adv-x="780" d="M100 1084l219 113l-219 114l89 121l154 -145l-29 214h151l-32 -217l160 148l88 -121l-222 -114l222 -113l-88 -122l-160 149l32 -216h-151l29 214l-154 -147z" />
<glyph unicode="+" horiz-adv-x="1120" d="M100 478v241h338v352h246v-352h338v-241h-338v-316h-246v316h-338z" />
<glyph unicode="," horiz-adv-x="475" d="M-137 -294q65 33 119 83q118 108 118 255v207h276v-207q0 -152 -113 -260q-52 -52 -114 -78h-286z" />
<glyph unicode="-" horiz-adv-x="836" d="M100 513v225h638v-225h-638z" />
<glyph unicode="." horiz-adv-x="472" d="M100 0v251h274v-251h-274z" />
<glyph unicode="/" horiz-adv-x="766" d="M18 0l464 1716h266l-464 -1716h-266z" />
<glyph unicode="0" horiz-adv-x="1228" d="M59 678q0 232 68.5 405.5t194 267t292.5 93.5q120 0 222 -50t176.5 -142.5t116.5 -232t42 -310.5q0 -167 -44.5 -305.5t-122 -231.5t-184.5 -144.5t-231 -51.5q-244 0 -387 186.5t-143 515.5zM333 686q0 -107 16 -190.5t41.5 -135t61.5 -85t73 -46.5t78 -13q42 0 81.5 14 t78.5 48.5t67.5 87t46.5 137t18 191.5q0 111 -17 199t-45 144t-66.5 93t-79 52t-84.5 15q-41 0 -78 -15t-73 -52.5t-62 -94.5t-41.5 -146.5t-15.5 -202.5z" />
<glyph unicode="1" horiz-adv-x="728" d="M59 944v240q120 44 233 137q58 50 97 93h241v-1414h-274v1052q-46 -31 -128 -60.5t-169 -47.5z" />
<glyph unicode="2" horiz-adv-x="1026" d="M59 0v189q0 53 21.5 106.5t57.5 100.5t82.5 94t98 91t103 87.5t98.5 88t83 87.5t57 90t21 93q0 34 -7.5 61t-21 45.5t-30.5 31t-38 19.5t-41 10t-43 3q-90 0 -200 -37t-186 -97v232q61 63 163.5 106t222.5 43q103 0 188.5 -30.5t143.5 -84t90 -127t32 -158.5 q0 -86 -26.5 -162t-71 -134.5t-99 -110.5t-114.5 -99.5t-113.5 -91.5t-100 -97t-70.5 -106h649v-243h-949z" />
<glyph unicode="3" horiz-adv-x="1053" d="M100 73v249q62 -52 157.5 -79t191.5 -27q30 0 63.5 5t72 17.5t68 31t49.5 50.5t20 72q0 81 -47.5 127t-152 66.5t-287.5 20.5v240q116 -4 216 13q46 9 81 21t67.5 32t50.5 51t18 72t-11 71.5t-28 47.5t-41 27t-45.5 13t-47.5 3q-213 0 -341 -91v232q70 45 160 75.5 t181 30.5q61 0 123.5 -15.5t120.5 -47t103 -74.5t72 -102.5t27 -126.5q0 -77 -27.5 -139t-76 -102t-108 -64t-128.5 -32q57 -7 110.5 -22t106 -42t91 -63.5t62.5 -90.5t24 -118q0 -92 -36.5 -170.5t-104.5 -136t-172 -90t-233 -32.5q-87 0 -187.5 30t-161.5 67z" />
<glyph unicode="4" horiz-adv-x="1083" d="M18 317v207l637 890h245v-852h165v-245h-165l-2 -317h-271v317h-609zM356 562h271v387z" />
<glyph unicode="5" horiz-adv-x="999" d="M100 46v268q60 -36 91 -49q112 -49 193 -49q50 0 88.5 5t76.5 18.5t63 36.5t40.5 61.5t15.5 90.5q0 44 -14 85t-43 76t-80 55.5t-118 20.5q-84 0 -219 -25q-14 -3 -45.5 -10t-48.5 -11v795h749v-243h-475v-276h72q77 0 148 -17t134.5 -53t110.5 -88.5t74.5 -129.5 t27.5 -169q0 -102 -34.5 -186t-102.5 -146t-175 -96t-245 -34q-153 0 -284 70z" />
<glyph unicode="6" horiz-adv-x="1094" d="M59 614q0 166 30.5 303t84 233.5t129 163.5t165 98.5t192.5 31.5q31 0 72.5 -3.5t83 -9.5t80 -15t61.5 -18v-247l-98 25q-127 24 -199 21q-139 -5 -217 -93.5t-97 -236.5q99 64 247 64q83 0 163 -36.5t142 -98t99.5 -150t37.5 -187.5q0 -104 -38 -194.5t-103.5 -153.5 t-154.5 -99t-190 -36t-189.5 42.5t-155.5 121.5t-106 201.5t-39 272.5zM346 465q0 -59 14 -104t35.5 -71.5t50 -44t53.5 -23.5t50 -6q34 0 71 15.5t70 44t54.5 77t21.5 106.5q0 54 -13.5 95.5t-34.5 66.5t-50.5 40.5t-58 21.5t-60.5 6q-53 0 -94 -21.5t-64 -55.5t-34 -71.5 t-11 -75.5z" />
<glyph unicode="7" horiz-adv-x="1016" d="M18 1171v243l980 -3v-80l-495 -1331h-281l446 1171h-650z" />
<glyph unicode="8" horiz-adv-x="1066" d="M59 395q0 120 44.5 205t144.5 159q-134 117 -134 296q0 72 30 141.5t83 124.5t133 89t172 34q86 0 165.5 -35.5t135 -91.5t88.5 -125.5t33 -136.5q0 -47 -8.5 -87t-27.5 -76t-41.5 -66.5t-56.5 -66.5q88 -58 138 -155t50 -209q0 -188 -125 -303.5t-342 -115.5 q-118 0 -210.5 31t-151.5 86.5t-89.5 132t-30.5 169.5zM333 428q0 -59 17.5 -102.5t47.5 -66t63 -33t71 -10.5q30 0 57 5.5t54.5 20t47 37t32 59t12.5 83.5q0 101 -57 159t-146 58q-35 0 -68 -11t-63.5 -34t-49 -65.5t-18.5 -99.5zM387 1038q0 -81 41.5 -118.5t103.5 -37.5 q22 0 46.5 8.5t49 25.5t40.5 48.5t16 73.5q0 21 -8.5 46.5t-25 52t-47.5 43.5t-71 17q-36 0 -63.5 -12.5t-42.5 -30.5t-24.5 -41.5t-12 -41.5t-2.5 -33z" />
<glyph unicode="9" horiz-adv-x="1091" d="M59 957q0 108 40.5 201t108 154.5t155 96.5t181.5 35q148 0 260 -86t170 -235t58 -339q0 -263 -74 -444t-215 -272.5t-343 -91.5q-62 0 -138 12.5t-125 29.5v242q22 -8 77 -22q92 -22 183 -22q40 0 74.5 6t78.5 26.5t78.5 54.5t66.5 96.5t51 146.5q-96 -62 -248 -62 q-69 0 -135.5 25.5t-120.5 70.5t-95.5 103.5t-64.5 129.5t-23 144zM330 957q0 -49 10 -88t33.5 -73t66.5 -52.5t104 -18.5q48 0 86 18t59.5 43.5t35.5 56.5t18.5 54t4.5 39q0 35 -5.5 69t-20 69.5t-36.5 62t-59 43.5t-83 17q-51 0 -93.5 -23.5t-68 -60t-39 -77.5t-13.5 -79z " />
<glyph unicode=":" horiz-adv-x="472" d="M100 0v268h274v-268h-274zM100 768v270h274v-270h-274z" />
<glyph unicode=";" horiz-adv-x="475" d="M-137 -294q65 43 119 96q118 119 118 242v219h276v-219q0 -121 -113 -245q-38 -41 -114 -93h-286zM103 766v269h273v-269h-273z" />
<glyph unicode="&#x3c;" horiz-adv-x="1086" d="M59 421v136l1009 557v-276l-619 -343l619 -297v-265z" />
<glyph unicode="=" horiz-adv-x="1120" d="M100 284v235h922v-235h-922zM100 649v238h922v-238h-922z" />
<glyph unicode="&#x3e;" horiz-adv-x="1086" d="M18 -67v265l617 297l-617 343v276l1009 -557v-136z" />
<glyph unicode="?" horiz-adv-x="959" d="M100 1068v227q35 43 81 73q106 76 273 76q106 0 199 -45t149.5 -125.5t56.5 -176.5q0 -58 -17.5 -108t-46 -86t-63 -67.5t-69 -58t-63 -51.5t-46.5 -54.5t-18 -60.5v-211h-273v227q0 43 17.5 82.5t46 71t63 61t69 57.5t63 55.5t46.5 60t18 66.5q0 114 -158 114 q-125 0 -237 -65q-9 -5 -18.5 -11.5t-19 -12.5t-17.5 -12l-18 -13.5t-18 -12.5zM263 0v271h273v-271h-273z" />
<glyph unicode="@" horiz-adv-x="1767" d="M100 549q0 104 30.5 204t84 183.5t129 154t164.5 119.5t192.5 76t210.5 27q155 0 294.5 -50.5t241.5 -137t161.5 -209.5t59.5 -261q0 -105 -34.5 -203t-89.5 -168t-126.5 -112.5t-143.5 -42.5q-52 0 -92 10t-66.5 29.5t-43.5 41t-32 50.5q-16 -25 -34.5 -45t-48.5 -41 t-75.5 -33t-102.5 -12q-76 0 -144 29t-119 81.5t-81 130.5t-30 171q0 82 25.5 154t68.5 124t98.5 89.5t116.5 56t122 18.5q72 0 145.5 -40.5t96.5 -88.5l23 108h215l-83 -443q-5 -73 -3 -101q5 -96 62 -96q48 0 90 33.5t68 84.5t41 108t15 107q0 64 -24 134.5t-74.5 140 t-119.5 125t-167.5 90t-209.5 34.5q-114 0 -218 -39.5t-180.5 -104.5t-134 -147t-86.5 -169.5t-29 -169.5q0 -86 25.5 -170.5t78 -159t125 -131.5t173.5 -90.5t217 -33.5q192 0 389 80v-142q-215 -72 -389 -72q-160 0 -303.5 54.5t-249 148.5t-167.5 228.5t-62 287.5z M678 541q0 -41 10 -73t23.5 -49.5t31 -28t30.5 -13.5t24 -3q41 0 73 17t50 43t29 61.5t15 66t4 62.5q0 139 -92 147q-51 0 -91 -21.5t-62 -56t-33.5 -73.5t-11.5 -79z" />
<glyph unicode="A" horiz-adv-x="1329" d="M18 0l526 1414h240l527 -1414h-281l-130 346h-479l-132 -346h-271zM508 586h305l-150 436z" />
<glyph unicode="B" horiz-adv-x="1148" d="M100 0v1414h429q198 0 318.5 -101t120.5 -256q0 -69 -26.5 -125.5t-70 -92.5t-96 -56.5t-107.5 -23.5q53 -3 103.5 -14.5t102 -37.5t89.5 -63t62 -94.5t24 -128.5q0 -81 -29 -150.5t-79 -118.5t-117 -84t-142.5 -51.5t-154.5 -16.5h-427zM374 243h137q79 0 139.5 22.5 t93 63t32.5 92.5q0 43 -14.5 78t-46 64t-88 45t-135.5 16h-118v-381zM374 867h91q109 0 169 41.5t60 121.5q0 30 -9.5 54t-27 38.5t-37 25t-44 15t-43.5 6.5t-41 2h-118v-304z" />
<glyph unicode="C" horiz-adv-x="1231" d="M59 692q0 166 55 307.5t149.5 238.5t224.5 151.5t278 54.5q141 0 258 -23.5t190 -58.5l-95 -235q-143 70 -353 70q-71 0 -131.5 -19.5t-103.5 -52.5t-77.5 -77t-56 -90.5t-36 -96t-20.5 -91.5t-6 -78q0 -214 118 -345t313 -131q65 0 129.5 15t112.5 34.5t109 51.5 l95 -234q-82 -48 -207 -77.5t-259 -29.5q-150 0 -278 54.5t-217.5 149.5t-140.5 227t-51 285z" />
<glyph unicode="D" horiz-adv-x="1351" d="M100 0v1414h413q142 0 259.5 -24.5t214.5 -77.5t164 -133t104 -196.5t37 -263.5q0 -134 -41 -249.5t-114 -201t-172.5 -146.5t-218 -91.5t-248.5 -30.5h-398zM374 243h124q100 0 185 24.5t146.5 68t104.5 103.5t64 131t21 149q0 452 -503 452h-142v-928z" />
<glyph unicode="E" horiz-adv-x="1013" d="M100 0v1414h813v-243h-539v-341h485v-247h-485v-340h539v-243h-813z" />
<glyph unicode="F" horiz-adv-x="931" d="M100 0v1414h813v-243h-539v-341h485v-247h-485v-583h-274z" />
<glyph unicode="G" horiz-adv-x="1378" d="M59 678q0 157 57 297.5t156 244t242.5 164t307.5 60.5q197 0 326 -54q58 -22 103 -54v-271q-57 50 -181 91t-278 41q-79 0 -147.5 -23.5t-117.5 -64.5t-87 -93t-61 -110.5t-34.5 -116t-11.5 -111.5q0 -65 14.5 -128.5t47.5 -124.5t81 -107t121 -74t162 -28q97 0 137.5 6 t109.5 33v277h-297v244h570v-686q-98 -56 -242 -85t-283 -29q-142 0 -268.5 50t-221 139.5t-150 222.5t-55.5 290z" />
<glyph unicode="H" horiz-adv-x="1310" d="M100 0v1414h274v-560h565l-3 560h276v-1414h-273v611h-565l-3 -611h-271z" />
<glyph unicode="I" horiz-adv-x="472" d="M100 0v1414h274v-1414h-274z" />
<glyph unicode="J" horiz-adv-x="810" d="M18 44l96 207q17 -9 51 -19q61 -16 111 -16q82 0 122 67.5t40 224.5v906h273v-906q0 -115 -25.5 -207.5t-68.5 -152.5t-102 -100t-123 -57t-135 -17q-89 0 -170 34q-35 12 -69 36z" />
<glyph unicode="K" horiz-adv-x="1191" d="M100 0v1414h274v-560l454 560h332l-412 -514l425 -900h-289l-319 678l-191 -232v-446h-274z" />
<glyph unicode="L" horiz-adv-x="931" d="M100 0v1414h274v-1171h539v-243h-813z" />
<glyph unicode="M" horiz-adv-x="1689" d="M100 0v1414h308l425 -984l449 984h307v-1414h-273v882l-408 -882h-154l-380 865v-865h-274z" />
<glyph unicode="N" horiz-adv-x="1391" d="M100 0v1414h287l629 -965v965h276v-1414h-289l-629 954v-954h-274z" />
<glyph unicode="O" horiz-adv-x="1499" d="M59 686q0 164 48 303.5t135.5 240t218.5 157.5t290 57q155 0 285 -56.5t218.5 -154t137.5 -231t49 -285.5q0 -165 -48.5 -302t-139 -234t-224.5 -151t-299 -54q-152 0 -278.5 53.5t-212 148t-133 225t-47.5 283.5zM333 686q0 -95 21.5 -174t59 -133t88.5 -91t108.5 -54.5 t119.5 -17.5q71 0 134.5 17.5t120 56.5t96.5 96.5t63.5 142t23.5 188.5q0 94 -22.5 174t-62 135.5t-92 94.5t-112 57.5t-123.5 18.5q-88 0 -163 -30.5t-134 -91t-92.5 -160.5t-33.5 -229z" />
<glyph unicode="P" horiz-adv-x="1081" d="M100 0v1414h411q86 0 161 -16.5t140 -52t111 -87.5t72.5 -127.5t26.5 -168.5q0 -72 -15 -135t-42 -112t-65.5 -88.5t-85 -67t-102 -46t-115 -27t-124.5 -8.5h-99l-3 -478h-271zM374 722h99q75 0 130 18t86 51.5t45 75t14 93.5q0 33 -2.5 57t-10.5 50t-24.5 43t-42 32 t-65 22t-92.5 7h-137v-449z" />
<glyph unicode="Q" horiz-adv-x="1499" d="M59 686q0 131 31.5 247.5t91 209t141 160.5t186.5 104.5t224 36.5q162 0 296.5 -56.5t224 -154.5t138.5 -230.5t49 -285.5q0 -228 -91.5 -398t-243.5 -254q38 -16 71.5 -36t68 -50.5t55 -73t20.5 -91.5h-258q0 36 -15 66.5t-39.5 52t-49.5 35.5t-53 24q-69 -16 -200 -16 q-139 0 -259.5 53.5t-205.5 147.5t-133.5 226t-48.5 283zM333 686q0 -95 20.5 -173.5t57.5 -133t87.5 -92.5t109.5 -55.5t125 -17.5q69 0 132 17.5t119 57t96.5 97t64 142.5t23.5 189q0 95 -22.5 174t-62.5 135t-94.5 95t-119 57.5t-136.5 18.5q-50 0 -97.5 -13.5t-92.5 -40 t-83 -69.5t-66.5 -98t-44.5 -129.5t-16 -160.5z" />
<glyph unicode="R" horiz-adv-x="1234" d="M100 0v1414h449q72 0 140 -15.5t129 -48.5t107 -80t72.5 -115t26.5 -149q0 -46 -14 -88t-38.5 -75t-55.5 -60.5t-65.5 -46t-68.5 -29.5t-65 -13q30 -11 62 -39t68.5 -76.5t64.5 -90.5t71 -112l234 -376h-317l-194 330q-38 65 -78 112t-74.5 71t-61.5 34t-51 10h-67 l-3 -557h-271zM374 803h142q58 0 101.5 13.5t72.5 39.5t43.5 63.5t14.5 86.5q0 73 -54.5 116.5t-177.5 45.5l-142 3v-368z" />
<glyph unicode="S" horiz-adv-x="1174" d="M100 108v230q48 -32 119 -62q142 -60 276 -60q55 0 98.5 5.5t84 19t67 36t42.5 59t16 85.5q0 45 -20 80.5t-53.5 59t-78.5 44.5t-95.5 36t-104 35t-104 40.5t-95.5 53t-78.5 72t-53.5 98.5t-20 131q0 102 66 187.5t177.5 134t242.5 48.5q178 0 335 -51q68 -26 101 -52 v-241q-58 30 -124 49q-169 51 -312 51q-92 0 -151 -37t-59 -89q0 -36 19.5 -64.5t53.5 -48t78.5 -38t95 -33.5t103.5 -36t103.5 -44t95 -59t78.5 -79.5t53.5 -107t19.5 -140.5q0 -63 -13 -119t-39.5 -106.5t-69.5 -90t-100 -69t-134.5 -45t-170.5 -15.5q-185 0 -333 65 q-51 20 -116 67z" />
<glyph unicode="T" horiz-adv-x="1053" d="M18 1171v243h1017v-243h-364v-1171h-274v1171h-379z" />
<glyph unicode="U" horiz-adv-x="1310" d="M100 546v868h274v-857q0 -99 18 -167t54.5 -105t83 -53t110.5 -16q46 0 85.5 8t80 30.5t69 57.5t46.5 94t18 135v873h273v-849q0 -153 -42 -267t-119 -184t-180.5 -104t-232.5 -34q-123 0 -220.5 34t-169 102.5t-110 178.5t-38.5 255z" />
<glyph unicode="V" horiz-adv-x="1329" d="M18 1414h279l366 -1011l367 1011h281l-527 -1414h-240z" />
<glyph unicode="W" horiz-adv-x="1888" d="M18 1414h279l271 -973l294 973h193l243 -965l294 965h278l-440 -1414h-276l-202 874l-250 -874h-274z" />
<glyph unicode="X" horiz-adv-x="1297" d="M18 0l469 706l-438 708h319l281 -468l305 468h325l-471 -708l471 -706h-325l-309 473l-304 -473h-323z" />
<glyph unicode="Y" horiz-adv-x="1215" d="M18 1414h284l293 -601l313 601h289l-467 -895v-519h-276v519z" />
<glyph unicode="Z" horiz-adv-x="1148" d="M18 0v111l709 1060h-654v243h1057v-111l-712 -1060h686v-243h-1086z" />
<glyph unicode="[" horiz-adv-x="640" d="M100 -379v1890h522v-242h-266v-1406h266v-242h-522z" />
<glyph unicode="\" horiz-adv-x="766" d="M18 1716h266l464 -1716h-266z" />
<glyph unicode="]" horiz-adv-x="640" d="M18 -137h266v1406h-266v242h523v-1890h-523v242z" />
<glyph unicode="^" horiz-adv-x="1404" d="M100 521l503 988h138l564 -988h-278l-351 604l-300 -604h-276z" />
<glyph unicode="_" horiz-adv-x="1120" d="M100 90h922v-222h-922v222z" />
<glyph unicode="`" horiz-adv-x="797" d="M100 1581h305l292 -392h-269z" />
<glyph unicode="a" horiz-adv-x="1073" d="M100 849q31 64 89 113q132 116 335 116q92 0 172.5 -27t142.5 -77.5t98 -130t36 -178.5v-665h-259v152q-23 -27 -35 -40.5t-43.5 -42t-57 -44t-63.5 -28.5t-77 -13q-94 0 -171 41t-121 115q-40 68 -40 150v15q1 49 14.5 89.5t34 68.5t49.5 50t59 35t65 21t65 11t61 3 q124 0 201 20q48 16 56 21q0 47 -7.5 84t-22 61t-32 40.5t-41 24.5t-45 11.5t-47.5 3.5q-145 0 -253 -78q-58 -39 -90 -79zM364 305q0 -32 12 -54t34 -32t44.5 -14t51.5 -4q57 0 117 26t91 70v136q-51 -13 -65 -15q-54 -10 -146 -10q-29 0 -60 -12t-55 -36.5t-24 -54.5z" />
<glyph unicode="b" horiz-adv-x="1202" d="M100 0v1498h259v-616q16 44 59 99q88 103 222 103q42 0 87.5 -10t94.5 -31.5t95 -52t87.5 -75.5t72 -97.5t48.5 -122t18 -146.5q0 -117 -33 -214.5t-86 -160.5t-122 -106.5t-138 -62t-137 -18.5q-142 0 -216 94q-37 46 -52 97v-178h-259zM359 330q31 -31 74 -57 q86 -57 181 -57q53 0 100 19t86 57t61.5 103.5t22.5 150.5q0 55 -14.5 103.5t-40.5 85t-60.5 63t-74 40t-80.5 13.5q-92 0 -178 -56q-36 -25 -77 -57v-408z" />
<glyph unicode="c" horiz-adv-x="945" d="M59 503q0 125 44 234t117.5 183t171.5 116t206 42q95 0 230 -51q34 -13 99 -49l-102 -230q-29 26 -71 49q-95 52 -156 52q-66 0 -120.5 -31t-88 -81.5t-52 -111t-18.5 -122.5q0 -126 75.5 -207.5t208.5 -81.5q69 0 153 49q27 15 69 51l102 -231q-62 -32 -107 -47 q-133 -49 -225 -49q-85 0 -163.5 20.5t-146.5 62.5t-118 102.5t-79 145.5t-29 185z" />
<glyph unicode="d" horiz-adv-x="1202" d="M59 549q0 97 31 183.5t81 148t112.5 107.5t126 68t119.5 22q139 0 239 -100q53 -52 75 -96v616h261v-1498h-261v178q-30 -58 -72 -95q-94 -94 -232 -94q-66 0 -133 22.5t-129.5 69.5t-111 111.5t-77.5 157.5t-29 199zM319 546q0 -142 70 -236t173 -94q125 0 212 57 q42 26 69 57v408q-25 26 -69 57q-87 56 -212 56q-50 0 -95.5 -25.5t-77.5 -67.5t-51 -97.5t-19 -114.5z" />
<glyph unicode="e" horiz-adv-x="1061" d="M59 513q0 110 36 212t98 180.5t154.5 125.5t198.5 47q111 0 197 -37.5t141 -107t84.5 -163.5t32.5 -210l2 -124h-678q0 -92 73 -157t197 -65q115 0 205 49q34 19 62 51l92 -198q-50 -39 -103 -65q-126 -62 -281 -62q-113 0 -206 33t-161.5 96.5t-106 164t-37.5 230.5z M335 665h398q0 28 -13 59.5t-35.5 59.5t-59 46.5t-79 18.5t-81.5 -19t-66 -47t-44 -59.5t-20 -58.5z" />
<glyph unicode="f" horiz-adv-x="743" d="M18 810v234h173l3 91q3 68 13 122.5t34 105.5t60.5 85.5t95 55.5t135.5 21q67 0 144 -19q9 -4 49 -20v-243q-20 14 -49 28q-61 27 -90 27q-18 0 -32.5 -2.5t-34.5 -12t-34 -25.5t-24 -48t-10 -75v-91h274v-234h-271l-3 -810h-257v810h-176z" />
<glyph unicode="g" horiz-adv-x="1202" d="M59 513q0 90 22 170t59 141t86 110t104 80t112.5 47.5t111.5 16.5q135 0 225 -100q44 -51 64 -96l-2 183h263v-992q0 -282 -147 -414t-444 -132q-140 0 -267 68q-47 21 -106 67l95 211q27 -31 70 -56q86 -57 208 -57q54 0 97 5.5t88.5 24t75.5 48.5t49.5 83t19.5 125v132 q-15 -41 -59 -97q-81 -97 -222 -97q-69 0 -140 22.5t-136 68t-115.5 107.5t-81 148t-30.5 183zM319 513q0 -67 29.5 -136t85 -117.5t120.5 -48.5q121 0 217 57q42 22 72 57v408q-33 34 -72 54q-96 56 -217 56q-101 0 -168 -95t-67 -235z" />
<glyph unicode="h" horiz-adv-x="1120" d="M100 0v1498h259v-644q26 58 69 111q92 113 204 113q95 0 170.5 -33t122.5 -89.5t72 -128.5t25 -154v-673h-259v681q0 67 -52.5 112t-150.5 45q-83 0 -147 -54q-38 -32 -54 -51v-733h-259z" />
<glyph unicode="i" horiz-adv-x="459" d="M100 0v1065h259v-1065h-259zM100 1208v255h259v-255h-259z" />
<glyph unicode="j" horiz-adv-x="459" d="M-286 -387l92 209q12 -13 42 -31q38 -29 79 -29q29 0 52 6.5t46.5 24t39.5 46t25.5 76.5t9.5 111v1039h259v-1006q0 -118 -27 -214t-80.5 -167t-137.5 -109.5t-192 -38.5q-85 0 -152 40q-35 25 -56 43zM100 1205v258h259v-258h-259z" />
<glyph unicode="k" horiz-adv-x="1040" d="M100 0v1498h259v-863l347 422h305l-317 -386l317 -671h-263l-219 470l-170 -213v-257h-259z" />
<glyph unicode="l" horiz-adv-x="459" d="M100 0v1498h259v-1498h-259z" />
<glyph unicode="m" horiz-adv-x="1783" d="M100 0v1065h259v-211q0 4 10 26t33.5 56t55.5 65.5t83 54t108 22.5q44 0 84.5 -9.5t73 -27t60.5 -39.5t50.5 -49.5t39.5 -54t30 -55.5q2 4 13 22t20.5 32.5t27 38t34 41t41 38t49.5 33.5t57 21.5t66 8.5q76 0 140 -22.5t109.5 -61t77.5 -90.5t47 -110.5t15 -120.5v-673 h-260v681q0 26 -10.5 52t-31.5 49.5t-59.5 38.5t-86.5 15q-58 0 -147 -52q-36 -24 -67 -51v-733h-259v681q0 33 -12.5 60.5t-37.5 48t-64 32t-89 11.5q-24 0 -51.5 -9.5t-43 -17.5t-44.5 -25q-35 -22 -62 -48v-733h-259z" />
<glyph unicode="n" horiz-adv-x="1120" d="M100 0v1065h259v-211q30 66 71 111q47 52 100 82.5t125 30.5q87 0 158 -34.5t116 -92t69 -129t24 -149.5v-673h-259l-4 681q0 25 -11.5 51.5t-32.5 50t-56.5 38.5t-77.5 15q-67 0 -156 -52q-44 -29 -66 -51v-733h-259z" />
<glyph unicode="o" horiz-adv-x="1172" d="M59 516q0 122 36.5 225t103.5 178t168 117t226 42q96 0 179.5 -27t145.5 -76t106.5 -116t67 -148.5t22.5 -171.5q0 -164 -64.5 -289t-188 -195.5t-288.5 -70.5q-154 0 -271.5 69.5t-180 190t-62.5 272.5zM319 516q0 -36 6 -71t18.5 -69.5t33 -63.5t47.5 -51t65.5 -34.5 t83.5 -12.5q75 0 130.5 25.5t87.5 71.5t47.5 102.5t15.5 125.5q0 47 -9 91t-29.5 84.5t-50.5 70t-74 47t-98 17.5q-60 0 -107.5 -19.5t-78 -51.5t-51 -76t-29 -90t-8.5 -96z" />
<glyph unicode="p" horiz-adv-x="1202" d="M100 -430v1495h259v-183q19 35 71 96q90 100 189 100q51 0 101 -9t96.5 -27t88.5 -45.5t78.5 -62.5t66 -80t50.5 -97t32 -114t11 -130q0 -96 -32 -183t-83.5 -148.5t-115 -107t-128.5 -68t-121 -22.5q-136 0 -233 97q-43 42 -71 97v-608h-259zM359 325q33 -33 77 -60 q96 -56 202 -56q17 0 40 7t51 21t55 39t49 57t35.5 79t13.5 101q0 82 -20 144.5t-49 97t-67.5 56.5t-70 28.5t-61.5 6.5q-92 0 -178 -57q-36 -25 -77 -56v-408z" />
<glyph unicode="q" horiz-adv-x="1202" d="M59 513q0 107 27 200t72.5 159t105 113.5t124.5 70t131 22.5q138 0 244 -100q51 -47 80 -96v183h261v-1495h-261v608q-21 -47 -64 -97q-87 -97 -225 -97q-66 0 -135 22.5t-133.5 68t-115 107.5t-81 148t-30.5 183zM319 513q0 -54 13 -101t35 -79t48 -57t54 -39t52.5 -21 t43.5 -7q104 0 201 56q35 22 77 60v408q-45 35 -80 56q-96 57 -185 57q-24 0 -53 -6.5t-67 -28.5t-67.5 -56.5t-50.5 -97t-21 -144.5z" />
<glyph unicode="r" horiz-adv-x="720" d="M100 0v1065h259v-294q18 78 57 153q84 154 190 154q28 0 65 -15q21 -11 31 -14v-260l-39 16q-52 17 -80 17q-66 0 -153 -103q-49 -62 -71 -103v-616h-259z" />
<glyph unicode="s" horiz-adv-x="959" d="M100 62v227q47 -28 91 -46q114 -42 214 -42q196 0 196 113q0 18 -6 33.5t-14 27t-24.5 23t-29 18.5t-37.5 17t-39.5 15t-43.5 14q-32 11 -48.5 16.5t-46.5 17.5t-47.5 21t-43 25t-40 31t-32.5 37t-27 45.5t-15.5 53.5t-6.5 65q0 60 25 112.5t64.5 88.5t89.5 62.5t101 39 t98 12.5q138 0 249 -49q48 -19 78 -45v-221q-50 25 -94 42q-135 46 -233 46q-51 0 -85 -29t-34 -59q0 -21 14 -36.5t38 -26t56 -21t68 -20t74 -24.5t74 -32t68 -45t56 -62t38 -83.5t14 -109.5q0 -152 -114.5 -245t-319.5 -93q-100 0 -224 42q-58 22 -101 44z" />
<glyph unicode="t" horiz-adv-x="743" d="M18 810v234h176l-3 454h263v-454h271v-234h-271v-439q0 -32 4.5 -57t11 -41t17.5 -27.5t20 -17t22.5 -8.5t21 -3.5t19.5 -0.5q45 0 106 22q24 10 49 25v-245q-16 -7 -44 -15q-55 -14 -137 -14q-87 0 -155 30t-110.5 82t-65 120t-22.5 147v442h-173z" />
<glyph unicode="u" horiz-adv-x="1120" d="M100 387v678h259v-654q0 -48 16.5 -83t44.5 -54t57.5 -27.5t61.5 -8.5q86 0 155 51q29 19 69 54v722h259v-1054h-259v195q-20 -58 -52 -103q-81 -103 -211 -103q-95 0 -172.5 32t-126.5 86.5t-75 123t-26 145.5z" />
<glyph unicode="v" horiz-adv-x="1086" d="M18 1065h294l245 -676l246 676h265l-376 -1065h-267z" />
<glyph unicode="w" horiz-adv-x="1548" d="M18 1065h290l165 -644l211 644h192l187 -644l186 644h281l-333 -1065h-245l-176 619l-200 -619h-259z" />
<glyph unicode="x" horiz-adv-x="1056" d="M18 0l361 529l-361 536h296l213 -317l214 317h294l-359 -549l362 -516h-295l-216 302l-213 -302h-296z" />
<glyph unicode="y" horiz-adv-x="1151" d="M21 1065h281l299 -670l248 670h284l-484 -1222q-30 -79 -63 -133.5t-77 -96.5t-102.5 -62.5t-133.5 -20.5q-101 0 -183 37q-33 14 -64 41l90 206q20 -13 49 -28q61 -26 92 -26q57 0 90.5 35t65.5 118l49 133z" />
<glyph unicode="z" horiz-adv-x="1007" d="M100 0v114l503 722h-451v229h838v-124l-500 -714h491v-227h-881z" />
<glyph unicode="{" horiz-adv-x="675" d="M59 411v219q45 3 73.5 10.5t52 26t34.5 51.5t11 85v316q0 69 11.5 124t41.5 104.5t77.5 83.5t122.5 55.5t174 24.5v-237q-18 0 -37.5 -3.5t-43 -14.5t-41.5 -27.5t-30.5 -46.5t-12.5 -68v-325q0 -103 -63.5 -176.5t-163.5 -101.5q97 -25 162 -98t65 -181v-310 q0 -31 7.5 -55.5t17.5 -39.5t26 -26t29 -16.5t31.5 -8t27.5 -3t23 -0.5h3v-240q-217 0 -322 97t-105 272v322q0 53 -11 88t-34.5 55t-52 29t-73.5 15z" />
<glyph unicode="|" horiz-adv-x="462" d="M100 -338v1979h262v-1979h-262z" />
<glyph unicode="}" horiz-adv-x="675" d="M18 -227h4q14 0 23 0.5t27.5 3t31.5 8t29 16.5t26 26t17 39.5t7 55.5v310q0 108 65.5 181t162.5 98q-65 18 -115.5 55.5t-81.5 95.5t-31 127v325q0 32 -8 58.5t-22.5 43t-31 28.5t-36 18.5t-35.5 9t-32 2.5v237q100 -3 174.5 -24.5t122.5 -55.5t77.5 -83.5t41.5 -104.5 t12 -124v-316q0 -52 11 -85t34.5 -51.5t52 -26t72.5 -10.5v-219q-44 -6 -72.5 -15t-52 -29t-34.5 -55t-11 -88v-322q0 -175 -105 -272t-323 -97v240z" />
<glyph unicode="~" horiz-adv-x="1118" d="M100 446q0 46 8.5 91.5t29 91.5t50.5 81t77 57t106 22q48 0 92.5 -13.5t78 -33t63.5 -38.5t61 -33t59 -14q40 0 53 27.5t19 104.5h222q-2 -45 -9 -85.5t-20.5 -80t-34.5 -71t-49 -55.5t-67 -37.5t-85.5 -13.5t-89.5 10t-74 24.5t-61 31.5t-52.5 32t-46 24.5t-43.5 9.5 q-38 0 -51.5 -28.5t-13.5 -103.5h-222z" />
<glyph unicode="&#xa9;" horiz-adv-x="1775" d="M100 654.5q0 162.5 62.5 308.5t168 251t251.5 166t308 61t308 -61t251 -166t166 -251t61 -308.5t-61 -308t-166 -249.5t-251 -165t-308 -61t-308 61t-251.5 165t-168 249.5t-62.5 308zM224 652.5q0 -135.5 53 -258t142.5 -210.5t213 -140t259.5 -52t259 52t211.5 140 t140.5 210t52 258t-52 258.5t-140.5 211t-211.5 140t-258.5 51.5t-259.5 -52t-213.5 -140t-142.5 -210.5t-53 -258zM413 640q0 91 22.5 171t65 142t101 106.5t133.5 68t160 23.5q42 0 92.5 -5t100 -14t80.5 -21l-43 -89q-82 38 -227 38q-87 0 -158.5 -35t-118 -94t-72 -134 t-25.5 -157q0 -114 43 -206t129 -147t202 -55q47 0 85 6t71.5 18t70.5 33l41 -95q-101 -57 -282 -57q-213 0 -342 137.5t-129 365.5z" />
<glyph unicode="&#xad;" horiz-adv-x="836" d="M100 513v225h638v-225h-638z" />
<glyph unicode="&#xae;" horiz-adv-x="1775" d="M100 654.5q0 162.5 62.5 308.5t168 251t251.5 166t308 61t308 -61t251 -166t166 -251t61 -308.5t-61 -308t-166 -249.5t-251 -165t-308 -61t-308 61t-251.5 165t-168 249.5t-62.5 308zM224 649q0 -135 53 -257.5t142.5 -210.5t213 -140t259.5 -52q137 0 260.5 52t212 140 t141 210.5t52.5 257.5q0 139 -52.5 262.5t-141.5 211.5t-212 139t-260 51q-136 0 -259 -51t-213 -139t-143 -211.5t-53 -262.5zM593 178v988h289q60 0 114 -16.5t97 -48.5t68.5 -84.5t25.5 -118.5q0 -51 -13 -92t-34 -69.5t-51.5 -49.5t-63 -33t-71.5 -19q49 -27 96 -69.5 t69 -81.5l184 -306h-135l-167 279q-27 46 -67 80.5t-76 50t-63 15.5h-89v-425h-113zM706 697h122q39 0 74.5 7t67.5 22.5t55 38.5t37 57t14 76q0 53 -26 91.5t-75.5 58.5t-117.5 20h-151v-371z" />
<glyph unicode="&#xbc;" horiz-adv-x="2072" d="M119 1455v129q69 25 124 75q37 32 54 49h131v-767h-149v570q-66 -36 -160 -56zM413 0l1006 1716h265l-1006 -1716h-265zM1441 302v111l344 485h134v-462h90v-134h-90l-2 -173h-147v173h-329zM1625 436h145v209z" />
<glyph unicode="&#xbd;" horiz-adv-x="2097" d="M119 1455v129q69 25 124 75q37 32 54 49h131v-767h-149v570q-66 -36 -160 -56zM413 0l1006 1716h265l-1006 -1716h-265zM1492 129v106q0 37 19 74.5t49 69.5t67 64t73.5 63t67 61t49.5 64t19 66q0 28 -9 47.5t-24 29.5t-31.5 14t-35.5 4q-50 0 -112 -20t-102 -53v127 q36 36 91.5 60.5t122.5 24.5q75 0 132.5 -29t88 -79.5t30.5 -113.5q0 -49 -15 -92t-39.5 -74.5t-55 -60t-64 -54t-63 -49.5t-55.5 -53.5t-38 -60.5h360v-136h-525z" />
<glyph unicode="&#xbe;" horiz-adv-x="2113" d="M100 995v135q37 -30 87.5 -44.5t101.5 -14.5q22 0 45.5 4.5t48 15t40 31t15.5 46.5q0 65 -58 90.5t-207 25.5v130q73 -5 116 5q119 20 119 98q0 89 -94 89q-114 0 -185 -51v127q87 56 185 56q56 0 111 -23t93.5 -70t38.5 -105q0 -83 -51 -127.5t-132 -55.5 q40 -7 74.5 -19t67 -32.5t51.5 -54.5t19 -78q0 -102 -78 -167t-219 -65q-46 0 -99.5 17t-89.5 37zM457 0l1003 1716h268l-1006 -1716h-265zM1484 302v111l343 485h136v-462h88v-134h-88l-3 -173h-146v173h-330zM1668 436h146v209z" />
<glyph unicode="&#xe01;" horiz-adv-x="1275" d="M59 936q57 103 127 173q48 48 103.5 84t136 62.5t167.5 26.5q93 0 180 -18.5t160 -55t127.5 -87t85 -119.5t30.5 -148v-648q0 -63 -75 -139q-25 -28 -74 -67h-124v800q0 54 -19 96t-48.5 67.5t-69.5 42t-79 23t-81 6.5q-96 0 -185 -52q-36 -19 -59 -47l165 -136 q-21 -17 -45 -57q-44 -84 -44 -175v-568h-265v583q0 78 21 160q18 48 22 57q-21 17 -79 67q-78 63 -78 69z" />
<glyph unicode="&#xe02;" horiz-adv-x="1081" d="M59 1014v240h176q95 0 167 -22.5t115 -63t64.5 -92t21.5 -114.5q0 -64 -27 -122.5t-70 -101.5q-30 -30 -62.5 -93t-32.5 -116v-108q0 -205 143 -205q52 0 87 27t51.5 72t16.5 106v833h272v-833q0 -442 -460 -442q-83 0 -148.5 25.5t-107 67.5t-69 100t-38.5 119.5 t-11 129.5v108q0 158 118 325q6 9 25 33.5t29.5 43t10.5 31.5q0 52 -95 52h-176z" />
<glyph unicode="&#xe03;" horiz-adv-x="1081" d="M59 1014v240q17 0 35.5 -10t31 -22t31.5 -33q18 -20 44 -62q37 43 56 62q70 65 148 65q25 0 52.5 -9t56 -29.5t51 -49.5t37 -73.5t14.5 -97.5q0 -39 -7.5 -76t-22 -68t-32 -56t-38.5 -47q-21 -21 -41.5 -48t-42 -78t-21.5 -101v-100q0 -105 34.5 -155t114.5 -50 q75 0 112 59.5t37 154.5v824h272v-813q0 -75 -12.5 -140t-43 -126t-77 -104t-120.5 -69t-168 -26q-70 0 -128.5 13.5t-101 37t-75.5 57t-54.5 71.5t-35.5 83.5t-19.5 90t-5.5 92.5v111q0 50 9 94t29.5 86t36.5 69t48 73q4 6 12 15.5t16.5 18.5t18 19.5t17.5 21t15 20.5 t10.5 20t3.5 18q0 27 -21 37t-51 -10q-9 -6 -17.5 -14t-22.5 -22.5t-17 -17.5q-3 -5 -8 -11t-11 -13t-10 -12q-11 16 -38 44q-52 46 -101 46z" />
<glyph unicode="&#xe04;" horiz-adv-x="1283" d="M100 0v854q0 74 28.5 141t79.5 118.5t118.5 89.5t148 58.5t165.5 20.5q105 0 203 -31t173.5 -86t121.5 -136t46 -175v-854h-273v854q0 75 -76 128t-195 53q-79 0 -140.5 -24.5t-93.5 -65.5t-32 -91v-245q39 44 85 69q107 70 212 70v-270q-138 0 -227 -53q-45 -23 -73 -51 v-374h-271z" />
<glyph unicode="&#xe05;" horiz-adv-x="1283" d="M100 0v854q0 70 29 145.5t74 136.5t106.5 100.5t120.5 39.5t143 -89q27 -30 70 -90q20 35 63 90q38 43 72.5 67.5t72.5 24.5q66 0 128.5 -40t106.5 -101.5t71 -137.5t27 -146v-854h-273v854q0 79 -30.5 130t-72.5 51q-14 0 -33 -15t-32.5 -31t-36.5 -45 q-2 -3 -26.5 -36.5t-36.5 -53.5q-9 12 -22.5 30.5t-24 33t-18.5 26.5q-33 43 -57.5 67t-45.5 24q-40 0 -72 -51.5t-32 -129.5v-245q40 44 86 69q106 70 214 70v-270q-119 0 -227 -50q-45 -23 -73 -52v-376h-271z" />
<glyph unicode="&#xe06;" horiz-adv-x="1297" d="M59 1014v240q17 0 35.5 -10t31 -22t31.5 -33q18 -20 44 -62q27 36 56 65q67 62 148 62q95 -6 160 -83t65 -181q0 -49 -12.5 -90t-31.5 -70t-42.5 -55t-47 -50t-42.5 -48.5t-31 -57t-12 -70.5l2 -185q30 -33 77 -62q97 -62 207 -62q38 0 68.5 6.5t61 24t51 46t33.5 76 t13 110.5v751h273v-808q0 -135 -51 -242t-144.5 -167.5t-214.5 -60.5q-163 0 -287 114q-57 53 -89 116v-206h-271v573q0 49 12 91.5t31 73t42 56.5t46 47.5t42.5 42t31 44t11.5 47.5q0 55 -44 55q-9 0 -21.5 -7.5t-25.5 -19.5t-25 -28q-38 -45 -42 -51q-17 17 -49 44 q-4 2 -17.5 12t-19 13.5t-16.5 9.5t-19.5 8.5t-17.5 2.5z" />
<glyph unicode="&#xe07;" horiz-adv-x="1110" d="M65 862h276l157 -616q24 0 53 9.5t60.5 28t61 50t53.5 72t38.5 97t14.5 121.5q0 67 -15 123t-42.5 97.5t-64.5 73t-82.5 51.5t-95.5 29.5t-105 9.5v243q100 0 195 -22.5t183.5 -72t154.5 -121.5t105.5 -178t39.5 -233q0 -102 -33 -199t-89.5 -172.5t-128.5 -133.5 t-153.5 -88.5t-160.5 -30.5h-211z" />
<glyph unicode="&#xe08;" horiz-adv-x="1234" d="M44 1024q45 70 118 127q168 131 406 131q73 0 143.5 -18.5t130.5 -52t112.5 -79t93 -101t69.5 -117t44 -128.5t15 -134q0 -104 -22 -198t-70.5 -177.5t-119 -144.5t-173.5 -96.5t-229 -35.5h-134l-109 428q-2 7 -5 11.5t-6 7t-8 3t-9 0.5t-12 -0.5t-14 -0.5h-54v245h108 h10h36.5t36 -3.5t38.5 -9.5t36 -19t37 -31.5t33.5 -47t31.5 -64.5l71 -273q45 0 90 31.5t81.5 84.5t59.5 130t23 160q0 64 -14 119t-36.5 93.5t-52.5 69t-61 49t-63.5 31t-58.5 17t-47 4.5q-193 0 -332 -119q-71 -62 -101 -119z" />
<glyph unicode="&#xe09;" horiz-adv-x="1269" d="M59 503v245h176q69 0 114 -29t66 -84t21 -137v-77q0 -47 9 -81t22 -52t33.5 -29t37.5 -13.5t40 -2.5q123 0 230 62q43 24 90 66v375q0 25 -3 49.5t-9 50t-16.5 48.5t-25 44.5t-35.5 39t-47 30.5t-60.5 20t-74.5 7q-149 0 -292 -75q-75 -35 -126 -76l-98 227q66 49 144 84 q179 87 372 87q252 0 398 -136.5t146 -371.5v-774h-273v206q-36 -63 -98 -116q-129 -114 -281 -114q-160 0 -251.5 106t-91.5 280v97q0 17 -3 25.5t-11.5 13.5t-24.5 5h-78z" />
<glyph unicode="&#xe0a;" horiz-adv-x="1127" d="M59 1011v243h142q74 0 134.5 -10t104 -29.5t75.5 -45.5t51 -59t28 -69.5t9 -78.5q0 -126 -90 -216q-19 -19 -30 -32t-31 -42.5t-30.5 -65.5t-10.5 -77v-137q0 -176 157 -176q41 0 74 10.5t54.5 29.5t36 42t22 52.5t10.5 56t3 58.5q0 137 -34.5 214t-84.5 77v247 q29 0 53 25.5t41 70t28.5 106.5t17.5 135.5t6 155.5h273q0 -95 -11 -179t-28.5 -144t-39.5 -110.5t-44 -82t-42.5 -54.5t-34 -32.5t-19.5 -11.5q0 -1 3 -2q11 -6 20 -11.5t30 -22.5t37.5 -37t37 -55t34.5 -74.5t23.5 -97t9.5 -123.5q0 -82 -19 -154.5t-58 -132.5t-95.5 -103 t-135.5 -66.5t-174 -23.5q-93 0 -166 24.5t-119.5 64.5t-76.5 96t-41.5 114.5t-11.5 124.5v126q0 60 18.5 125.5t44.5 114.5t55 85q5 7 18.5 25l22.5 30t16.5 27.5t7.5 25.5q0 49 -129 49h-142z" />
<glyph unicode="&#xe0b;" horiz-adv-x="1127" d="M59 1014v240q17 0 35.5 -10t31 -22t31.5 -33q18 -20 44 -62q23 32 54 62q70 65 150 65q32 0 61 -10t52 -28.5t41 -43t30 -54t18.5 -62t6.5 -66.5q0 -19 -2.5 -37t-5 -32.5t-9 -31t-10.5 -27t-14 -26.5t-14.5 -23.5t-17 -23.5t-16.5 -20.5t-18.5 -21t-16.5 -20.5 q-2 -2 -11 -14.5t-14.5 -20.5t-14.5 -23.5t-15 -29.5t-12 -31.5t-9 -37.5t-3 -41v-137q0 -176 178 -176q40 0 72 15.5t51.5 40t32.5 57t18 65t5 65.5q0 138 -34.5 217.5t-84.5 79.5v247q37 0 65.5 38.5t45.5 106.5t26 156t9 192h273q0 -75 -6.5 -143t-18 -120.5t-26.5 -99.5 t-31.5 -81t-34 -63t-33.5 -47.5t-30 -32t-23 -20t-14 -7.5q1 -1 3 -2q11 -6 20 -11t29.5 -22.5t37 -37.5t37 -54.5t34 -74.5t23 -97.5t9.5 -123.5q0 -70 -17 -138t-54 -131t-89 -110t-128.5 -75.5t-166.5 -28.5q-68 0 -125 10t-100 28t-77 42.5t-57.5 56t-40 64.5t-25.5 72 t-13 76t-4 78v113q0 176 110 330q7 9 35 39t46 56.5t18 45.5q0 24 -18.5 35.5t-43.5 -0.5q-32 -20 -64 -57q-11 -13 -36 -38q-24 23 -47 43q-63 44 -88 44z" />
<glyph unicode="&#xe0c;" horiz-adv-x="1978" d="M59 936q49 94 127 173q178 173 425 173q71 0 140 -13t131.5 -37.5t116.5 -62t93 -84t61.5 -106t22.5 -125.5v-490q18 -31 57 -62q77 -62 197 -62q47 0 78 11t54 39.5t33.5 80.5t10.5 132v751h272v-833q0 -57 -13 -117t-41.5 -118.5t-69 -104.5t-100 -74t-129.5 -28 q-168 0 -276 113q-49 50 -73 114v-206h-273v800q0 78 -40 132t-104 78.5t-148 24.5q-49 0 -90.5 -9t-62.5 -18t-47 -25q-34 -21 -49 -47l165 -136q-16 -14 -45 -54q-44 -74 -44 -163v-283q0 -26 7 -39.5t28 -14.5h81v-246h-118q-28 0 -49.5 1.5t-50.5 7t-50.5 15t-44.5 27 t-37.5 41t-24 59.5t-9.5 81v351q0 78 21 160q10 27 25 57q-21 17 -79 67q-78 63 -78 69z" />
<glyph unicode="&#xe0d;" horiz-adv-x="1986" d="M59 936q49 94 127 173q178 173 423 173q84 0 165.5 -18.5t154 -55t128 -87t87.5 -119.5t32 -148v-424q0 -33 6 -60t16.5 -46.5t26 -34t32.5 -23t39 -14t43 -7.5t46 -2q49 0 86 15.5t75 43.5q35 31 56 60v892h276l10 -1011q0 -113 -31 -210.5t-83 -166.5t-119.5 -118 t-140.5 -72.5t-146 -23.5q-168 0 -311 85q-64 35 -111 90l60 137q42 -47 75 -67q97 -67 214 -67q134 0 219.5 94t85.5 259v23q-27 -66 -73 -116q-96 -116 -243 -116q-79 0 -143.5 24.5t-109 68t-75 103t-44.5 127.5t-14 144v359q0 55 -20 98.5t-50.5 68.5t-71 41t-76 21.5 t-71.5 5.5q-50 0 -91 -9t-62.5 -18t-47.5 -25q-34 -21 -49 -47l165 -136q-13 -11 -42 -52q-44 -73 -44 -165v-283v-9.5v-8v-7t0.5 -7t1.5 -6t2.5 -5.5t3.5 -4.5t4.5 -3.5t6 -2t8.5 -1h89v-246h-149q-128 0 -182.5 60.5t-54.5 171.5v351q0 87 23 160q10 27 25 57 q-21 17 -79 67q-78 63 -78 69z" />
<glyph unicode="&#xe0e;" horiz-adv-x="1275" d="M59 936q57 103 127 173q173 173 415 173q74 0 153.5 -18t155 -55t135 -87t95.5 -120t36 -148v-1057q0 -23 -2 -45.5t-9.5 -57.5t-21 -64.5t-39 -62t-59.5 -54.5t-87 -37t-117 -15q-60 0 -116.5 21t-100.5 53q-52 34 -88 76q-55 -41 -131 -76q-150 -74 -313 -74v247 q86 0 168 21t145 55q72 32 127 76q50 -50 74 -69q82 -67 170 -67q35 0 58 7t37 18t21 33t9 44.5t2 59.5v914q0 78 -40.5 132t-105.5 78.5t-148 24.5q-107 0 -196 -52q-32 -19 -51 -47l165 -136q-23 -19 -40 -49q-38 -74 -38 -168v-351q0 -68 -15 -113.5t-47.5 -71.5 t-76 -36.5t-107.5 -10.5h-138v240h82q7 1 12 3.5t7.5 5t3.5 8.5t1 10t-0.5 13.5t-0.5 13.5v289q0 78 21 160q10 27 25 57q-21 17 -79 67q-78 63 -78 69z" />
<glyph unicode="&#xe0f;" horiz-adv-x="1275" d="M59 936q49 94 127 173q178 173 433 173q81 0 161 -18.5t151 -55t126 -87t87 -119.5t32 -148v-1048q0 -21 -1.5 -43t-9.5 -58t-21 -67t-37.5 -64.5t-58 -57.5t-85 -39.5t-114.5 -15.5q-73 0 -147 74q-40 41 -64 76l-102 -117l-95 117q-50 -37 -124 -76q-131 -74 -225 -74 v247q128 0 246 78q51 34 103 82l95 -123l99 144q4 -8 12.5 -23t29 -44.5t41.5 -53t49.5 -42t54.5 -18.5q81 0 81 73v1019q0 74 -37.5 128t-101 80.5t-145.5 26.5q-117 0 -206 -52q-32 -19 -51 -47l174 -136q-22 -18 -44 -49q-43 -73 -43 -168v-351q0 -232 -222 -232h-162 v240h82q8 1 13.5 3.5t7.5 8.5t2.5 9.5t0 13t-0.5 11.5v303q0 86 21 157q12 28 25 54q-21 17 -79 67q-78 63 -78 69z" />
<glyph unicode="&#xe10;" horiz-adv-x="1234" d="M38 1022q34 70 106 129q157 131 413 131q109 0 235 -46q55 18 81.5 59t26.5 113h273q0 -104 -58.5 -191t-136.5 -111q95 -85 146.5 -209.5t51.5 -244.5q0 -133 -34 -242.5t-92 -184.5t-138 -126.5t-170.5 -75t-189.5 -23.5h-127l-103 411q-9 24 -15.5 31t-27.5 7h-70v245 h129q30 0 53.5 -2.5t54.5 -14t54.5 -31t45.5 -56.5t35 -87l64 -257q44 0 89.5 31.5t83 84.5t61.5 130t24 160q0 51 -8 95.5t-22 78.5t-34 63t-42 50t-48 37.5t-51 26.5t-50.5 17t-47.5 9.5t-43 2.5q-185 0 -322 -126q-57 -50 -95 -125zM90 -322q148 0 248 90q45 39 73 92 l100 -141l98 141q0 -4 17 -32t42.5 -62t61 -61t65.5 -27q10 0 19 3t15 8t10.5 12.5t7 16t2.5 17.5v187h273v-201q0 -31 -7 -65t-28 -75t-53 -72.5t-87 -52.5t-125 -21q-104 0 -167 73q-31 35 -49 76l-95 -113l-100 104q-47 -46 -89 -70q-111 -70 -232 -70v243z" />
<glyph unicode="&#xe11;" horiz-adv-x="1277" d="M59 1019v240q13 0 25.5 -4.5t26.5 -15.5t22.5 -18.5t23.5 -23.5q18 -20 44 -62q37 42 56 62q73 62 140 62q25 0 47 -5.5t43 -19.5t36.5 -35t24.5 -54t9 -74q37 59 83 105q50 48 102.5 77t116.5 29q60 0 113 -29.5t90 -77t64 -107.5t40 -121.5t13 -118.5v-828h-276v746 q0 265 -132 265q-49 0 -93.5 -20t-79 -54.5t-64.5 -79t-52 -95.5t-39 -103t-27.5 -102t-15.5 -91t-5 -71v-19q0 -4 -0.5 -9t-0.5 -8.5t1 -7.5v-351h-276v330q0 92 17.5 177t44 145t57 115.5t57 93t44 73t17.5 59.5q0 17 -10.5 29.5t-33.5 12.5t-74 -52q-27 -31 -40 -50 q-8 12 -38 42q-49 44 -101 44z" />
<glyph unicode="&#xe12;" horiz-adv-x="1973" d="M59 638q0 124 20.5 229.5t56 180t82.5 127t100 77t110 24.5q27 0 58.5 -24t70.5 -65q40 -45 73 -90q22 41 62 90q38 42 69.5 67t60.5 25q68 0 133 -37t112 -94.5t75.5 -130t28.5 -141.5v-512q28 -36 65 -64q81 -62 188 -62q67 0 103 21t54.5 78.5t18.5 165.5v751h273 v-833q0 -59 -10.5 -118t-35 -118.5t-61 -105.5t-93.5 -74.5t-127 -28.5q-171 0 -289 119q-51 51 -86 119v-214h-273v876q0 68 -34.5 113.5t-68.5 45.5q-21 0 -45.5 -24t-57.5 -67q-54 -77 -62 -90q-9 12 -22.5 30.5t-24 33t-18.5 26.5q-34 43 -58.5 67t-44.5 24 q-129 0 -129 -397q0 -422 240 -422q45 0 111 27q35 15 54 28v-245q-18 -14 -46 -26q-55 -24 -119 -24q-111 0 -205.5 45t-163 128.5t-107 209t-38.5 279.5z" />
<glyph unicode="&#xe13;" horiz-adv-x="1978" d="M59 936q57 103 127 173q170 169 407 173q54 0 109.5 -7.5t113 -23.5t110 -39.5t98.5 -58.5t79.5 -78t53 -99.5t19.5 -121.5v-351q0 -67 6 -111.5t18.5 -74.5t36.5 -46t55.5 -22t80.5 -6q87 0 167 59q35 27 62 62v890h276v-1254h-276v206q-26 -66 -72 -116 q-108 -114 -273 -114q-79 0 -142 29t-102 74t-65.5 105t-37 119t-10.5 118v379q0 45 -13.5 82t-37 62t-53 43t-64.5 28.5t-67.5 15t-66.5 4.5q-116 0 -193 -52q-32 -23 -46 -47l165 -136q-13 -13 -42 -54q-44 -74 -44 -163v-283q0 -26 7 -39.5t28 -14.5h81v-246h-108 q-27 0 -49.5 1.5t-52 7t-52.5 15t-47 27t-39.5 41t-25.5 59.5t-10 81v351q0 78 21 160q10 27 25 57q-21 17 -79 67q-78 63 -78 69z" />
<glyph unicode="&#xe14;" horiz-adv-x="1269" d="M59 638q0 126 31.5 232.5t86 181.5t127 127.5t154.5 77.5t169 25q74 0 142.5 -13t129 -37.5t110.5 -62t86 -84t56 -106t20 -125.5v-854h-273v822q0 50 -16.5 88t-42.5 61t-62.5 38t-72.5 20.5t-77 5.5q-33 0 -68.5 -10.5t-77 -39t-73.5 -71t-53.5 -114.5t-21.5 -162 q0 -42 2 -79.5t9 -81t17.5 -79.5t29 -70.5t43 -58.5t60.5 -38.5t79 -14.5q63 0 124 27q26 13 41 28v-241q-20 -15 -44 -27q-60 -27 -129 -27q-94 0 -175 32.5t-141.5 91.5t-103 141t-64.5 182.5t-22 214.5z" />
<glyph unicode="&#xe15;" horiz-adv-x="1269" d="M59 638q0 124 20.5 229.5t56 180t82.5 127t100 77t110 24.5q47 0 132 -89q26 -30 70 -90q22 41 62 90q71 92 130 92q67 0 132 -37t112 -94.5t76 -130t29 -141.5v-876h-273v876q0 72 -37 115.5t-74 43.5q-15 0 -41.5 -26.5t-53.5 -64.5q-54 -77 -62 -90q-9 12 -22.5 30.5 t-24 33t-18.5 26.5q-34 43 -58.5 67t-44.5 24q-16 0 -31 -7.5t-34 -33t-33 -66.5t-24 -117t-10 -176q0 -205 61 -312t182 -107q45 0 111 27q35 15 54 28v-245q-15 -11 -49 -26q-59 -24 -137 -24q-145 0 -257.5 85.5t-174 236t-61.5 340.5z" />
<glyph unicode="&#xe16;" horiz-adv-x="1275" d="M59 936q54 97 130 173q178 173 422 173q71 0 140 -13t131.5 -37.5t116.5 -62t93 -84t61.5 -106t22.5 -125.5v-648q0 -63 -75 -139q-25 -28 -74 -67h-124v800q0 50 -15 89.5t-41 66.5t-63 45t-80 26t-93 8q-49 0 -90.5 -9t-62.5 -18t-47 -25q-34 -21 -49 -47l165 -136 q-16 -14 -45 -54q-44 -74 -44 -163v-281v-10.5v-10.5t0.5 -9t1.5 -8.5t3 -6t5 -5t7 -3t10 -1.5l89 -2v-246l-186 3q-88 2 -143 58t-55 171v351q0 78 21 160q10 27 25 57q-21 17 -79 67q-78 63 -78 69z" />
<glyph unicode="&#xe17;" horiz-adv-x="1256" d="M100 0v1254h274v-210q25 64 80 119q109 119 287 119q87 0 166.5 -40.5t133.5 -105.5t85.5 -146t31.5 -162v-828h-274v746q0 45 -4.5 79.5t-20 71t-41.5 60.5t-72 39t-108 15q-101 0 -192 -65q-40 -28 -72 -64l-3 -882h-271z" />
<glyph unicode="&#xe18;" horiz-adv-x="1174" d="M59 933q0 71 29.5 129.5t80 98.5t120 67.5t148 40.5t164.5 13q177 0 348 -65q36 -13 140 -63v-256q-68 46 -129 70q-164 70 -359 70h-11q-32 0 -49.5 -0.5t-48.5 -2.5t-49.5 -5.5t-42 -11t-36.5 -18.5t-22 -28t-9 -39q0 -24 15 -40.5t53 -27t68 -15t93 -11.5 q53 -6 81 -9.5t81.5 -13t85 -19.5t78 -29t75 -41.5t61 -56.5t50.5 -74.5t30.5 -95t12.5 -119.5q0 -58 -19 -115t-59 -109.5t-97 -92.5t-139.5 -64t-180.5 -24q-541 0 -541 419v118h278v-118q0 -29 5.5 -53t13 -41.5t21.5 -31t26.5 -22.5t32.5 -15t33.5 -9t36 -4.5t34.5 -2 t34 -0.5h5q45 0 87 10t77.5 29.5t56.5 53.5t21 78q0 35 -10.5 64.5t-25.5 49.5t-45 36.5t-53.5 26t-67.5 19t-70 13.5t-77 11q-47 7 -71 10.5t-67.5 12.5t-68 16.5t-60.5 22t-56 30t-44.5 39t-37 51.5t-21.5 64.5t-9 79.5z" />
<glyph unicode="&#xe19;" horiz-adv-x="1256" d="M100 425v808h274v-749q0 -44 9 -81t23.5 -61.5t35 -43t40.5 -29t43 -16.5t40.5 -8t35.5 -2q106 0 207 65q39 23 76 66l3 859h271v-1233h-274v209q-32 -64 -89 -117q-117 -116 -289 -116q-88 0 -165.5 40t-129 104.5t-81.5 144.5t-30 160z" />
<glyph unicode="&#xe1a;" horiz-adv-x="1228" d="M100 441v813h274v-824q0 -91 48 -152.5t119 -61.5h114q87 0 144.5 61.5t57.5 152.5v824h273v-813q0 -64 -16 -128.5t-50.5 -125t-83 -107.5t-119 -75.5t-152.5 -28.5h-190q-85 0 -156.5 28.5t-119 75t-80.5 107.5t-48 125t-15 129z" />
<glyph unicode="&#xe1b;" horiz-adv-x="1228" d="M100 441v813h274v-824q0 -91 51 -152.5t127 -61.5h113q83 0 137.5 61.5t54.5 152.5v1176h273v-1165q0 -65 -16 -129t-51 -125t-85 -107.5t-124 -75t-162 -28.5h-189q-78 0 -145.5 28.5t-113.5 75.5t-79.5 107.5t-49 125t-15.5 128.5z" />
<glyph unicode="&#xe1c;" horiz-adv-x="1465" d="M100 933q0 154 64.5 237.5t178.5 83.5h157v-248l-95 2q-28 0 -35.5 -20t-5.5 -57q11 -213 49 -371q13 -52 41 -132l186 454h131l183 -454q31 59 57 161q57 226 81 665h273q-17 -505 -143 -927q-58 -193 -125 -327h-178l-208 484l-205 -484h-181q-61 117 -114 276 q-111 338 -111 657z" />
<glyph unicode="&#xe1d;" horiz-adv-x="1458" d="M100 933q0 60 10 110t29.5 89t47.5 66t65.5 41.5t82.5 14.5h163v-248l-93 2q-28 0 -35.5 -17t-7.5 -58q0 -194 43 -373q20 -78 46 -132l187 454h130l186 -454q39 87 65 237q65 355 65 947h276q0 -689 -132 -1225q-56 -225 -131 -387h-181l-207 484l-206 -484h-178 q-64 128 -114 279q-111 337 -111 654z" />
<glyph unicode="&#xe1e;" horiz-adv-x="1556" d="M18 1254h271l222 -772l178 772h178l177 -772l225 772h269l-359 -1254h-227l-173 741l-178 -741h-220z" />
<glyph unicode="&#xe1f;" horiz-adv-x="1659" d="M18 1254h271l222 -772l178 772h181l174 -772l326 1130h271l-462 -1612h-227l-173 725l-170 -725h-228z" />
<glyph unicode="&#xe20;" horiz-adv-x="1275" d="M59 936q57 103 127 173q173 173 407 173q93 0 180 -18.5t160 -55t127.5 -87t85 -119.5t30.5 -148v-648q0 -63 -75 -139q-25 -28 -74 -67h-124v800q0 52 -16.5 92.5t-45 67t-68.5 44t-84.5 24.5t-95.5 7q-86 0 -175 -52q-34 -21 -56 -47l165 -136q-23 -19 -40 -49 q-38 -74 -38 -168v-351q0 -101 -59 -168t-142 -67h-183v246h82q5 0 9.5 1.5t7 3.5t4.5 5.5t3 6t1.5 8t0.5 8.5v10.5v10.5l-3 286q0 78 21 160q10 27 25 57q-21 17 -79 67q-78 63 -78 69z" />
<glyph unicode="&#xe21;" horiz-adv-x="1256" d="M100 0v1254h274v-843q33 -34 77 -65q87 -62 173 -62q76 0 127.5 17t80 50.5t40.5 76t12 99.5v727h274v-833q0 -53 -16.5 -112.5t-50.5 -118.5t-80.5 -106.5t-114.5 -77.5t-145 -30q-168 0 -292 114q-56 52 -85 116v-206h-274z" />
<glyph unicode="&#xe22;" horiz-adv-x="1189" d="M59 381q0 157 155 259q69 46 157 66q-80 12 -144 45q-140 79 -140 211q0 59 18.5 111t49.5 89.5t71 65t84 41t87 13.5q77 0 186 -25q53 -16 74 -24v-258q-59 27 -71 31q-90 29 -127 29q-16 0 -31 -3t-31.5 -10t-27 -22.5t-10.5 -37.5q0 -33 15 -57.5t40 -39t64.5 -23 t81 -11.5t97.5 -3v-245q-81 0 -145.5 -17.5t-102.5 -47.5t-57 -64.5t-19 -72.5q0 -47 17 -80.5t49.5 -51t70 -25.5t84.5 -8q120 0 191 60.5t71 153.5v824h273v-813q0 -66 -16.5 -129t-56.5 -124.5t-99 -108t-152.5 -75t-210.5 -28.5q-109 0 -195 22.5t-141.5 60t-92 90.5 t-51.5 110t-15 122z" />
<glyph unicode="&#xe23;" horiz-adv-x="1066" d="M100 78v230q42 -22 114 -45q131 -47 256 -47q112 0 168 38.5t56 126.5q0 35 -16.5 60.5t-45 41.5t-66.5 30t-81 24.5t-88 26t-87.5 33t-80.5 47.5t-66.5 68t-45.5 95.5t-17 128.5q0 70 33.5 133.5t91.5 110t141 74.5t178 28q161 0 272 -54q32 -15 97 -55v-260 q-36 33 -88 60q-127 62 -279 62q-82 0 -127 -28.5t-45 -82.5q0 -31 20 -54.5t54.5 -39.5t79 -30t94 -30t98.5 -35.5t93.5 -50t79 -70t55 -99.5t20.5 -134q0 -39 -5.5 -76.5t-19 -79t-35.5 -76.5t-58.5 -67.5t-83 -55.5t-113.5 -36.5t-147 -13.5q-175 0 -295 50 q-44 15 -111 52z" />
<glyph unicode="&#xe24;" horiz-adv-x="1275" d="M59 936q51 91 132 173q179 173 412 173q62 0 123 -9.5t117.5 -28.5t106.5 -45.5t91.5 -62.5t71.5 -78.5t46.5 -94.5t16.5 -109v-1213q0 -63 -75 -139q-25 -28 -74 -67h-124v1365q0 53 -17 94.5t-45.5 67.5t-69 43t-84 23.5t-94.5 6.5q-103 0 -180 -52q-36 -25 -51 -47 l162 -136q-13 -13 -42 -54q-44 -74 -44 -163v-281v-10.5v-10.5t0.5 -9t1.5 -8.5t3 -6t5 -5t7 -3t10 -1.5l89 -2v-243h-165q-101 0 -160 59t-59 170v351q0 78 21 160q10 27 25 57q-21 17 -79 67q-78 63 -78 69z" />
<glyph unicode="&#xe25;" horiz-adv-x="1161" d="M59 341q0 78 31 145t81.5 113t115.5 78.5t133 48t134 15.5q158 0 209 13q21 7 26 17v45q0 216 -240 216q-152 0 -276 -108q-62 -58 -95 -108l-97 239q47 68 110 113q151 114 358 114q68 0 127.5 -10t108 -28.5t89 -45t70.5 -60.5t53 -74t37.5 -87t21.5 -97.5t7 -105.5 v-774h-274v529q-14 -9 -41 -13q-55 -13 -199 -13q-38 0 -75 -10t-69.5 -28.5t-52 -51t-19.5 -72.5q0 -37 18 -65t56 -44t91 -16q50 0 111 22q40 17 48 22v-252q-13 -10 -43 -19q-61 -15 -139 -15q-188 0 -302 96t-114 271z" />
<glyph unicode="&#xe26;" horiz-adv-x="1275" d="M59 936q44 92 124 173q173 173 431 173q74 0 151.5 -18t151 -55t131.5 -87t93 -120t35 -148v-1213q0 -63 -75 -139q-25 -28 -74 -67h-124v1365q0 109 -78.5 172t-202.5 63q-118 0 -206 -52q-34 -18 -54 -47l165 -136q-23 -19 -40 -49q-38 -74 -38 -168v-351 q0 -68 -26.5 -119.5t-74 -80t-110.5 -29.5l-173 -3v243h82q5 0 9.5 1.5t7 3.5t4.5 5.5t3 6t1.5 8t0.5 8.5v10.5v10.5l-3 286q0 78 21 160q10 27 25 57q-21 17 -79 67q-78 63 -78 69z" />
<glyph unicode="&#xe27;" horiz-adv-x="1153" d="M59 154l98 246q38 -51 94 -92q122 -92 257 -92q40 0 82.5 15.5t84 48t74.5 79t53 115.5t20 150q0 82 -19.5 149t-51 110.5t-73.5 73t-84.5 42t-85.5 12.5q-146 0 -260 -75q-48 -29 -94 -74l-95 235q48 55 109 92q145 93 330 93q128 0 238.5 -48t189.5 -133.5 t123.5 -208.5t44.5 -268q0 -144 -44 -266t-121.5 -205.5t-185 -130t-232.5 -46.5q-194 0 -338 89q-66 34 -114 89z" />
<glyph unicode="&#xe28;" horiz-adv-x="1283" d="M100 0v854q0 56 16 108t44.5 94t67.5 78.5t85.5 63.5t97.5 46t104.5 28.5t106.5 9.5q117 0 198 -28q36 15 56.5 35.5t28.5 48.5t8 70h271q0 -91 -35.5 -167t-96.5 -106q67 -46 99.5 -126.5t32.5 -154.5v-854h-273v854q0 85 -82 134.5t-207 49.5q-59 0 -107.5 -16.5 t-79.5 -43t-47.5 -59t-16.5 -65.5v-227q34 31 86 59q110 62 214 62v-270q-121 0 -230 -50q-37 -17 -70 -49v-379h-271z" />
<glyph unicode="&#xe29;" horiz-adv-x="1228" d="M100 441v813h274v-808q0 -103 50 -166.5t133 -63.5h114q83 0 128.5 59t51.5 155l6 127h-243v189h243l-3 508h276v-508h82v-189h-85l-2 -116q-6 -212 -117 -338.5t-297 -126.5h-190q-121 0 -217 60t-150 166t-54 239z" />
<glyph unicode="&#xe2a;" horiz-adv-x="1184" d="M59 341q0 78 27 144.5t72.5 113t105 79t124.5 48t131 15.5q161 0 229 13q33 8 47 17v45q0 109 -63 162.5t-178 53.5q-151 0 -275 -108q-63 -58 -96 -108l-93 247q46 61 111 108q154 111 353 111q84 0 155 -17q63 23 81 53t18 90h276q0 -153 -173 -237q50 -38 86 -97.5 t55 -136t19 -163.5l-3 -774h-273v529q-19 -7 -57 -16q-73 -13 -219 -13q-71 0 -126 -48.5t-55 -110.5q0 -56 44 -90.5t124 -34.5q56 0 110 24q31 13 49 28v-260q-17 -9 -51 -19q-61 -15 -111 -15q-74 0 -139.5 14t-121.5 43.5t-96.5 72.5t-63.5 103.5t-23 133.5z" />
<glyph unicode="&#xe2b;" horiz-adv-x="1158" d="M100 0v1254h274v-429l434 429h371l-444 -438q33 -7 64.5 -16.5t69.5 -27t70 -40.5t63 -58.5t53 -78t35.5 -101t13.5 -126.5v-368h-276l-3 330q0 69 -18 127t-44.5 95t-60 64t-62.5 40t-54 17l-212 -216l-3 -457h-271z" />
<glyph unicode="&#xe2c;" horiz-adv-x="1659" d="M24 1254h270l222 -772l178 772h182l176 -772l160 532q10 24 10 64q0 89 -79 158q-43 37 -75 51q80 31 149 81q151 108 151 244h278q0 -40 -9.5 -75.5t-24 -61.5t-36.5 -50.5t-42.5 -41.5t-47.5 -34q-60 -40 -155 -62q35 -11 72 -38q70 -52 81 -140q2 -24 -1 -52 t-9.5 -52.5t-12 -40t-9.5 -25.5l-268 -939h-227l-173 725l-170 -725h-227z" />
<glyph unicode="&#xe2d;" horiz-adv-x="1261" d="M59 816q21 137 88 233q29 47 68.5 86t95.5 73.5t133 54t167 19.5q95 0 176 -22t140.5 -60t107 -90.5t78.5 -110.5t51.5 -123.5t29.5 -127.5t9 -124q0 -103 -20.5 -193.5t-58 -161.5t-91 -126.5t-119 -92t-142 -55.5t-161.5 -19q-69 0 -132.5 12t-118 35t-101 55.5t-82 74 t-61 90t-38.5 104t-13 115.5q0 232 181 232h308v-245l-167 2q-23 6 -35 -6t-6 -34q16 -66 58.5 -111t95.5 -64.5t114 -19.5q161 0 239 98.5t78 309.5q0 100 -25.5 179.5t-70 129t-101.5 76t-123 26.5q-143 0 -232 -111q-41 -57 -54 -108h-266z" />
<glyph unicode="&#xe2e;" horiz-adv-x="1261" d="M59 820q22 133 88 229q19 31 42 58t54 54t69 48.5t82.5 38t99 25.5t115.5 9q39 0 63 -1t65 -8.5t76 -21.5q16 5 28.5 11t22.5 14t17 18.5t12.5 22t8.5 26t4.5 30.5t1.5 35h260q0 -87 -52 -168.5t-115 -101.5q102 -91 152 -226t50 -288q0 -103 -20.5 -193.5t-58 -161.5 t-91 -126.5t-119 -92t-142 -55.5t-161.5 -19q-69 0 -132.5 12t-118 35t-101 55.5t-82 74t-61 90t-38.5 104t-13 115.5q0 47 8.5 86t27.5 73t55.5 53.5t86.5 19.5h311v-245h-167q-45 0 -41 -41q10 -61 53 -105.5t99 -65.5t116 -21q157 0 237 99.5t80 308.5q0 81 -17 149 t-46.5 116.5t-70 82t-88 50t-100.5 16.5q-138 0 -228 -111q-40 -56 -56 -107h-266z" />
<glyph unicode="&#xe2f;" horiz-adv-x="1169" d="M59 1254h271q9 -37 15.5 -61.5t16.5 -52.5t21 -45.5t27 -35t35 -27t44.5 -15.5t56.5 -6q92 0 162 63t100 180h263v-813q0 -104 -18.5 -181.5t-50 -126.5t-80 -79.5t-104 -42t-126.5 -11.5v243h2h23.5t19.5 2t17 5.5t13 10.5t11.5 17.5t8 25.5t6.5 36t3 47.5t1 61.5v425 q-33 -33 -70 -52q-78 -51 -211 -51q-84 0 -155.5 27.5t-121 73.5t-87.5 109.5t-59.5 130.5t-33.5 142z" />
<glyph unicode="&#xe30;" horiz-adv-x="823" d="M100 421v139h259v-95q0 -37 22.5 -51t91.5 -14h252l-101 -238h-235q-150 0 -219.5 66t-69.5 193zM100 1016v130h259v-99q0 -37 22.5 -51.5t91.5 -14.5h252l-101 -238h-245q-79 0 -134 19t-86 56t-45 85.5t-14 112.5z" />
<glyph unicode="&#xe31;" d="M-714 1716v128h265v-92q0 -37 22.5 -51t91.5 -14h500l-103 -230h-495q-49 0 -88 6.5t-76 23.5t-62 45.5t-40 75t-15 108.5z" />
<glyph unicode="&#xe32;" horiz-adv-x="1026" d="M59 900v240q49 49 93 72q122 70 248 70q105 0 200 -33.5t168 -94t116 -152.5t43 -202v-800h-272v774q0 57 -16.5 102.5t-43 74.5t-61.5 48.5t-69.5 27.5t-69.5 8q-103 0 -230 -67q-37 -18 -106 -68z" />
<glyph unicode="&#xe33;" horiz-adv-x="1026" d="M-630 1720q0 56 21 105.5t56 85t83.5 56t101.5 20.5q112 0 191 -77t79 -190q0 -108 -79.5 -185.5t-190.5 -77.5q-108 0 -185 77.5t-77 185.5zM-451 1720q0 -35 23 -58.5t57 -23.5q33 0 57.5 24t24.5 58q0 33 -24.5 56.5t-57.5 23.5q-34 0 -57 -23.5t-23 -56.5zM59 900 v240q49 49 93 72q122 70 248 70q105 0 200 -33.5t168 -94t116 -152.5t43 -202v-800h-272v774q0 57 -16.5 102.5t-43 74.5t-61.5 48.5t-69.5 27.5t-69.5 8q-103 0 -230 -67q-37 -18 -106 -68z" />
<glyph unicode="&#xe34;" d="M-1052 1457l100 225h795v-225h-895z" />
<glyph unicode="&#xe35;" d="M-1052 1457l100 233h522v154h273v-387h-895z" />
<glyph unicode="&#xe36;" d="M-1052 1457l98 233h338q-2 7 5 41q13 75 78.5 121t143.5 46q58 0 104 -21t73 -54.5t41 -72t14 -76.5q0 -49 -22.5 -91.5t-57.5 -69t-75 -41.5t-77 -15h-663zM-430 1676.5q0 -15.5 12.5 -28.5t28 -13t28.5 13t13 28.5t-12.5 27.5t-28.5 12t-28.5 -12t-12.5 -27.5z" />
<glyph unicode="&#xe37;" d="M-1052 1457l100 233h307v154h188v-154h81v154h219v-387h-895z" />
<glyph unicode="&#xe38;" d="M-506 -201h144q81 0 139.5 -25t91.5 -78t33 -132v-235h-273v168q0 26 -16.5 45.5t-42.5 19.5h-76v237z" />
<glyph unicode="&#xe39;" d="M-870 -201h168q58 0 112.5 -22t91 -66t36.5 -98q0 -42 9.5 -57t34.5 -15t36 14.5t11 55.5v188h273v-248q0 -24 -3 -46t-12.5 -48t-24.5 -47.5t-41 -42.5t-60.5 -35t-84.5 -23t-112 -9q-148 0 -222.5 56t-74.5 141q0 26 -16.5 45.5t-42.5 19.5h-78v237z" />
<glyph unicode="&#xe3a;" d="M-371 -201h273v-253h-273v253z" />
<glyph unicode="&#xe3f;" horiz-adv-x="1148" d="M100 0v1416h259v225h265l-2 -233q158 -22 252 -120.5t94 -230.5q0 -109 -57.5 -195.5t-162.5 -115.5q135 -24 218 -109t83 -216q0 -162 -119 -279t-306 -139v-227h-265v224h-259zM374 240h147q65 0 116 17.5t80 45t44 58t15 60.5q0 40 -14.5 74.5t-45.5 64.5t-88.5 47 t-135.5 17h-118v-384zM374 870h101q24 0 49 3t57 13t56 26.5t40.5 47t16.5 70.5q0 34 -14 60t-35.5 41.5t-50 25.5t-53 13t-49.5 3h-118v-303z" />
<glyph unicode="&#xe40;" horiz-adv-x="539" d="M100 232v1022h274v-957q0 -3 -0.5 -9.5t-0.5 -9.5t0.5 -8t1 -7.5t2 -6t3.5 -5.5t4.5 -4t6.5 -3t9 -1h82v-243h-165q-43 0 -80 12.5t-68.5 38.5t-50 72.5t-18.5 108.5z" />
<glyph unicode="&#xe41;" horiz-adv-x="1061" d="M100 232v1022h274v-957q0 -3 -0.5 -9.5t-0.5 -9.5t0.5 -8t1 -7.5t2 -6t3.5 -5.5t4.5 -4t6.5 -3t9 -1h82v-243h-185q-86 0 -141.5 59t-55.5 173zM619 232v1022h276v-957v-9.5v-9.5v-8t1 -7.5t2 -6t3 -5.5t5 -4t6.5 -3t8.5 -1h82v-243h-181q-87 0 -145 59.5t-58 172.5z" />
<glyph unicode="&#xe42;" horiz-adv-x="683" d="M189 1566q0 125 108 203t304 78h361v-241h-208q-100 0 -162 -6t-96 -22t-34 -43q0 -28 13.5 -80.5t27 -134t13.5 -180.5v-843v-7q0 -17 1 -24.5t7.5 -14.5t19.5 -8h80v-243h-183q-83 0 -140.5 65.5t-57.5 166.5v908q0 99 -13.5 183.5t-27 144t-13.5 98.5z" />
<glyph unicode="&#xe43;" horiz-adv-x="867" d="M0 1663q28 45 87 104q114 109 243 109q67 0 128 -14t115.5 -44.5t94 -76t63 -113t23.5 -150.5q0 -53 -8.5 -98.5t-18.5 -75.5t-18.5 -90.5t-8.5 -140.5v-768v-7q-1 -17 0 -24.5t7.5 -14.5t19.5 -8h81v-251h-173q-94 0 -150.5 64.5t-56.5 167.5v841q0 92 12.5 169.5 t25 135t12.5 100.5q0 26 -7.5 50.5t-23 48.5t-46.5 38.5t-74 14.5q-90 0 -170 -100q-37 -48 -65 -100z" />
<glyph unicode="&#xe44;" horiz-adv-x="926" d="M0 1606v243q22 0 46 -6t44.5 -15.5t41.5 -23t37 -26t32.5 -28t26 -25l19.5 -19.5t10 -11q18 41 48 75q67 77 177 77q61 0 109.5 -25t79.5 -66t51 -97t28.5 -114.5t8.5 -122.5v-1122v-7q0 -17 1 -24.5t7 -14.5t20 -8h80v-246h-167q-101 0 -157 63.5t-56 168.5v1190 q0 6 0.5 31.5t0 37.5t-2 34.5t-6 34t-11.5 25t-19 18.5t-28 3q-15 -1 -31.5 -16t-27.5 -30t-30 -44l-1.5 -3t-1.5 -2l-2 -2q-30 -50 -48 -93q-19 43 -65 95q-95 95 -214 95z" />
<glyph unicode="&#xe45;" horiz-adv-x="1026" d="M59 900v240q46 46 95 72q122 70 264 70q79 0 153.5 -21t138.5 -62t112.5 -98.5t76.5 -135t28 -165.5v-1159q0 -63 -76 -139q-28 -32 -72 -67h-124v1339q0 50 -12.5 92t-34 69.5t-48 47.5t-56.5 31t-57 16t-52 5q-103 0 -230 -67q-37 -18 -106 -68z" />
<glyph unicode="&#xe46;" horiz-adv-x="1189" d="M59 908q0 71 24.5 138.5t66 119.5t103.5 84t131 32q19 0 42.5 -15t39.5 -31.5t42 -46.5q38 -48 65 -92q33 49 67 92q82 93 128 93q62 0 115.5 -23.5t90.5 -61.5t63.5 -87t39 -100.5t12.5 -101.5v-1267q0 -63 -75 -139q-29 -32 -73 -67h-125v1419q0 181 -75 181 q-8 0 -17.5 -6.5t-23.5 -22t-23.5 -27.5l-28.5 -36q-2 -2 -2.5 -3t-2.5 -3t-3 -4q-31 -45 -67 -103q-14 22 -70 103q-7 8 -17.5 21.5t-16.5 21.5t-14.5 18.5t-14.5 16.5l-12.5 12.5t-11 9t-8.5 2.5q-10 0 -21 -5t-24 -17.5t-21.5 -39.5t-8.5 -65q0 -73 46 -132 q20 -29 49 -41l-93 -219q-76 24 -137 73q-139 108 -139 319z" />
<glyph unicode="&#xe47;" d="M-1008 1690q0 68 23.5 119t65.5 81.5t94 46t116 18.5l217 5q103 0 198 75q38 27 75 73v-256q-34 -17 -75 -28q-103 -26 -198 -26h-189q-74 0 -104.5 -31t-30.5 -77q0 -29 21.5 -55t59.5 -26q53 0 86 54q16 33 22 57h67q4 -33 16 -57q8 -24 22.5 -39t31.5 -15 q39 0 60.5 31t21.5 80h189q0 -49 -16.5 -95.5t-46.5 -84t-77 -60.5t-103 -23q-51 0 -100 49q-25 24 -39 49q-17 -30 -39 -49q-63 -49 -123 -49q-65 0 -120 26t-90 80t-35 127z" />
<glyph unicode="&#xe48;" d="M-371 1457v387h273v-387h-273z" />
<glyph unicode="&#xe49;" d="M-781 1609v235h278q41 0 74.5 -30t33.5 -70q0 -23 16 -38.5t38 -15.5h424l-96 -233h-493q-52 0 -89 24t-37 74q0 54 -49 54h-100z" />
<glyph unicode="&#xe4a;" d="M-939 1609q0 55 23 101.5t59 75.5t78.5 45t84.5 16q45 0 91 -52q23 -35 30 -51q15 34 29 49q40 51 93 51q35 0 71.5 -11t65.5 -28.5t47.5 -41t18.5 -47.5q0 -6 0.5 -11t2 -7.5t2.5 -4.5t5 -2.5t5 -1t6.5 0t7.5 0.5h302l-96 -233h-284q-35 0 -61.5 16t-40.5 40.5t-20 48.5 t-6 47q0 21 -5.5 39t-18 30t-29.5 12q-22 0 -34 -13t-14.5 -28.5t-2.5 -39.5h-85q0 15 -0.5 23t-3 20.5t-8 19.5t-16 12.5t-26.5 5.5q-22 0 -38 -24.5t-16 -56.5q0 -54 51 -106q27 -26 55 -46h-241q-22 19 -41 46q-41 59 -41 106z" />
<glyph unicode="&#xe4b;" d="M-506 1530v237h135v77h273v-79h134v-235h-134v-73h-273v73h-135z" />
<glyph unicode="&#xe4c;" d="M-686 1457v101q0 65 40.5 131.5t109 110.5t141.5 44h225l-103 -235h-49q-28 0 -45.5 -6.5t-27 -21t-13 -32.5t-3.5 -46v-46h-275z" />
<glyph unicode="&#xe4d;" d="M-630 1716q0 112 77 191.5t185 79.5q112 0 191 -79.5t79 -191.5q0 -71 -36 -131t-98.5 -95t-135.5 -35q-108 0 -185 76.5t-77 184.5zM-451 1716q0 -23 10 -41.5t28.5 -29t41.5 -10.5q33 0 57.5 23.5t24.5 57.5q0 33 -24.5 57.5t-57.5 24.5q-34 0 -57 -24.5t-23 -57.5z " />
<glyph unicode="&#xe4e;" d="M-733 1602q0 51 17 93t45 70t65 47.5t75.5 28t79.5 8.5q0 55 45 94.5t115.5 58t158.5 18.5v-142q-33 0 -60 -7t-50.5 -24t-39.5 -44t-25.5 -68.5t-9.5 -96.5q-153 0 -153 -103q0 -41 21 -62q13 -13 21 -16h-250q-9 8 -17 20.5t-17 30.5t-15 43t-6 51z" />
<glyph unicode="&#xe4f;" horiz-adv-x="1313" d="M100 529.5q0 114.5 43.5 218t118 177.5t177.5 117.5t218 43.5t218.5 -43.5t177.5 -117.5t117.5 -177.5t43.5 -218t-43.5 -217.5t-117.5 -176.5t-177.5 -116.5t-218.5 -43t-218 43t-177.5 116.5t-118 176.5t-43.5 217.5zM294 529q0 -97 49.5 -180.5t133 -132t180.5 -48.5 q100 0 183.5 48.5t131 132t47.5 180.5q0 75 -28 142.5t-76 116t-115.5 76.5t-142.5 28q-97 0 -180.5 -47.5t-133 -131.5t-49.5 -184zM411 529q0 103 71.5 175t174.5 72t174.5 -72t71.5 -175t-71.5 -174t-174.5 -71t-174.5 71t-71.5 174z" />
<glyph unicode="&#xe50;" horiz-adv-x="1256" d="M59 529q0 90 29.5 175.5t83 155t123 122t155 81.5t174.5 29q115 0 221 -45.5t183 -121.5t123 -179.5t46 -216.5q0 -114 -47 -217.5t-126 -177.5t-185.5 -117t-222.5 -43q-114 0 -217.5 43t-177.5 117t-118 177t-44 218zM330 529q0 -37 7.5 -73t22.5 -67.5t35 -59t46 -50 t55.5 -38t63.5 -24t70 -8.5q80 0 149 43t110.5 117t41.5 160t-41.5 160.5t-110.5 118t-149 43.5q-83 0 -152 -43.5t-108.5 -117.5t-39.5 -161z" />
<glyph unicode="&#xe51;" horiz-adv-x="1256" d="M59 627q0 91 43.5 175.5t117 147.5t176 101t215.5 38q124 0 232 -42.5t186 -119t123 -189.5t45 -248q0 -90 -24 -170t-65.5 -138.5t-96.5 -107.5t-115 -81t-123.5 -54.5t-121 -32t-107.5 -9.5q-6 0 -67 1.5t-69 1.5l67 232h12q51 0 108.5 13t116.5 42.5t106 70t76.5 101 t29.5 131.5q0 88 -25.5 157.5t-69.5 112t-99.5 64.5t-118.5 22q-54 0 -101 -14.5t-79 -37.5t-54.5 -52t-33 -58.5t-10.5 -56.5q0 -85 34 -130.5t69 -45.5t45.5 26t10.5 80v52h274v-103q0 -34 -7 -68t-29 -76.5t-56.5 -74.5t-96 -54t-141.5 -22q-39 0 -81 11t-84.5 32.5 t-80 56.5t-67 79.5t-47 105.5t-17.5 131z" />
<glyph unicode="&#xe52;" horiz-adv-x="1540" d="M18 1387v241h41q77 0 148 -30.5t122.5 -78.5t90.5 -106.5t58.5 -116.5t19.5 -107v-740q0 -65 17 -112.5t46 -72.5t59.5 -36.5t63.5 -11.5h354q76 0 123 46t47 138v276q0 35 -1.5 61.5t-7 60.5t-15.5 56.5t-28.5 38t-44.5 15.5q-49 0 -87 -54q-5 -7 -11.5 -16t-13.5 -20 t-12 -18q-20 36 -35 54q-38 54 -85 54q-37 0 -60 -35t-23 -84q0 -19 6 -35.5t14 -28t24 -21t28 -15t34 -9.5t34 -5.5t36 -2.5t32 -1h30v-243q-58 0 -98 2t-91 9.5t-85 22t-70 41.5t-57 64.5t-34.5 94t-13.5 127.5q0 31 8 69t27.5 80.5t48 77.5t74 58t99.5 23q37 0 64 -17 t55 -48q25 -29 41 -64q21 38 48 64q64 65 133 65q64 0 118 -27.5t88.5 -71t58.5 -100t34.5 -112.5t10.5 -110v-292q0 -131 -56.5 -224t-153.5 -138.5t-224 -45.5h-431q-48 0 -99 16.5t-100 51t-88 82t-62.5 115t-23.5 143.5v813q0 47 -9 79.5t-32.5 59t-68.5 39t-115 12.5z " />
<glyph unicode="&#xe53;" horiz-adv-x="1529" d="M59 536q0 169 46 292t140.5 192t229.5 69q131 0 234 -145q41 -59 67 -144q26 85 67 144q93 145 230 145q85 0 158 -39.5t126 -110t83 -175t30 -228.5q0 -203 -83 -396q-32 -73 -82 -140h-258q41 62 75 154q75 175 75 382q0 150 -44.5 231.5t-117.5 81.5q-53 0 -85 -44.5 t-46 -131t-14 -224.5h-250q0 194 -34.5 297t-110.5 103q-19 0 -38 -7.5t-41.5 -28.5t-39 -54t-27.5 -91t-11 -132q0 -152 59.5 -236t164.5 -84q46 0 101 14q20 3 51 13v-219q-8 -9 -38 -27q-55 -23 -116 -23q-70 0 -139.5 21t-135 67t-115.5 110.5t-80.5 159t-30.5 204.5z " />
<glyph unicode="&#xe54;" horiz-adv-x="1486" d="M59 521q0 55 6 108t19.5 107.5t34.5 102t53.5 90t74 72t98 47t122.5 17.5h425q38 0 67 4.5t59 18t49.5 36t31.5 61.5t12 91v357l276 -5l-2 -441q0 -76 -23 -137t-60.5 -100.5t-88.5 -66.5t-104.5 -38.5t-110.5 -11.5h-446q-73 0 -124 -44.5t-73 -114.5t-22 -158 q0 -141 46.5 -207t164.5 -66l372 -3q-67 35 -135 98q-136 131 -136 294h282q0 -112 42 -201t116 -138.5t166 -49.5h136v-243h-909q-118 0 -214.5 71t-150.5 190.5t-54 259.5z" />
<glyph unicode="&#xe55;" horiz-adv-x="1491" d="M59 516q0 78 12.5 152t43 147t75 128t115 88.5t157.5 33.5h54q-8 32 -8 49q0 68 34.5 125.5t93 91.5t127.5 34q103 0 177 -74t74 -177q0 -25 -3 -30q22 9 38.5 20.5t27.5 23.5t18.5 30.5t12 34t6.5 43t2.5 48t0.5 57.5v292h276v-428q0 -56 -10 -104t-28 -85.5t-44 -68 t-58 -51.5t-69 -35.5t-77.5 -21t-84.5 -6.5h-457q-74 0 -126.5 -44.5t-76.5 -114.5t-24 -158q0 -136 45.5 -204.5t155.5 -68.5h382q-65 30 -134 95q-135 129 -135 294h281q0 -81 29 -155.5t73 -124.5t97.5 -79.5t103.5 -29.5h157v-243h-909q-72 0 -139 30t-118 81t-89 117 t-58.5 140.5t-20.5 147.5zM681 1097q0 -35 23.5 -58t58.5 -23h8q15 3 28.5 10t23 17t15 24t5.5 30q0 33 -23.5 57.5t-56.5 24.5q-34 0 -58 -24.5t-24 -57.5z" />
<glyph unicode="&#xe56;" horiz-adv-x="1675" d="M18 1387v243h57q65 0 121.5 -11.5t103 -31.5t88 -51.5t74 -67t61.5 -83t51.5 -94t44 -106t37.5 -113.5t33 -120q40 45 87 72q127 73 276 73q109 0 202 -30t159 -82t112.5 -121t69 -147t22.5 -160q0 -89 -24 -174t-72 -158.5t-114.5 -129t-158 -87.5t-196.5 -32 q-73 0 -140 18t-120 50t-98 72.5t-80 89.5t-61 97t-45 100h279q37 -89 109 -138t156 -49q33 0 71 11.5t77.5 38.5t71 65t52 97t20.5 129q0 68 -25.5 125t-67 93.5t-93 56t-106.5 19.5q-50 0 -92 -15t-72 -41t-54 -64t-39 -79.5t-27 -91.5h-252q-27 120 -46.5 199.5 t-44.5 168t-47 144.5t-50.5 113.5t-59 90.5t-68.5 61t-82.5 39t-99.5 11z" />
<glyph unicode="&#xe57;" horiz-adv-x="2007" d="M59 536q0 248 104.5 391.5t274.5 143.5q41 0 78.5 -14.5t64.5 -35.5t52.5 -52t41 -56t30.5 -57.5t20 -46t11 -30.5q1 -4 2 -5q0 4 7.5 26t22.5 56t40 71t56 69.5t75.5 53.5t92.5 21q83 0 152.5 -36t120.5 -102.5t80 -168.5t29 -228q0 -115 -7.5 -166t-33.5 -115 q64 8 94.5 61t30.5 171v741q0 97 33.5 174t94 126.5t143.5 75.5t183 26h37v-243q-47 0 -81.5 -4t-58.5 -14t-39 -22.5t-23 -33t-11 -42t-3 -51.5v-815q0 -77 -26 -144.5t-67.5 -114t-93.5 -80.5t-105.5 -50t-102.5 -16h-400q47 72 82 154q80 187 80 382q0 155 -30.5 222 t-103.5 67q-160 0 -160 -319h-219q0 143 -44 231t-116 88q-22 0 -39 -5t-36 -22.5t-31 -47.5t-20 -84.5t-8 -129.5q0 -147 63 -233.5t156 -86.5q37 0 103 16q41 12 56 19v-227l-56 -24q-60 -24 -106 -24q-102 0 -193.5 44.5t-156 120t-102.5 178.5t-38 217z" />
<glyph unicode="&#xe58;" horiz-adv-x="1491" d="M59 536q0 82 19.5 159t58.5 144t94 117.5t131 79.5t165 29h373q37 0 66.5 5t59.5 19t49.5 37t31.5 62t12 91v354h274v-397q0 -96 -25.5 -169.5t-65 -117.5t-95 -72.5t-109.5 -38.5t-115 -10h-359q-74 0 -130 -23.5t-89.5 -65t-50 -95t-16.5 -117.5q0 -145 44.5 -228 t107.5 -83q18 0 35.5 8t32 21.5t28 32t24 38.5t20.5 43q24 54 46 144q32 -82 78 -144q101 -143 206 -143q23 0 42.5 3.5t38 11.5t31.5 22.5t23.5 35.5t16 51.5t5.5 70.5v71h276v-71q0 -61 -9 -113.5t-29 -102.5t-53.5 -89t-80.5 -68.5t-113.5 -45.5t-147.5 -16 q-126 0 -217 86q-39 35 -67 90q-19 -52 -49 -90q-70 -86 -168 -86q-56 0 -113 25t-108 74.5t-91 116t-64 156t-24 188.5z" />
<glyph unicode="&#xe59;" horiz-adv-x="1783" d="M59 536q0 97 25 186t65 154t90 114t101.5 74t97.5 25q50 0 94 -13.5t80.5 -40t62.5 -52t55 -62.5q8 116 70.5 185.5t164.5 69.5q51 0 100.5 -19.5t87.5 -47t71.5 -55.5t64.5 -47.5t55 -19.5q15 0 26 9.5t18 32t11.5 46t6 65t2 74.5t0.5 89v330h276v-330 q0 -55 -2.5 -102.5t-11 -106t-22.5 -105.5t-39 -94t-58.5 -78.5t-83 -51t-110.5 -19.5q-58 0 -112.5 19.5t-93.5 47.5t-73 55.5t-64.5 46t-53.5 16.5q-70 -19 -70 -93q0 -22 2 -28l44 -147q29 -91 189 -663h-268l-202 714q-16 57 -64 100t-96 43q-13 0 -27 -4t-30 -14.5 t-30.5 -26t-28.5 -41t-24 -58t-16 -78t-6 -99.5q0 -97 25.5 -170t70.5 -111.5t103 -38.5q40 0 100 22q46 19 52 22v-234q-2 -1 -12 -7t-14 -8.5t-15 -8t-18.5 -8.5t-21 -7t-26 -6t-29 -3.5t-35.5 -1.5q-68 0 -135.5 28.5t-124.5 80.5t-100.5 120.5t-68.5 154.5t-25 176z" />
<glyph unicode="&#xe5a;" horiz-adv-x="1574" d="M59 1254h271q12 -51 22.5 -84t27 -66t37.5 -51.5t52 -30t72 -11.5q94 0 165.5 63t101.5 180h263v-813q0 -83 -9 -145.5t-33.5 -120.5t-66 -94.5t-109.5 -58.5t-161 -22v243h16q17 -1 25 -0.5t19.5 3.5t16 9t11.5 18t9 29t4.5 44.5t3 61.5t0.5 82v384q-33 -33 -70 -52 q-87 -51 -221 -51q-81 0 -150 27.5t-118 73.5t-86.5 109.5t-59 131t-33.5 141.5zM1203 0v1254h273v-1254h-273z" />
<glyph unicode="&#xe5b;" horiz-adv-x="2043" d="M100 513q0 89 21.5 171t66 155t108.5 127.5t155.5 86t200.5 31.5q81 0 150.5 -19.5t120 -53.5t86 -72.5t62.5 -84.5q56 -92 77 -230h-264q-9 51 -43 111q-71 114 -189 114q-52 0 -101 -23t-88 -64.5t-63 -106t-24 -142.5q0 -73 26 -132t68 -94.5t92 -54t101 -18.5 q90 0 188 78q39 30 80 82l140 -134l105 136l127 -136l116 144q22 -38 59 -87q71 -86 134 -86q19 0 34 5.5t23.5 15t13 20.5t4.5 24q0 50 -52 116q-20 29 -48 49h265q33 -27 46 -46q46 -73 46 -144q0 -30 -9.5 -65t-33 -72.5t-56.5 -68t-85 -50t-114 -19.5q-79 0 -160 86 q-31 35 -59 90l-111 -136l-124 136l-106 -136l-140 136q-33 -56 -76 -90q-99 -88 -207 -88q-101 0 -191 30t-157 82.5t-116 121t-74 147t-25 158.5z" />
<glyph unicode="&#x2000;" horiz-adv-x="1216" />
<glyph unicode="&#x2001;" horiz-adv-x="2433" />
<glyph unicode="&#x2002;" horiz-adv-x="1216" />
<glyph unicode="&#x2003;" horiz-adv-x="2433" />
<glyph unicode="&#x2004;" horiz-adv-x="811" />
<glyph unicode="&#x2005;" horiz-adv-x="608" />
<glyph unicode="&#x2006;" horiz-adv-x="405" />
<glyph unicode="&#x2007;" horiz-adv-x="405" />
<glyph unicode="&#x2008;" horiz-adv-x="304" />
<glyph unicode="&#x2009;" horiz-adv-x="486" />
<glyph unicode="&#x200a;" horiz-adv-x="135" />
<glyph unicode="&#x2010;" horiz-adv-x="836" d="M100 513v225h638v-225h-638z" />
<glyph unicode="&#x2011;" horiz-adv-x="836" d="M100 513v225h638v-225h-638z" />
<glyph unicode="&#x2012;" horiz-adv-x="836" d="M100 513v225h638v-225h-638z" />
<glyph unicode="&#x2013;" horiz-adv-x="1120" d="M100 513v225h922v-225h-922z" />
<glyph unicode="&#x2014;" horiz-adv-x="1635" d="M100 513v225h1435v-225h-1435z" />
<glyph unicode="&#x2018;" horiz-adv-x="472" d="M100 973v206q0 127 111 248q42 45 114 95h289q-70 -46 -122 -98q-118 -119 -118 -245v-206h-274z" />
<glyph unicode="&#x2019;" horiz-adv-x="475" d="M-137 973q61 40 119 98q118 118 118 242v209h276v-209q0 -118 -113 -242q-49 -53 -114 -98h-286z" />
<glyph unicode="&#x201c;" horiz-adv-x="851" d="M100 973v206q0 127 111 248q42 45 114 95h256q-65 -48 -111 -98q-108 -124 -108 -245v-206h-262zM490 973v206q0 126 121 248q40 39 124 95h258q-74 -48 -123 -98q-119 -119 -119 -245v-206h-261z" />
<glyph unicode="&#x201d;" horiz-adv-x="854" d="M-137 973q61 40 119 98q118 118 118 242v209h262v-209q0 -118 -124 -242q-53 -53 -122 -98h-253zM271 973q56 42 108 98q111 127 111 242v209h264v-209q0 -118 -114 -242q-48 -53 -113 -98h-256z" />
<glyph unicode="&#x2022;" horiz-adv-x="782" d="M100 630q0 123 85.5 208.5t209.5 85.5q120 0 204.5 -85.5t84.5 -208.5q0 -120 -85 -204.5t-204 -84.5q-124 0 -209.5 84t-85.5 205z" />
<glyph unicode="&#x2026;" horiz-adv-x="1607" d="M100 0v251h274v-251h-274zM668 0v251h273v-251h-273zM1236 0v251h273v-251h-273z" />
<glyph unicode="&#x202f;" horiz-adv-x="486" />
<glyph unicode="&#x205f;" horiz-adv-x="608" />
<glyph unicode="&#x20ac;" horiz-adv-x="1486" d="M100 438v186h138l-3 68q0 51 3 82h-138v188h173q175 473 687 473q273 0 427 -73l-95 -237q-149 72 -338 72q-132 0 -232.5 -61.5t-148.5 -173.5h503v-188h-563q-5 -61 -5 -82q0 -47 3 -68h511v-186h-454q33 -60 82.5 -106t103.5 -70.5t104 -36t96 -11.5q50 0 94 7.5 t90 25t74 30.5t80 40l95 -234q-182 -107 -460 -107q-153 0 -286.5 53.5t-231.5 159.5t-133 249h-176z" />
<glyph unicode="&#x2122;" horiz-adv-x="1063" d="M100 1313v65h336v-65h-128v-413h-76v413h-132zM478 900v478h90l154 -359l162 359h81v-478h-65v357l-167 -357h-27l-154 357v-357h-74z" />
<glyph unicode="&#xe000;" horiz-adv-x="1066" d="M0 0v1068h1068v-1068h-1068z" />
<glyph horiz-adv-x="869" />
<glyph horiz-adv-x="1234" d="M51 1014q26 68 98 132q152 136 408 136q109 0 235 -46q55 18 81.5 59t26.5 113h273q0 -104 -58.5 -191t-136.5 -111q95 -85 146.5 -209.5t51.5 -244.5q0 -133 -34 -242.5t-92 -184.5t-138 -126.5t-170.5 -75t-189.5 -23.5h-127l-103 411q-9 24 -15.5 31t-27.5 7h-70v245 h129q30 0 53.5 -2.5t54.5 -14t54.5 -31t45.5 -56.5t35 -87l64 -257q44 0 89.5 31.5t83 84.5t61.5 130t24 160q0 51 -8 95.5t-22 78.5t-34 63t-42 50t-48 37.5t-51 26.5t-50.5 17t-47.5 9.5t-43 2.5q-185 0 -322 -126q-57 -50 -95 -125z" />
<glyph horiz-adv-x="1973" d="M59 936q57 103 127 173q173 173 403 173q63 0 125 -9.5t120 -28.5t109.5 -45.5t94 -62.5t73.5 -78.5t48 -94.5t17 -109v-424q0 -48 6.5 -84.5t22.5 -67t45 -46.5t71 -16h114q83 0 124 59t41 155v824h273v-813q0 -65 -13.5 -128.5t-44.5 -125t-77 -108t-117 -75 t-158 -28.5h-217q-72 0 -131 25t-98.5 67.5t-66 102t-38.5 127t-12 143.5v359q0 78 -41 132.5t-106.5 78.5t-149.5 24q-121 0 -198 -52q-32 -23 -46 -47l165 -136q-18 -15 -42 -49q-44 -73 -44 -168l-2 -283q0 -3 -0.5 -11t0 -10.5t0.5 -8.5t1 -8l3 -6t5 -5.5t7 -3t10 -1.5 h92v-246h-149q-123 -2 -180 60.5t-57 171.5v351q0 87 23 160q10 27 25 57q-21 17 -79 67q-78 63 -78 69z" />
<glyph d="M-1138 1692q0 137 78.5 200t218.5 63h163q99 0 196 67q40 25 77 70l2 -237q-38 -17 -79 -28q-103 -27 -196 -27h-135q-74 0 -105 -31t-31 -77q0 -30 13 -55t41 -25q54 0 73 54q12 24 12 54h51q4 -31 16 -54q19 -54 65 -54q36 0 58 38t22 70h187q0 -57 -16.5 -105 t-47.5 -83t-76.5 -55t-100.5 -20q-48 0 -96 49q-21 21 -39 52q-17 -40 -26 -52q-44 -49 -108 -49q-92 0 -154.5 63t-62.5 172z" />
<glyph d="M-595 2120l2 235h268q27 0 52 -13.5t41 -37t16 -49.5q0 -23 15.5 -39t38.5 -16h299l-101 -235h-341q-61 0 -98.5 29.5t-37.5 71.5q0 54 -49 54h-105z" />
<glyph d="M-700 2058q0 47 16.5 87.5t42.5 67.5t57.5 46t61 27.5t55.5 8.5q23 0 41 -13.5t37 -37.5q2 -5 12.5 -23t14.5 -28q10 22 29 51q40 51 90 51q61 0 108.5 -34t72.5 -94l3.5 -10.5t4 -7.5t3.5 -4.5t4 -2.5t4 -1h6h7l167 -3l-101 -232h-147q-69 0 -98 30.5t-29 77.5 q0 19 -2 37.5t-7.5 39.5t-17.5 34t-29 13q-22 0 -31.5 -23t-9.5 -57h-54q0 31 -10.5 55.5t-30.5 24.5q-23 0 -38.5 -24.5t-15.5 -55.5q0 -43 43 -106q27 -32 46 -46h-219q-16 14 -43 46q-43 61 -43 106z" />
<glyph horiz-adv-x="2146" d="M59 936q51 91 132 173q179 173 412 173q158 0 295 -58t211 -161q20 30 43.5 57t62.5 58t83 53t106.5 36.5t133.5 14.5q64 0 126.5 -15t119 -43t104.5 -70t83 -94.5t55 -119t20 -140.5v-1159q0 -63 -75 -139q-29 -32 -73 -67h-128v1339q0 60 -18 107.5t-45.5 75.5 t-63.5 46.5t-68 25t-64 6.5q-62 0 -114.5 -12t-86 -30.5t-59.5 -42.5t-40 -46t-22 -43.5t-10.5 -32.5t-2.5 -15v-1172q0 -63 -75 -139q-25 -28 -74 -67h-124v1365q0 53 -17 94.5t-45.5 67.5t-69 43t-84 23.5t-94.5 6.5q-103 0 -180 -52q-36 -25 -51 -47l162 -136 q-2 0 -7.5 -4.5t-13 -14.5t-16.5 -23t-17.5 -32t-15.5 -39.5t-11.5 -47.5t-4.5 -56v-281q0 -18 5.5 -30t13 -18t21 -8.5t23.5 -2t27.5 1.5t25.5 1v-243h-165q-101 0 -160 59t-59 170v351q0 78 21 160q10 27 25 57q-21 17 -79 67q-78 63 -78 69z" />
<glyph horiz-adv-x="2146" d="M59 936q44 92 124 173q173 173 431 173q136 0 276.5 -60.5t218.5 -164.5q14 24 32.5 47t45.5 50t62 48.5t77 40t96.5 29t115.5 10.5q64 0 126.5 -15t119 -43t104.5 -70t83 -94.5t55 -119t20 -140.5v-1159q0 -63 -75 -139q-29 -32 -73 -67h-128v1339q0 60 -18 107.5 t-45.5 75.5t-63.5 46.5t-68 25t-64 6.5q-68 0 -123 -14t-89 -35t-59 -50t-37 -53t-18.5 -50.5t-7.5 -37t-1 -16.5v-1138q0 -63 -75 -139q-25 -28 -74 -67h-124v1365q0 109 -78.5 172t-202.5 63q-118 0 -206 -52q-34 -18 -54 -47l165 -136q-23 -19 -40 -49q-38 -74 -38 -168 v-351q0 -100 -58.5 -164.5t-152.5 -64.5q-29 0 -87 -1.5t-86 -1.5v243h82q4 1 8 3.5t7 6.5t5 7.5t3 9.5t2 10t1 11.5v11.5v12.5v11.5l-3 256q-2 68 21 160q10 27 25 57q-21 17 -79 67q-78 63 -78 69z" />
</font>
</defs>
</svg>
