<?xml version="1.0" standalone="no"?>
<!DOCTYPE svg PUBLIC "-//W3C//DTD SVG 1.1//EN" "http://www.w3.org/Graphics/SVG/1.1/DTD/svg11.dtd" >
<svg xmlns="http://www.w3.org/2000/svg">
<metadata></metadata>
<defs>
<font id="thaisans_neue_extltregular" horiz-adv-x="0" >
<font-face units-per-em="2048" ascent="1528" descent="-520" />
<missing-glyph horiz-adv-x="988" />
<glyph unicode="&#x3b;&#x3b;arm&#x3b;&#x3b;" horiz-adv-x="3148" d="M114 1905v123h490v246q-69 0 -125.5 73.5t-56.5 170.5q0 70 35.5 127.5t91 88t117.5 30.5q117 0 181.5 -64t64.5 -182q0 -57 -20.5 -110t-63.5 -91.5t-100 -42.5v-246h492v-123h-492v-369l330 -738h-124l-268 615l-267 -615h-123l328 738v369h-490zM237 0q0 36 12.5 72.5 t37 69t67.5 52.5t98 20q92 0 153 -61t61 -153q0 -117 -82 -176l67 -313l169 339h62l168 -339l108 642h153l-48 -258l33 61l200 47q0 214 33 342t99.5 183.5t174.5 55.5q89 0 137 -59.5t48 -155.5h-62q0 50 -24 86.5t-68 36.5q-77 0 -125 -51t-69.5 -150.5t-21.5 -256.5 l226 54l26 -112l-252 -64v-124q0 -138 -3.5 -233.5t-15 -198.5t-34.5 -168.5t-59.5 -121t-93 -81.5t-131.5 -26q-96 0 -155.5 47.5t-59.5 137.5h62q0 -44 36.5 -69t86.5 -25q36 0 66 8.5t53 28.5t41 40.5t31 60t22.5 69.5t15 86.5t9 94.5t5 109.5t2 115t0.5 125.5v92 l-245 -62l-105 -552h-80l-216 461l-214 -461h-80l-98 491l55 37q-3 -2 -18 -2q-9 -4 -43 -4q-25 0 -52 6.5t-56.5 22.5t-53 39.5t-38.5 61t-15 82.5zM360 0q0 -37 24 -62.5t68 -25.5q91 0 91 88q0 92 -91 92q-45 0 -68.5 -26.5t-23.5 -65.5zM543 2518q0 -52 29 -87t94 -35 t94 35t29 87q0 66 -35 95t-88 29t-88 -29t-35 -95zM1251 798l699 1905h530l613 -1905h-491l-187 585h-827l-216 -585h-121zM1650 1536h712l-334 1044zM2046 62l62 307h91l-91 -307h-62zM2132 2612l40 -120l70 120h-110zM2193 2436l25 -86l160 262h-77zM2199 62l61 307h94 l-94 -307h-61zM2240 2292l34 -111l171 289l-33 104zM2304 2090l18 -62l172 285l-18 61zM2348 1954l18 -61l172 285l-20 62zM2386 -304q0 151 47.5 284.5t133.5 216t189 82.5q162 0 249.5 -112t87.5 -317q0 -149 -27.5 -260.5t-80 -182t-125.5 -106t-166 -35.5 q-61 0 -114.5 25t-97.5 74t-70 134t-26 197zM2392 1812l20 -62l171 284l-21 64zM2433 1689l21 -73l172 286l-20 74zM2476 1548l22 -62l169 287l-17 61zM2510 -243l430 185q-4 55 -24 104q-49 107 -160 107q-133 0 -203 -199q-30 -83 -43 -197zM2510 -396q0 -36 11 -72.5 t33 -69.5t58.5 -53.5t81.5 -20.5q44 0 80 16.5t61 46.5t42 63t31 75q28 88 32 199zM2518 1410l20 -50l171 281l-15 59zM2559 1290l18 -50l173 284l-18 52zM2600 1167l18 -59l175 281l-19 65zM2638 1044l23 -70l171 289l-21 67zM2679 921l9 -30h40l144 243l-20 74zM2776 891 h62l75 126l-23 61zM2888 891h61l-21 67z" />
<glyph unicode=" "  horiz-adv-x="988" />
<glyph unicode="&#x09;" horiz-adv-x="988" />
<glyph unicode="&#xa0;" horiz-adv-x="988" />
<glyph unicode="!" horiz-adv-x="352" d="M114 0v129h126v-129h-126zM114 328v1223h126v-1223h-126z" />
<glyph unicode="&#x22;" horiz-adv-x="690" d="M114 1106v445h132v-445h-132zM405 1106v445h132v-445h-132z" />
<glyph unicode="#" horiz-adv-x="1618" d="M114 454l24 96h234l98 382h-233l24 94h237l117 434h119l-119 -434h491l116 434h120l-116 -434h264l-24 -94h-264l-102 -382h260l-24 -96h-260l-120 -454h-120l120 454h-490l-120 -454h-118l118 454h-232zM492 550h488l98 382h-486z" />
<glyph unicode="$" horiz-adv-x="1152" d="M114 80v108q6 -4 23.5 -13t26 -13.5t23 -11t27.5 -12t26 -9.5q130 -59 300 -59q173 0 272.5 86.5t99.5 251.5q0 73 -27.5 128.5t-73.5 90.5t-106 62.5t-126 48.5t-132 43t-126 52t-106 69.5t-73.5 101.5t-27.5 142q0 61 23.5 115t64 93t93.5 67.5t112 44t121 18.5v234 h120v-234q180 -15 249 -40q40 -12 79 -34v-108q-52 29 -97 44q-156 46 -307 46q-81 0 -156.5 -31t-125.5 -89t-50 -129q0 -61 27.5 -107.5t73.5 -77t106 -55.5t126 -47t132 -45.5t126 -58t106 -78.5t73.5 -112t27.5 -154q0 -67 -10.5 -123t-37.5 -109t-70.5 -92t-112 -67 t-159.5 -38v-234h-117v225q-175 11 -319 60q-53 19 -98 50z" />
<glyph unicode="%" horiz-adv-x="1701" d="M114 1260q0 210 74.5 315t198.5 105q116 0 185.5 -99.5t69.5 -308.5q0 -193 -79 -297.5t-191 -104.5q-115 0 -186.5 98.5t-71.5 291.5zM234 1266q0 -73 7.5 -127t19.5 -87t31.5 -53t40.5 -27.5t48 -7.5q147 0 147 305q0 317 -147 317t-147 -320zM344 0l998 1803h130 l-1002 -1803h-126zM1060 350q0 106 21.5 187.5t59 130t85.5 73t104 24.5t102 -23.5t81.5 -71t55 -126t19.5 -181.5t-21 -181.5t-59 -126.5t-86.5 -71.5t-105.5 -23.5q-53 0 -98.5 23t-81 69.5t-56 122.5t-20.5 175zM1182 354q0 -81 8.5 -138.5t21 -88.5t33.5 -48.5t39 -22 t43.5 -4.5t45 6t39.5 24.5t33 50.5t21 89t8 135q0 80 -8 138t-21 91t-33 52.5t-39.5 25t-44.5 5.5q-32 0 -55 -11t-45 -42t-34 -97t-12 -165z" />
<glyph unicode="&#x26;" horiz-adv-x="1642" d="M114 369q0 169 81.5 285t258.5 196q-18 14 -35.5 28.5t-37 33.5t-35.5 39.5t-31 45.5t-25.5 51.5t-16.5 58t-6 63.5q0 80 30.5 142.5t84 100.5t122.5 57.5t150 19.5q67 0 129.5 -19.5t113 -54.5t81 -91t30.5 -123q0 -138 -79.5 -224.5t-248.5 -145.5q67 -31 130 -76 t110 -90.5t93 -101.5t75.5 -100t60.5 -95q104 141 171.5 327t56.5 300l-5 30h126q-8 -178 -84.5 -370.5t-203.5 -370.5q37 -46 65.5 -75.5t67 -57t84.5 -40.5t103 -13v-99q-44 0 -83.5 6t-68.5 13.5t-61 25.5t-50 29.5t-46.5 38t-41 39.5t-42.5 44q-99 -108 -239.5 -165.5 t-307.5 -57.5q-242 0 -359 96.5t-117 299.5zM240 369q0 -156 87 -228.5t263 -72.5q138 0 268.5 54t213.5 151q-17 24 -45.5 66.5t-48.5 71.5t-51 70t-57 70.5t-62 64.5t-72 61t-80.5 50t-93.5 41q-94 -35 -151 -67t-98 -78t-57 -106t-16 -148zM393 1170q0 -86 47.5 -164 t145.5 -130q153 52 224.5 134t71.5 200q0 43 -25 78t-62 55.5t-74 31.5t-67 11q-123 0 -192 -60.5t-69 -155.5z" />
<glyph unicode="'" horiz-adv-x="352" d="M114 1106v445h126v-445h-126z" />
<glyph unicode="(" horiz-adv-x="567" d="M68 554q0 297 86.5 547t267.5 462h94q-178 -216 -256 -461.5t-78 -551.5q0 -289 79 -531.5t255 -448.5h-94q-174 186 -264 437.5t-90 546.5z" />
<glyph unicode=")" horiz-adv-x="567" d="M18 1563h99q121 -142 199.5 -301.5t116 -334.5t37.5 -373q0 -596 -350 -984h-99q177 207 255 447.5t78 536.5q0 294 -80 544t-256 465z" />
<glyph unicode="*" horiz-adv-x="828" d="M114 1161l249 129l-249 129l100 138l176 -165l-33 243h171l-36 -246l182 168l100 -138l-252 -129l252 -129l-100 -138l-182 169l36 -246h-171l33 244l-176 -167z" />
<glyph unicode="+" horiz-adv-x="1090" d="M114 556v101h384v409h94v-409h384v-101h-384v-372h-94v372h-384z" />
<glyph unicode="," horiz-adv-x="352" d="M-27 -334q7 11 18 29t18.5 31t17 29t17.5 31q70 131 70 196v156h126v-156q0 -93 -99 -216q-38 -53 -97 -100h-71z" />
<glyph unicode="-" horiz-adv-x="768" d="M114 584v108h540v-108h-540z" />
<glyph unicode="." horiz-adv-x="352" d="M114 0v138h126v-138h-126z" />
<glyph unicode="/" horiz-adv-x="651" d="M21 0l480 1803h114l-480 -1803h-114z" />
<glyph unicode="0" horiz-adv-x="1212" d="M68 700q0 196 41 348.5t114.5 248t171 144.5t214.5 49q90 0 169.5 -28t147 -88t116.5 -147.5t76.5 -213.5t27.5 -279q0 -151 -31 -277.5t-84.5 -214.5t-126 -149.5t-154 -90.5t-170.5 -29q-112 0 -204.5 44t-162 131t-107.5 228t-38 324zM194 710q0 -309 109.5 -475.5 t292.5 -166.5q93 0 171 42.5t134 124t87.5 205t31.5 278.5q0 317 -118.5 495.5t-305.5 178.5q-183 0 -292.5 -178t-109.5 -504z" />
<glyph unicode="1" horiz-adv-x="645" d="M68 1122v98q125 55 228 146q52 41 97 94h138v-1460h-126v1287l-67.5 -43.5t-74.5 -44t-100.5 -49t-94.5 -28.5z" />
<glyph unicode="2" horiz-adv-x="982" d="M68 0v108q0 51 19.5 103.5t53.5 99t79 96t96 94.5t104.5 93.5t104.5 94t96.5 96t79 99t53.5 103.5t20 109q0 150 -74.5 223t-210.5 73q-253 0 -360 -123v103q42 43 99 70t119.5 37.5t141.5 10.5q88 0 162 -23.5t130 -68.5t87.5 -117.5t31.5 -166.5q0 -62 -20.5 -125 t-55 -118t-81 -111t-98.5 -105t-107 -100t-107 -96t-97.5 -92.5t-79.5 -90t-52.5 -88.5t-17.5 -89h778v-99h-894z" />
<glyph unicode="3" horiz-adv-x="1012" d="M114 52v107q48 -40 101.5 -60.5t102 -25.5t124.5 -5q177 0 277.5 80.5t100.5 226.5q0 81 -29 140.5t-94 102.5t-172 64.5t-258 21.5v88q134 13 246 46q246 82 246 268q0 143 -69 214.5t-195 71.5q-79 0 -167.5 -20t-151.5 -67v105q69 45 141 62.5t178 17.5 q86 0 160.5 -28t124 -74t77.5 -106.5t28 -126.5q0 -147 -63 -245.5t-207 -153.5q145 -20 238 -123.5t93 -242.5q0 -102 -39.5 -182.5t-109 -131t-160 -77t-195.5 -26.5q-191 0 -328 79z" />
<glyph unicode="4" horiz-adv-x="1047" d="M21 369v120l677 971h140v-990h188v-101h-188l4 -369h-130v369h-691zM138 470h574v829z" />
<glyph unicode="5" horiz-adv-x="951" d="M114 21v96q21 -9 70 -25q94 -24 206 -24q187 0 278 92.5t91 253.5q0 170 -106.5 263.5t-271.5 93.5q-66 0 -205 -9q-44 -6 -62 -9v707h666v-100h-540v-504h123q133 0 235 -33.5t163.5 -93t92.5 -135.5t31 -166q0 -223 -136 -339t-359 -116q-99 0 -159 12t-117 36z" />
<glyph unicode="6" horiz-adv-x="1056" d="M68 648q0 407 153.5 624.5t441.5 217.5q21 0 64.5 1t64 1t51.5 -5.5t57 -18.5v-98q-38 7 -58 10q-10 2 -22.5 3.5t-23.5 2.5t-28.5 2t-30 1.5t-36 1t-38.5 1.5q-227 2 -355.5 -178t-119.5 -508q16 39 42 70t57 51t64.5 34.5t68.5 22t64 10.5t56 3q128 0 230 -57.5 t160 -161.5t58 -236q0 -133 -57.5 -240t-162 -168t-237.5 -61q-146 0 -251 81t-158.5 232.5t-53.5 361.5zM206 483q0 -89 18 -162.5t56 -131.5t102 -89.5t149 -31.5q69 0 131.5 32t106 84.5t68.5 120.5t25 137q0 83 -20 148t-60.5 111.5t-104 71.5t-146.5 25 q-63 0 -118 -22.5t-92 -58t-64 -78.5t-39 -83t-12 -73z" />
<glyph unicode="7" horiz-adv-x="967" d="M21 1360v100h925v-94l-524 -1366h-126l506 1360h-781z" />
<glyph unicode="8" horiz-adv-x="1029" d="M68 378q0 133 74.5 245.5t211.5 168.5q-101 40 -163 130.5t-62 205.5q0 165 106.5 263.5t280.5 98.5q103 0 191 -47.5t140.5 -130.5t52.5 -184q0 -111 -58.5 -204.5t-159.5 -131.5q96 -40 159.5 -106.5t92 -143t28.5 -164.5q0 -101 -35 -179.5t-97 -127t-143 -73.5 t-177 -25q-81 0 -148.5 15t-122.5 47t-93 79.5t-58 114.5t-20 149zM194 405q0 -71 19 -131t57 -106.5t101 -73t145 -26.5q79 0 141 27t100.5 74t58.5 107.5t20 131.5q0 59 -21 115.5t-59.5 103t-101 75t-138.5 28.5q-147 0 -234.5 -92t-87.5 -233zM255 1108 q0 -51 15.5 -97.5t46.5 -85t82.5 -61t116.5 -22.5q76 0 137 39t92.5 100t31.5 127q0 130 -78.5 207t-182.5 77q-124 0 -192.5 -73t-68.5 -211z" />
<glyph unicode="9" horiz-adv-x="1056" d="M68 1017q0 98 32.5 184t91 150t146 101.5t190.5 37.5t188 -44.5t147 -127.5t96 -210.5t34 -287.5q0 -423 -144.5 -635t-440.5 -212q-21 0 -67 -1.5t-69 -1t-56.5 6t-59.5 17.5v94q9 -1 32.5 -5.5t36.5 -6.5q65 -8 186 -8q99 0 180.5 34.5t137.5 96.5t91.5 148t47.5 188.5 t2 217.5q-15 -39 -41 -70.5t-58 -51.5t-65 -34.5t-68.5 -21.5t-63.5 -10t-55 -3q-74 0 -142 20t-124.5 59.5t-98 93.5t-64 126.5t-22.5 155.5zM190 1017q0 -93 25.5 -163.5t71.5 -112.5t106.5 -63t134.5 -21q51 0 97 15t80.5 40t62.5 58t46 69.5t27 73t9 69.5 q0 203 -87.5 306.5t-234.5 103.5q-49 0 -98 -17.5t-91.5 -51t-76 -78.5t-53 -104.5t-19.5 -123.5z" />
<glyph unicode=":" horiz-adv-x="352" d="M114 0v132h126v-132h-126zM114 900v129h126v-129h-126z" />
<glyph unicode=";" horiz-adv-x="352" d="M-27 -334q3 4 30.5 45.5t40.5 63.5q70 132 70 207v150h126v-150q0 -105 -99 -222q-44 -56 -97 -94h-71zM111 900v129h129v-129h-129z" />
<glyph unicode="&#x3c;" horiz-adv-x="1050" d="M68 460v47l961 546v-109l-804 -461l804 -397v-110z" />
<glyph unicode="=" horiz-adv-x="1090" d="M114 390v102h862v-102h-862zM114 692v103h862v-103h-862z" />
<glyph unicode="&#x3e;" horiz-adv-x="1050" d="M21 -24v110l809 397l-809 461v109l961 -546v-47z" />
<glyph unicode="?" horiz-adv-x="906" d="M114 1281v105q27 27 70 51q109 53 244 53q56 0 107.5 -11t98.5 -35.5t82 -60t55.5 -89t20.5 -118.5q0 -58 -16 -108t-41.5 -85.5t-58.5 -68t-67.5 -56.5t-67.5 -49.5t-59 -48t-42 -51.5t-16 -61v-320h-126v314q0 42 16 79.5t42 65t59 55t67.5 50.5t67.5 52t58.5 58 t41.5 69.5t16 86.5q0 118 -65.5 176t-160.5 58q-126 0 -246 -56q-43 -18 -80 -55zM298 0v129h126v-129h-126z" />
<glyph unicode="@" horiz-adv-x="1950" d="M190 554q0 163 65 312.5t177 260.5t271.5 179t340.5 74q125 3 242 -27.5t214 -91t170.5 -144t114.5 -193.5t41 -232q0 -101 -26 -195t-72.5 -168.5t-118.5 -120.5t-159 -49q-101 -7 -161 53.5t-67 189.5q-42 -79 -80 -127.5t-79.5 -74.5t-82 -35t-98.5 -9 q-43 0 -86.5 13.5t-86.5 44.5t-76 74.5t-53 109.5t-20 145q0 69 24.5 138.5t68.5 127t99.5 102t121.5 69.5t131 25q59 0 109 -14t81.5 -36t50 -41t29.5 -38l24 123h114l-91 -456q-10 -80 0 -141q3 -28 11 -52t22 -44.5t37 -32.5t52 -12q64 0 116.5 39.5t83.5 102.5 t47.5 135.5t16.5 143.5q0 86 -26 171t-81 163.5t-131.5 138t-187 94.5t-238.5 32q-115 -4 -219.5 -35.5t-186.5 -84t-148.5 -122.5t-110 -150.5t-66.5 -167.5t-23 -173q0 -101 28 -199t87 -187t142 -157t201.5 -108.5t256.5 -40.5q225 0 423 80l3 -80q-222 -84 -411 -84 q-180 0 -335.5 60t-263.5 164.5t-169.5 248.5t-61.5 309zM676 543q0 -72 19.5 -129.5t51.5 -91.5t69.5 -52t77.5 -18q50 0 91 15t80 50.5t70 93t57 145t46 203.5q-4 19 -18 41t-40 45.5t-72 39t-103 15.5q-29 0 -60.5 -7.5t-63.5 -23t-62 -37t-56 -52t-45 -65.5t-30.5 -79.5 t-11.5 -92.5z" />
<glyph unicode="A" horiz-adv-x="1273" d="M21 0l533 1460h146l532 -1460h-126l-148 402h-668l-152 -402h-117zM320 501h607l-300 847z" />
<glyph unicode="B" horiz-adv-x="1120" d="M114 0v1460h402q95 0 171 -24.5t125.5 -68t76 -103.5t26.5 -133q0 -52 -13 -104.5t-38.5 -102.5t-71 -91t-104.5 -62q148 -34 234 -134t86 -229q0 -174 -131 -291t-349 -117h-414zM240 99h270q164 0 268 88t104 221q0 151 -112 233.5t-300 82.5h-230v-625zM240 826h218 q152 0 241.5 69.5t89.5 204.5q0 58 -16 103t-51 81.5t-99 56t-153 19.5h-230v-534z" />
<glyph unicode="C" horiz-adv-x="1197" d="M68 716q0 177 51.5 322t147 244.5t232.5 153.5t303 54q80 0 131 -2t121 -13.5t116 -32.5l-42 -106q-83 37 -149.5 46.5t-176.5 9.5q-71 0 -137 -12t-127 -38.5t-113 -65t-95 -94t-73 -123.5t-46.5 -155.5t-16.5 -187.5q0 -151 43 -272.5t122.5 -204t192.5 -127t250 -44.5 q112 0 177 16.5t152 65.5l39 -104q-81 -47 -167.5 -60t-222.5 -13q-161 0 -293 51t-225 145t-143.5 234t-50.5 313z" />
<glyph unicode="D" horiz-adv-x="1351" d="M114 0v1460h399q392 0 581.5 -179.5t189.5 -533.5q0 -163 -54 -300.5t-154 -236.5t-249.5 -154.5t-331.5 -55.5h-381zM240 99h255q197 0 345 73t233 221t85 354q0 125 -29.5 225.5t-85 172.5t-137 120.5t-183.5 71.5t-225 23h-258v-1261z" />
<glyph unicode="E" horiz-adv-x="967" d="M114 0v1460h740v-100h-614v-583h552v-97h-552v-581h614v-99h-740z" />
<glyph unicode="F" horiz-adv-x="874" d="M114 0v1460h740v-100h-614v-583h552v-97h-552v-680h-126z" />
<glyph unicode="G" horiz-adv-x="1381" d="M68 700q0 176 59.5 325t163.5 250t247 158t306 57q182 0 302 -40q55 -17 92 -40v-86q-11 8 0 1q-70 42 -235 59q-79 8 -171 8q-103 0 -197.5 -28t-175 -85.5t-140 -139t-92.5 -194t-33 -245.5q0 -111 21 -204t61.5 -162t96 -120.5t126 -83t149.5 -47t170 -15.5 q192 0 325 76v474h-337v98h463v-646q-104 -61 -209 -79t-271 -18q-162 0 -295.5 50t-228 143t-146 229.5t-51.5 304.5z" />
<glyph unicode="H" horiz-adv-x="1305" d="M114 0v1460h126v-648h826v648h126v-1460h-126v710h-826l3 -710h-129z" />
<glyph unicode="I" horiz-adv-x="352" d="M114 0v1460h126v-1460h-126z" />
<glyph unicode="J" horiz-adv-x="721" d="M21 -6l41 92q11 -4 37 -10q36 -8 103 -8q270 0 270 439v953h130v-953q0 -162 -42.5 -280.5t-131.5 -186t-216 -67.5q-113 0 -154 9q-3 1 -37 12z" />
<glyph unicode="K" horiz-adv-x="1135" d="M114 0v1460h126v-818l654 818h144l-387 -484l451 -976h-128l-402 873l-332 -419v-454h-126z" />
<glyph unicode="L" horiz-adv-x="874" d="M114 0v1460h126v-1361h614v-99h-740z" />
<glyph unicode="M" horiz-adv-x="1735" d="M114 0v1460h200l540 -1258l571 1258h197v-1460h-126v1330l-614 -1330h-56l-586 1330v-1330h-126z" />
<glyph unicode="N" horiz-adv-x="1396" d="M114 0v1460h188l856 -1322v1322h126v-1460h-184l-860 1302v-1302h-126z" />
<glyph unicode="O" horiz-adv-x="1519" d="M68 710q0 248 84 423.5t243.5 266t381.5 90.5q150 0 275 -51.5t214 -146.5t138.5 -235.5t49.5 -312.5q0 -185 -50.5 -331.5t-143.5 -242.5t-223.5 -146.5t-292.5 -50.5q-122 0 -227 31.5t-187.5 93.5t-141 150.5t-89.5 205.5t-31 256zM194 710q0 -112 23 -210t69 -177.5 t111.5 -136.5t154 -87.5t192.5 -30.5q186 0 318.5 85t199 236t66.5 355q0 140 -37.5 258.5t-106.5 205t-174.5 135.5t-235.5 49q-140 0 -251 -50t-182.5 -140.5t-109 -215.5t-37.5 -276z" />
<glyph unicode="P" horiz-adv-x="1044" d="M114 0v1460h396q234 0 350 -114.5t116 -322.5q0 -97 -32 -180.5t-94 -148t-160.5 -101.5t-223.5 -37h-226l3 -556h-129zM240 654h226q181 0 282.5 99.5t101.5 266.5q0 178 -79 259t-261 81h-270v-706z" />
<glyph unicode="Q" horiz-adv-x="1519" d="M68 710q0 374 187 577t531 203q146 0 269 -51.5t211 -146t138 -235.5t50 -313q0 -165 -40 -298.5t-116 -231t-186 -158.5q43 -18 77 -38.5t66.5 -51.5t50.5 -76.5t18 -101.5h-116q0 32 -19 62.5t-46.5 53.5t-63.5 43t-65 32.5t-56 20.5q-116 -27 -202 -27 q-324 0 -506 193t-182 544zM194 710q0 -112 23.5 -210t70 -176.5t112.5 -135t154 -87.5t190 -31q186 0 318.5 84.5t199 235t66.5 354.5q0 139 -38.5 258t-108 205.5t-171.5 135.5t-224 49q-147 0 -260.5 -50t-186 -141t-109 -215t-36.5 -276z" />
<glyph unicode="R" horiz-adv-x="1167" d="M114 0v1460h440q120 0 215.5 -45t151 -134t55.5 -209q0 -57 -12 -106t-36 -86.5t-55.5 -67.5t-73 -52.5t-85 -38.5t-96.5 -29q27 -8 50.5 -24t44.5 -41t35 -45t36 -55t34 -51l307 -476h-143l-278 436q-8 12 -26.5 40t-27 40t-26 34.5t-30 33t-33.5 25.5t-41 21.5 t-47.5 12t-58.5 5.5h-174l3 -648h-129zM240 747h255q71 0 134.5 21t113 61t78.5 103t29 140q0 131 -92.5 209.5t-241.5 78.5h-276v-613z" />
<glyph unicode="S" horiz-adv-x="1152" d="M114 76v108q82 -42 135 -58q140 -58 313 -58q87 0 154.5 25.5t110 72t64 107.5t21.5 135q0 72 -27.5 127.5t-73.5 90.5t-106 62.5t-126 48.5t-132 43t-126 52.5t-106 70t-73.5 101.5t-27.5 142q0 58 19.5 108.5t53.5 87.5t79 65.5t97.5 46.5t106 27t108.5 9 q167 0 298 -40q59 -17 100 -40v-102q-43 24 -94 40q-134 44 -304 44q-54 0 -112.5 -18t-109 -48.5t-83.5 -78t-33 -101.5q0 -60 27.5 -107t73.5 -78t106 -56.5t126 -48t132 -47.5t126 -59.5t106 -78.5t73.5 -111.5t27.5 -151.5q0 -73 -10.5 -130.5t-43 -117t-86.5 -98.5 t-146.5 -64t-217.5 -25q-183 0 -316 51q-69 25 -104 52z" />
<glyph unicode="T" horiz-adv-x="1012" d="M21 1360v100h972v-100h-415v-1360h-126v1360h-431z" />
<glyph unicode="U" horiz-adv-x="1305" d="M114 550v910h126v-898q0 -95 12 -169.5t40.5 -136.5t74 -103t114 -63t158.5 -22q223 0 325 120t102 355v917h126v-888q0 -306 -133.5 -452.5t-419.5 -146.5q-275 0 -400 140t-125 437z" />
<glyph unicode="V" horiz-adv-x="1273" d="M21 1460h126l480 -1334l479 1334h126l-532 -1460h-146z" />
<glyph unicode="W" horiz-adv-x="1920" d="M21 1460h126l372 -1352l408 1352h81l340 -1355l408 1355h124l-443 -1460h-171l-302 1246l-355 -1246h-173z" />
<glyph unicode="X" horiz-adv-x="1182" d="M21 0l474 730l-445 730h150l368 -630l400 630h146l-472 -730l472 -730h-146l-400 627l-398 -627h-149z" />
<glyph unicode="Y" horiz-adv-x="1120" d="M21 1460h123l384 -812l418 812h124l-478 -929v-531h-126v519z" />
<glyph unicode="Z" horiz-adv-x="1120" d="M21 0v9l885 1351h-824v100h1018v-10l-882 -1351h848q0 -17 2 -49.5t2 -49.5h-1049z" />
<glyph unicode="[" horiz-adv-x="543" d="M114 -430v1996h408v-94h-302v-1806h302v-96h-408z" />
<glyph unicode="\" horiz-adv-x="651" d="M21 1803h114l480 -1803h-114z" />
<glyph unicode="]" horiz-adv-x="543" d="M21 -334h301v1806h-301v94h409v-1996h-409v96z" />
<glyph unicode="^" horiz-adv-x="1329" d="M114 592l482 974h46l537 -974h-103l-458 815l-398 -815h-106z" />
<glyph unicode="_" horiz-adv-x="1090" d="M114 -44h862v-106h-862v106z" />
<glyph unicode="`" horiz-adv-x="592" d="M114 1647h111l199 -295h-86z" />
<glyph unicode="a" horiz-adv-x="1029" d="M111 267q2 56 17 102t39 78t57 56.5t67.5 39t74.5 23t74 11t70 3.5q140 0 228 29q46 15 64 30q0 116 -37 192t-106 112.5t-170 36.5q-158 0 -261 -92q-54 -49 -72 -90l-42 102q20 46 76 86q114 90 296 90q59 0 115.5 -11t115 -38.5t101 -70.5t70 -112.5t27.5 -157.5v-686 h-113v120q-19 -21 -41.5 -40.5t-54.5 -40t-66.5 -35.5t-78.5 -24.5t-89 -9.5q-172 0 -270 72q-92 68 -91 208v17zM225 267q0 -58 21 -100t58 -65.5t82.5 -34.5t99.5 -11q50 0 100.5 17t91.5 44t72 55t52 56v306q-12 -4 -27 -8.5t-33.5 -10t-29.5 -8.5q-99 -29 -181 -29 q-46 0 -89.5 -7.5t-83 -24.5t-69 -41t-47 -59.5t-17.5 -78.5z" />
<glyph unicode="b" horiz-adv-x="1182" d="M114 0v1551h111v-619q60 47 103 70q145 70 290 70q54 0 110.5 -13.5t112.5 -40.5t105 -71t87 -100.5t59.5 -133.5t21.5 -165q0 -96 -19 -178t-53.5 -142.5t-81 -107t-101.5 -75t-114 -43t-121 -14.5q-160 0 -292 70q-59 31 -107 74v-132h-111zM225 225q65 -56 113 -81 q133 -76 292 -76q49 0 99 15.5t100 52.5t89 91t63 138t24 185q0 81 -24 153t-63 123t-88.5 88.5t-100.5 55.5t-99 18q-154 0 -292 -79q-44 -23 -113 -77v-607z" />
<glyph unicode="c" horiz-adv-x="874" d="M68 501q0 128 38.5 234.5t108.5 181.5t171 117t223 42q73 0 171 -32q44 -16 68 -30l-36 -82q-21 16 -53 30q-72 31 -150 31q-64 0 -125 -19t-116.5 -59t-97.5 -97t-67 -139t-25 -178q0 -78 17 -143.5t47.5 -111.5t70.5 -81t88.5 -55t99 -30t103.5 -10q81 0 152 29 q39 17 56 30l36 -83q-26 -16 -65 -31q-84 -27 -197 -27q-240 0 -379 137t-139 376z" />
<glyph unicode="d" horiz-adv-x="1182" d="M68 548q0 109 33.5 200t87 150.5t122.5 100.5t137.5 59t135.5 18q152 0 278 -74q46 -25 96 -70v619h112v-1551h-112v132q-41 -41 -98 -74q-122 -70 -280 -70q-77 0 -148 17.5t-138.5 59.5t-116.5 104.5t-79 159.5t-30 219zM178 550q0 -107 26.5 -193t67 -139t94 -88 t103.5 -48.5t99 -13.5q143 0 276 76q52 27 114 81v607q-65 52 -114 77q-138 79 -276 79q-47 0 -99 -17t-104 -53t-93.5 -86.5t-67.5 -123.5t-26 -158z" />
<glyph unicode="e" horiz-adv-x="1026" d="M68 513q0 122 36 227.5t98.5 178.5t147.5 115t181 42q98 0 179 -33.5t140 -96.5q60 -62 90 -160q25 -82 25 -181q0 -19 -1 -39l-2 -56h-784q0 -115 30.5 -201.5t83.5 -137.5t119.5 -76t144.5 -25q125 0 221 50q38 24 59 52l43 -98q-35 -26 -81 -44q-105 -42 -230 -42 q-74 0 -138.5 12.5t-121 38.5t-100.5 68.5t-75.5 100t-48 134.5t-16.5 171zM172 596h672q-6 191 -89.5 294t-223.5 103q-139 0 -234.5 -105.5t-124.5 -291.5z" />
<glyph unicode="f" horiz-adv-x="660" d="M21 944v82h199v194q0 180 68 271t198 91q41 0 84.5 -1t47.5 -1h21v-78q0 -4 -12 -4q-9 -2 -87 -2q-62 0 -103 -18t-63.5 -55.5t-31 -85t-8.5 -117.5v-194h305v-82h-307l2 -944h-114v944h-199z" />
<glyph unicode="g" horiz-adv-x="1182" d="M68 513q0 121 29 218.5t77 160.5t114 105.5t136.5 60.5t147.5 18q146 0 284 -74q47 -26 102 -70v128h112v-1048q0 -291 -129 -418.5t-416 -127.5q-147 0 -264 42q-36 13 -79 44l38 94q22 -18 76 -48q102 -50 229 -50q118 0 201.5 28t134.5 84.5t74 136t23 188.5v147 q-42 -38 -104 -70q-133 -71 -286 -71q-43 0 -89 8.5t-95.5 28.5t-95 48.5t-86 71.5t-70 95t-47 121.5t-17.5 148.5zM178 513q0 -88 26.5 -163.5t68 -125.5t94.5 -85.5t105 -52t100 -16.5q139 0 272 77q52 27 114 81v608q-65 51 -114 76q-140 81 -272 81q-50 0 -100.5 -13 t-104.5 -47.5t-94.5 -86.5t-67.5 -138.5t-27 -194.5z" />
<glyph unicode="h" horiz-adv-x="1090" d="M114 0v1551h111v-651q26 51 77 86q113 90 272 90q108 0 187.5 -28.5t125.5 -81t67.5 -120t21.5 -152.5v-694h-109v704q0 83 -42.5 145.5t-109.5 93.5t-147 31q-145 0 -260 -92q-53 -41 -83 -90v-792h-111z" />
<glyph unicode="i" horiz-adv-x="337" d="M114 0v1060h111v-1060h-111zM114 1234v112h111v-112h-111z" />
<glyph unicode="j" horiz-adv-x="337" d="M-310 -510l43 96q12 -12 33 -22q42 -18 75 -18q137 0 205 109.5t68 306.5v1098h111v-1060q0 -263 -101 -398.5t-280 -135.5q-88 0 -120 12q-7 1 -13 3.5t-12.5 5t-8.5 3.5zM114 1238v108h111v-108h-111z" />
<glyph unicode="k" horiz-adv-x="951" d="M114 0v1551h111v-1158l493 624h126l-252 -319l326 -698h-110l-283 612l-300 -378v-234h-111z" />
<glyph unicode="l" horiz-adv-x="337" d="M114 0v1551h111v-1551h-111z" />
<glyph unicode="m" horiz-adv-x="1842" d="M114 0v1060h111v-160q0 2 6.5 12.5t21 26.5t34 34t48.5 36.5t62.5 33t78.5 24t92 9.5q154 0 242.5 -46t133.5 -142q7 11 19 25t32.5 32.5t44.5 36t56 35t66.5 30t77.5 21t88 8.5q402 0 402 -382v-694h-112v704q0 64 -25 117t-67.5 86.5t-96.5 51t-113 17.5 q-143 0 -258 -91q-47 -36 -82 -93v-792h-109v704q0 62 -24.5 114.5t-66 86.5t-95.5 52.5t-113 18.5q-148 0 -264 -91q-43 -34 -79 -93v-792h-111z" />
<glyph unicode="n" horiz-adv-x="1090" d="M114 0v1060h111v-160q26 51 77 86q113 90 264 90q112 0 193 -27t128 -78t68 -119t21 -158v-694h-109v704q0 87 -42 150t-111 92.5t-158 29.5q-81 0 -139.5 -24.5t-112.5 -66.5q-43 -34 -79 -93v-792h-111z" />
<glyph unicode="o" horiz-adv-x="1147" d="M68 516q0 274 137 417t381 143q111 0 202.5 -35.5t156.5 -102.5t101 -168.5t36 -229.5q0 -273 -135.5 -411t-380.5 -138q-75 0 -141 15t-121.5 44t-99 73.5t-74 102t-46.5 131t-16 159.5zM178 516q0 -112 30.5 -199t84.5 -140t122.5 -80t150.5 -27q89 0 162 28.5 t127.5 85t84.5 147.5t30 209q0 108 -29 195t-81 143t-121.5 85.5t-152.5 29.5q-89 0 -162.5 -29t-128.5 -86t-86 -149.5t-31 -212.5z" />
<glyph unicode="p" horiz-adv-x="1182" d="M114 -489v1549h111v-128q54 47 97 70q139 74 305 74q68 0 134 -18t131 -60.5t113.5 -105t78.5 -160.5t30 -219q0 -110 -32.5 -200t-84.5 -148.5t-120.5 -99t-136.5 -57.5t-136 -17q-160 0 -282 71q-61 34 -97 70v-621h-111zM225 228q65 -56 113 -81q133 -77 280 -77 q70 0 139.5 33.5t124.5 91t89 141t34 177.5t-22 174.5t-58.5 135.5t-85 94t-101.5 57.5t-108 18.5q-155 0 -296 -81q-34 -18 -109 -76v-608z" />
<glyph unicode="q" horiz-adv-x="1182" d="M68 513q0 121 30.5 218.5t81.5 160.5t120 105.5t140.5 60.5t149.5 18q156 0 277 -74q48 -27 91 -70v128h112v-1549h-112v621q-39 -35 -102 -70q-132 -71 -284 -71q-45 0 -91.5 8.5t-96 28.5t-95 48.5t-86.5 71.5t-70.5 95t-47 121.5t-17.5 148.5zM178 513 q0 -94 34.5 -177.5t89.5 -141t124 -91t140 -33.5q148 0 282 77q44 23 110 81v608q-71 56 -110 76q-142 81 -288 81q-47 0 -92.5 -13t-88.5 -38.5t-79.5 -66.5t-63.5 -92.5t-42.5 -121t-15.5 -148.5z" />
<glyph unicode="r" horiz-adv-x="634" d="M114 0v1060h111v-274q33 82 77 146q107 144 241 144q19 0 49 -6q10 -4 23 -4v-92q-13 0 -23 2q-4 0 -20.5 2t-28.5 2q-111 0 -223 -160q-55 -72 -95 -160v-660h-111z" />
<glyph unicode="s" horiz-adv-x="906" d="M114 34v86q26 -19 74 -34q98 -30 214 -30q87 0 148.5 22.5t96.5 74.5t35 132q0 55 -19 96.5t-52 67t-75.5 44t-90 32t-94.5 27.5t-89.5 34t-75.5 47.5t-52.5 72t-19.5 102.5q0 51 29 102.5t76 91t110 64t125 24.5q110 0 212 -32q43 -15 64 -32v-86q-23 19 -61 34 q-107 34 -215 34q-86 0 -157.5 -58.5t-71.5 -141.5q0 -59 31.5 -98t81.5 -58.5t110 -35t120.5 -36t110.5 -52t81.5 -93t31.5 -150.5q0 -58 -19.5 -110t-62.5 -99t-124.5 -75t-192.5 -28q-115 0 -209 30q-36 12 -70 31z" />
<glyph unicode="t" horiz-adv-x="660" d="M21 944v82h199v525h112v-525h307v-82h-307v-594q0 -70 10 -119.5t34 -87.5t67.5 -56.5t106.5 -18.5h89v-74q-3 -3 -24 -3q-21 -3 -137 -3q-136 0 -197 88t-61 274v594h-199z" />
<glyph unicode="u" horiz-adv-x="1090" d="M114 369v691h111v-720q0 -111 86 -185.5t223 -74.5q156 0 258 90q51 46 75 91v799h109v-1063h-109v167q-29 -48 -87 -94q-111 -88 -270 -88q-212 0 -304 101.5t-92 285.5z" />
<glyph unicode="v" horiz-adv-x="997" d="M30 1060h134l340 -949l322 949h120l-366 -1060h-152z" />
<glyph unicode="w" horiz-adv-x="1536" d="M21 1060h132l249 -943l326 943h80l292 -943l272 943h126l-322 -1060h-141l-264 891l-301 -891h-156z" />
<glyph unicode="x" horiz-adv-x="906" d="M21 0l351 531l-351 529h117l292 -439l292 439h116l-349 -544l347 -516h-118l-288 424l-292 -424h-117z" />
<glyph unicode="y" horiz-adv-x="1071" d="M18 -510l44 99q13 -13 26 -23q43 -18 78 -18q30 0 52.5 3t47 11t43.5 22t37 37.5t32 56.5l123 301l-463 1081h121l407 -928l340 928h123l-501 -1291q-26 -64 -43.5 -101.5t-41.5 -76.5t-47.5 -58.5t-58 -37t-77.5 -23.5t-101 -6q-79 0 -107 12q-7 2 -20 7t-14 5z" />
<glyph unicode="z" horiz-adv-x="961" d="M114 0v12l654 964h-596v84h768v-22l-648 -952h640v-86h-818z" />
<glyph unicode="{" horiz-adv-x="583" d="M68 476v80q45 5 80.5 26.5t59 57.5t35.5 87t12 115v360q0 96 22.5 165.5t65 110.5t96 61.5t123.5 26.5v-98q-102 -8 -146 -78t-44 -194v-370q0 -65 -7.5 -113t-26 -90t-54 -70t-88.5 -43q97 -25 136.5 -102.5t39.5 -213.5v-353q0 -64 1.5 -97t11.5 -75.5t29.5 -62.5 t56.5 -34t91 -14v-95q-153 0 -230 84.5t-77 270.5v366q0 129 -48 204.5t-139 87.5z" />
<glyph unicode="|" horiz-adv-x="340" d="M114 -384v2102h114v-2102h-114z" />
<glyph unicode="}" horiz-adv-x="583" d="M21 -442q38 0 67.5 7t49.5 18t34 32t21.5 41.5t11.5 53.5t5.5 60.5t1.5 70.5v353q0 136 39 213.5t136 102.5q-53 15 -88 43t-54 70t-26 90t-7 113v370q0 124 -44 194t-147 78v98q71 -6 124 -26.5t96 -61.5t65 -110.5t22 -165.5v-360q0 -129 48 -203t140 -83v-80 q-91 -12 -139.5 -87.5t-48.5 -204.5v-366q0 -186 -76.5 -270.5t-230.5 -84.5v95z" />
<glyph unicode="~" horiz-adv-x="1086" d="M114 507q0 122 64.5 182.5t171.5 60.5q36 0 77 -17.5t78.5 -42.5t76.5 -50t87 -42.5t96 -17.5q33 0 61.5 19.5t49 59t24.5 91.5h74q-4 -72 -23 -120.5t-52.5 -75t-73.5 -37t-95 -10.5q-42 0 -94 25.5t-93.5 55.5t-97 55.5t-105.5 25.5q-76 0 -117 -40.5t-41 -121.5h-68z " />
<glyph unicode="&#xa9;" horiz-adv-x="1959" d="M114 744q0 185 70.5 350.5t190.5 284.5t286 189t350 70q185 0 350.5 -70t284.5 -189t189 -284.5t70 -350.5t-69.5 -350t-189 -283.5t-285 -188t-350.5 -69.5q-184 0 -350 69.5t-286 187.5t-190.5 283.5t-70.5 350.5zM184 744q0 -168 65 -319.5t175 -261.5t262.5 -174.5 t321.5 -64.5t322 64.5t263.5 174.5t175.5 262t65 319q0 169 -65 321t-175.5 262t-263.5 174.5t-322 64.5t-321.5 -64.5t-262.5 -174.5t-175 -262t-65 -321zM537 728q0 262 149.5 412t401.5 150q168 0 266 -36l-32 -72q-35 16 -77 25t-75 11t-82 2q-81 0 -151.5 -21.5 t-126.5 -63.5t-96.5 -101t-62 -137.5t-21.5 -168.5q0 -234 124.5 -358t333.5 -124q55 0 91 5t68 17t75 36l32 -73q-58 -33 -125 -46t-157 -13q-96 0 -179 24.5t-148.5 71.5t-112 114t-71 155t-24.5 191z" />
<glyph unicode="&#xad;" horiz-adv-x="768" d="M114 584v108h540v-108h-540z" />
<glyph unicode="&#xae;" horiz-adv-x="2017" d="M114 744q0 185 70.5 350.5t190.5 284.5t286 189t350 70q185 0 350.5 -70t284.5 -189t189 -284.5t70 -350.5t-69.5 -350t-189 -283.5t-285 -188t-350.5 -69.5q-184 0 -350 69.5t-286 187.5t-190.5 283.5t-70.5 350.5zM184 747q0 -168 65.5 -321t176 -263t262.5 -174.5 t320 -64.5q169 0 321.5 64.5t262.5 174.5t175 262.5t65 321.5q0 168 -65 319.5t-175 261t-262.5 174t-321.5 64.5q-84 0 -165.5 -16.5t-155 -47.5t-140 -75.5t-122 -99.5t-100.5 -121t-76 -139t-48 -154.5t-17 -165.5zM706 218v1087h329q140 0 228.5 -75t88.5 -210 q0 -71 -21.5 -125.5t-60 -89t-84 -54.5t-102.5 -29q14 -8 27.5 -18t23.5 -18.5t23.5 -23t20 -21.5t20 -24.5t17 -22t17 -24t13.5 -20.5l222 -332h-114l-184 301q-46 77 -116 129t-116 52h-136v-482h-96zM802 774h172q73 0 136.5 27.5t105 85t41.5 133.5q0 94 -67 151 t-182 57h-206v-454z" />
<glyph unicode="&#xbc;" horiz-adv-x="2064" d="M135 1600v56q58 26 126 80q22 15 53 52h76v-806h-70v710q-2 -1 -16 -10t-19.5 -12.5t-20.5 -12.5t-24.5 -14t-24.5 -13t-27 -12.5t-26 -9.5t-27 -8zM486 0l1096 1803h113l-1093 -1803h-116zM1468 264v68l372 535h77v-547h102v-56h-102v-202h-71v202h-378zM1533 320h313 v457z" />
<glyph unicode="&#xbd;" horiz-adv-x="2103" d="M135 1600v56q58 26 126 80q22 15 53 52h76v-806h-70v710q-2 -1 -16 -10t-19.5 -12.5t-20.5 -12.5t-24.5 -14t-24.5 -13t-27 -12.5t-26 -9.5t-27 -8zM486 0l1096 1803h113l-1093 -1803h-116zM1536 62v61q0 54 41 112t99 109t116 103t99 112t41 117q0 84 -41.5 125 t-117.5 41q-146 0 -203 -71v59q36 37 85 52t118 15q50 0 91.5 -13t72.5 -38.5t48 -66.5t17 -93q0 -50 -22 -100t-57.5 -92t-78 -83t-85.5 -78.5t-78.5 -72.5t-58 -72t-22.5 -71h437v-55h-501z" />
<glyph unicode="&#xbe;" horiz-adv-x="2061" d="M114 1026v62q41 -33 80.5 -43t101.5 -10q98 0 151.5 44t53.5 125q0 94 -69 138t-232 44v48q57 4 132 26q59 17 96.5 53t37.5 93q0 79 -37.5 118.5t-106.5 39.5q-25 0 -54 -4.5t-62.5 -16t-58.5 -29.5v59q37 25 77 33.5t98 8.5q97 0 156 -54t59 -131q0 -78 -34 -130.5 t-113 -86.5q80 -11 131 -67.5t51 -132t-38.5 -128.5t-99.5 -78t-138 -25q-40 0 -74 6.5t-56.5 15t-51.5 22.5zM486 0l1096 1803h113l-1093 -1803h-116zM1466 264v68l372 535h76v-547h100v-56h-100v-202h-70v202h-378zM1530 320h314v457z" />
<glyph unicode="&#xe01;" horiz-adv-x="1258" d="M68 993q36 78 114 156q168 156 392 156q78 0 153.5 -12t152.5 -42t135 -75t94.5 -116t36.5 -160v-736q0 -64 -52 -124q-29 -28 -53 -40h-24v838q0 87 -28 154t-72 107t-105 65t-119.5 34.5t-124.5 9.5q-153 0 -286 -108q-68 -63 -100 -107l181 -155q-12 -11 -23 -49 q-20 -66 -20 -191v-598h-132v592q0 109 32 182q16 42 35 64q-22 16 -56 44t-40 33q-91 74 -91 78z" />
<glyph unicode="&#xe02;" horiz-adv-x="1044" d="M68 1173v102h175q112 0 185 -61.5t73 -190.5q0 -117 -126 -243q-85 -86 -85 -249v-123q0 -37 2 -67.5t8.5 -66.5t18 -64.5t31.5 -56t46.5 -45.5t66 -29t87.5 -11q60 0 106.5 22.5t74 57.5t45 82t24 90t6.5 88v867h126v-867q0 -438 -366 -438q-95 0 -167 22.5t-117.5 60.5 t-74 95t-40 119.5t-11.5 140.5v123q0 57 8.5 105.5t18 79t30.5 63.5t32 46t38 40.5t33 34.5q21 23 40 61t19 62q0 150 -132 150h-175z" />
<glyph unicode="&#xe03;" horiz-adv-x="1044" d="M68 1179v96q8 0 19 -3t22 -8t21.5 -12t19.5 -14q21 -13 46 -34q18 18 44 34q43 37 94 37q99 0 148 -61t49 -161q0 -42 -9 -76t-29.5 -64.5t-36 -47.5t-44.5 -46q-2 -3 -3.5 -4t-3 -3t-3.5 -4q-16 -15 -31 -34.5t-35.5 -52t-33 -74.5t-12.5 -85v-154q0 -340 258 -340 q60 0 107 23.5t75 60t45.5 85.5t24 93t6.5 88v857h126v-845q0 -84 -11 -150t-37.5 -125t-69 -98t-110 -61.5t-156.5 -22.5q-389 0 -389 435v154q0 94 42.5 184.5t118.5 153.5q3 2 15 9.5t17 12l15 13.5t15.5 19t11.5 24t8.5 33t2.5 42q0 90 -95 120q-30 10 -85 -39 q-5 -5 -15.5 -14.5t-19 -18.5t-14.5 -17q-17 17 -41 47q-42 48 -67 48z" />
<glyph unicode="&#xe04;" horiz-adv-x="1273" d="M114 0v900q0 96 46 175t121.5 128t167.5 75.5t190 26.5t189.5 -26.5t166.5 -75.5t120.5 -128t45.5 -175v-900h-126v900q0 51 -16.5 96t-45.5 78t-67 59t-82.5 42t-91 24.5t-93.5 8.5q-57 0 -112.5 -11.5t-107.5 -36.5t-91.5 -60t-63.5 -87t-24 -113v-408q47 61 94 94 q118 100 244 100v-130q-119 0 -234 -86q-50 -32 -101 -83v-387h-129z" />
<glyph unicode="&#xe05;" horiz-adv-x="1273" d="M114 0v900q0 108 42 199t126.5 148.5t195.5 57.5q47 0 112 -65q20 -24 49 -64q14 20 53 64q21 22 34 33.5t33 21.5t39 10q158 0 260.5 -120.5t102.5 -284.5v-900h-126v900q0 49 -13 100.5t-37.5 99t-67.5 78t-97 30.5q-41 0 -114 -90q-50 -59 -67 -86q-17 24 -71 86 q-25 29 -40.5 45t-36 30.5t-37.5 14.5q-53 0 -95.5 -30.5t-66.5 -78t-36.5 -99t-12.5 -100.5v-408q41 53 95 94q116 100 240 100v-130q-119 0 -234 -86q-50 -32 -101 -83v-387h-129z" />
<glyph unicode="&#xe06;" horiz-adv-x="1290" d="M68 1179v96q34 0 82 -37q21 -13 46 -34q18 18 44 34q43 37 94 37q90 2 143.5 -53.5t53.5 -168.5q0 -56 -13.5 -102t-34.5 -78t-47 -60t-51.5 -53t-47 -52t-34.5 -63t-13 -79l-5 -305q58 -51 114 -79q138 -80 277 -80q89 0 154 18.5t107 51t67.5 83.5t35.5 110t10 136v774 h126v-879q0 -53 -16 -110t-50 -113t-81 -100.5t-116 -72t-148 -27.5q-199 0 -357 95q-65 37 -118 96v-164h-131v580q0 59 13.5 104.5t35.5 74.5t48 53t52 46.5t48 48t35.5 64.5t13.5 89q0 53 -34 78.5t-75 25.5q-37 0 -82 -39q-18 -15 -38 -41q-4 7 -10 15.5l-12 17 t-10 14.5q-14 16 -22 24t-23 16t-31 8z" />
<glyph unicode="&#xe07;" horiz-adv-x="1059" d="M68 842h126l184 -748q100 0 188.5 42.5t152 114.5t100.5 173.5t37 214.5t-37.5 213.5t-100 171t-147 111.5t-175.5 41v99q109 0 203 -31.5t164.5 -89.5t120.5 -137t76 -175t26 -203q0 -117 -33.5 -220.5t-92 -179t-134.5 -130t-163.5 -82t-178.5 -27.5h-117z" />
<glyph unicode="&#xe08;" horiz-adv-x="1212" d="M74 1058q29 65 90 121q41 36 83 61t114.5 45t157.5 20q147 0 267 -49t198 -135t120 -202t42 -250q0 -191 -66 -343t-188.5 -239t-279.5 -87h-154l-124 495q-2 7 -4.5 12.5t-7 8.5t-6 5t-9 3t-9 1h-12h-13.5h-61v99h126q22 0 38 -2.5t23 -6t12.5 -7.5t5.5 -7t2 -4t3 1 l146 -504q81 0 149.5 24.5t116.5 67.5t84 98.5t57 121t31.5 131t10.5 132.5q0 104 -26.5 192.5t-73 151.5t-109.5 107.5t-136 66t-153 21.5q-175 0 -317 -124q-62 -58 -100 -122z" />
<glyph unicode="&#xe09;" horiz-adv-x="1258" d="M68 586v100h88q77 0 115.5 -52.5t38.5 -138.5v-87q0 -35 1 -60t4.5 -55.5t9.5 -52.5t17 -46t26.5 -40.5t37.5 -32t50 -24.5t65.5 -15t82.5 -6q142 0 290 96q56 33 126 98v507q0 215 -102.5 323t-293.5 108q-152 0 -302 -83q-55 -31 -116 -84l-42 99q55 49 121 82 q168 83 339 83q138 0 240.5 -37t163 -105t89.5 -156t29 -199v-808h-126v164q-59 -55 -135 -96q-163 -95 -342 -95t-267 123t-88 344v36q0 110 -38 110h-82z" />
<glyph unicode="&#xe0a;" horiz-adv-x="1120" d="M68 1176v99h193q45 0 86 -14t76.5 -42.5t56.5 -79t21 -116.5q0 -117 -129 -246q-93 -93 -93 -246v-156q0 -34 2 -60t9.5 -59.5t20 -58.5t36.5 -50.5t56.5 -42t81.5 -26.5t111 -10q46 0 88 14t73.5 38.5t58 56.5t44.5 67.5t30.5 72t18.5 70t6 61.5q0 66 -13.5 128 t-41.5 117.5t-68 97.5t-97.5 66.5t-126.5 24.5v98q78 0 147 46t117.5 123.5t77 182.5t28.5 219h128q0 -144 -32 -259.5t-71.5 -176.5t-95 -106.5t-80.5 -56.5t-51 -20h-2q0 -1 17 -8.5t36.5 -17t48 -30t54.5 -45t53 -63t47 -82.5t32.5 -105t12.5 -129q0 -65 -14.5 -129.5 t-48 -129t-82 -113.5t-124 -79.5t-168.5 -30.5q-107 0 -186 21t-127.5 57t-78 90.5t-40 113.5t-10.5 135v144q0 58 8 107t18.5 80t30 61.5t33 45.5t37.5 39.5t33 35.5q59 84 59 123q0 30 -4 53t-14.5 48t-35 38.5t-60.5 13.5h-193z" />
<glyph unicode="&#xe0b;" horiz-adv-x="1120" d="M68 1179v96q8 0 19 -3t22 -8t21.5 -12t19.5 -14q21 -13 46 -34q18 18 44 34q43 37 94 37q89 0 143 -55t54 -167q0 -33 -8 -63.5t-16 -50t-29.5 -46.5t-30.5 -37t-36 -38q-19 -19 -29 -30t-32.5 -39.5t-35.5 -53t-24 -61t-11 -72.5v-187q0 -33 2.5 -60t10.5 -59.5 t21.5 -58.5t37.5 -51t56 -41.5t79.5 -26.5t105.5 -10q60 0 113.5 26.5t91 69t65 94.5t40.5 102t13 92q0 82 -22 157.5t-63 137t-109 98.5t-153 37v98q78 0 147 46t117.5 123.5t77 182.5t28.5 219h128q0 -103 -16.5 -192t-40.5 -149t-60 -109.5t-65 -77t-65.5 -50 t-51.5 -28.5t-33 -12q-3 -1 -4 -1q1 -1 5 -2q11 -5 20.5 -9t32.5 -16.5t42 -26t45.5 -36.5t47 -48.5t42.5 -62t36.5 -77t24 -93t9.5 -109.5q0 -68 -15 -134t-49.5 -129t-85.5 -110.5t-129 -76.5t-172 -29q-124 0 -210 31t-132.5 89.5t-66 129t-19.5 164.5v193 q0 85 44.5 170.5t121.5 152.5q8 6 14 11t14 12.5t14 14.5t12.5 16t11.5 19.5t9 22t6 25.5t2 29q0 93 -101 117q-11 4 -27.5 -3t-26 -13.5t-30.5 -22.5l-44 -47q-27 33 -35 47q-42 48 -73 48z" />
<glyph unicode="&#xe0c;" horiz-adv-x="2058" d="M68 993q36 78 114 156q168 156 384 156q81 0 159 -12t156 -42t135.5 -75t93.5 -116t36 -160v-639q45 -50 98 -79q120 -80 262 -80q62 0 109.5 10t80 25.5t55 45t35 57.5t19.5 75t8.5 86t1.5 100v774h129v-867q0 -68 -10 -128.5t-36 -118t-65 -99t-102 -67t-143 -25.5 q-202 0 -337 94q-61 38 -105 100v-164h-129v838q0 66 -15.5 120.5t-41.5 92t-63 66t-76 45.5t-85.5 27.5t-86.5 14.5t-83 4q-141 0 -274 -108q-72 -67 -102 -107l182 -155q-13 -12 -28 -49q-24 -75 -24 -197v-436q0 -6 -0.5 -16.5t-0.5 -14.5t1 -11t4 -10t8.5 -6t13.5 -4h94 v-94h-118q-30 0 -52.5 6t-37 19t-23.5 28.5t-13.5 39.5t-6 46t-1.5 55v398q0 109 32 182q16 42 35 64q-22 16 -56 44t-40 33q-91 74 -91 78z" />
<glyph unicode="&#xe0d;" horiz-adv-x="2058" d="M68 993q36 78 114 156q168 156 384 156q81 0 159 -12t156 -42t135.5 -75t93.5 -116t36 -160v-482q0 -72 12.5 -126.5t42.5 -100t86 -69t138 -23.5q160 0 289 85q54 34 101 89v1002h129l-6 -1116q0 -76 -19 -152.5t-60 -149t-99 -129t-142.5 -90.5t-183.5 -34 q-143 0 -252 64q-49 31 -92 68l38 92q37 -43 80 -65q93 -61 240 -61q115 0 200 58.5t127.5 159t42.5 230.5v14q-55 -60 -110 -96q-134 -95 -307 -95q-91 0 -158 21.5t-109.5 59t-68 96t-35.5 125.5t-10 155v408q0 63 -14.5 115t-38.5 89.5t-59.5 66.5t-74.5 47.5t-85 30 t-90.5 16.5t-91.5 5q-141 0 -274 -108q-72 -67 -98 -107l181 -155q-14 -18 -29 -52q-26 -68 -26 -194v-436q0 -3 -0.5 -12t-0.5 -12t0.5 -9.5t2 -9t3.5 -7t5 -6t8 -3.5t12 -3h90v-94h-106q-34 0 -58.5 8.5t-44.5 29.5t-30.5 60t-10.5 96v398q0 89 30 182q16 42 35 64 q-22 16 -56 44t-40 33q-91 74 -91 78z" />
<glyph unicode="&#xe0e;" horiz-adv-x="1258" d="M64 0v102h92q22 2 27 14t5 40v8v428q0 109 32 182q16 42 35 64q-22 16 -56 44t-40 33q-91 74 -91 78q41 80 116 156q169 156 388 156q87 0 166.5 -12.5t155.5 -42t130.5 -74.5t88 -116t33.5 -160v-1100q0 -25 -2 -46.5t-9 -51t-19.5 -52.5t-35.5 -47.5t-53.5 -41 t-77.5 -27t-105 -10.5q-122 0 -242 74q-55 31 -98 74q-46 -47 -99 -74q-138 -74 -311 -74v98q173 0 311 74q59 30 102 73q48 -48 95 -77q110 -76 234 -76q97 0 139 44t42 140v1038q0 66 -15.5 120.5t-41.5 92t-63 66t-76 45.5t-85.5 27.5t-86.5 14.5t-83 4q-144 0 -276 -108 q-73 -67 -100 -107l182 -155q-17 -20 -32 -55q-26 -73 -26 -191v-398q0 -194 -142 -194h-108z" />
<glyph unicode="&#xe0f;" horiz-adv-x="1258" d="M64 0v102h92q22 2 27 15t5 42v7v424q0 108 32 181q16 40 35 67q-22 16 -56 44t-40 33q-91 74 -91 78q41 80 116 156q169 156 376 156q82 0 161 -12t157.5 -42t136.5 -75t94.5 -116t36.5 -160v-1059v-3q0 -21 -0.5 -34.5t-3 -41t-7 -46.5t-14 -45.5t-23 -45t-35 -39 t-48.5 -33t-65 -21t-83 -8.5q-82 0 -173 68q-28 22 -79 68l-105 -161l-120 163q-42 -37 -92 -67q-114 -67 -204 -67v94q42 0 95 22t101 54q12 8 25.5 18t24 18t25.5 21t25 20l120 -162l105 150l14 -21t29.5 -35t45 -40.5t59 -31t73.5 -13.5q181 0 181 190v1026q0 67 -16 122 t-42 92.5t-64 66t-77.5 45t-87 27t-87.5 14t-83 3.5q-82 0 -146.5 -30t-123.5 -78q-73 -67 -100 -107l179 -155q-17 -27 -29 -55q-26 -73 -26 -191v-398q0 -58 -10.5 -96.5t-32 -59.5t-48 -29.5t-64.5 -8.5h-95z" />
<glyph unicode="&#xe10;" horiz-adv-x="1212" d="M68 1058q30 67 88 121q144 126 369 126q135 0 237 -39q255 72 255 188h129q0 -33 -9 -61t-21 -48t-35.5 -38t-41 -29t-49 -23.5t-49 -18t-49.5 -15.5l-6 -1.5t-5 -1.5t-5 -2q130 -90 200 -231t70 -316q0 -101 -19 -196t-61 -181.5t-102.5 -151t-149.5 -102.5t-196 -38 h-160l-124 501q-3 10 -7.5 15.5t-11.5 7.5t-12.5 2.5t-17 -0.5t-18.5 -1h-55v99h114q30 0 51 -6t28 -13t12 -13t7 -6l144 -492q81 0 149.5 24.5t116.5 67.5t84 98.5t57 121t31.5 131t10.5 132.5q0 75 -14 142t-39.5 121t-61 99t-78 77.5t-91.5 55t-101.5 33.5t-106.5 11 q-181 0 -317 -136q-60 -60 -94 -134zM94 -543q126 0 214 71q39 30 70 70l105 -152l103 152q0 -2 5.5 -10.5t16 -21.5t24.5 -27.5t33.5 -29t40.5 -26t47 -19t53 -7.5q43 0 73.5 12t45 27t22 38.5t8.5 36t1 31.5v5v126h128v-120q5 -66 -20 -129q-53 -126 -228 -126 q-112 0 -191 68q-35 35 -55 67l-107 -162l-105 165q-18 -32 -62 -70q-90 -68 -222 -68v99z" />
<glyph unicode="&#xe11;" horiz-adv-x="1290" d="M68 1220v96q34 0 82 -38q14 -8 46 -34q22 20 44 34q43 38 100 38q46 0 92 -20t78.5 -60t32.5 -90q38 47 84 80q103 79 217 79q75 0 140.5 -38t110 -100t70 -140t25.5 -157v-870h-130v777q0 183 -66.5 291t-175.5 108q-68 0 -132.5 -35t-115 -92t-95 -130.5t-76.5 -151.5 t-55 -153t-34.5 -136t-11.5 -100v-50v-328h-128v304q0 124 24 239.5t58.5 198t69 150t59 120.5t24.5 84q0 37 -17.5 63t-41.5 37.5t-50 11.5q-32 0 -78 -41q-15 -12 -42 -39l-38 45q-46 47 -70 47z" />
<glyph unicode="&#xe12;" horiz-adv-x="2058" d="M68 654q0 118 13.5 215.5t39.5 168t61 122.5t79.5 83.5t92.5 46.5t104 15q31 0 102 -65l64 -64q9 9 21.5 20.5t25 23.5t21.5 20q70 65 97 65q161 0 259 -107.5t98 -273.5v-663q48 -54 94 -79q121 -80 269 -80q54 0 96.5 6.5t74 21.5t54.5 33t38 47t24.5 56.5t14 69 t6 77.5t1.5 88v774h126v-867q0 -66 -11 -126.5t-38 -117.5t-67.5 -99t-104.5 -67t-143 -25q-195 0 -334 91q-60 41 -100 92v-156h-126v924q0 41 -8.5 81t-26 77t-42 64.5t-60.5 44.5t-77 17q-42 0 -114 -90q-51 -59 -68 -86q-17 24 -70 86q-26 29 -41.5 45t-36 30.5 t-36.5 14.5q-34 0 -67.5 -19t-66 -62t-57.5 -105.5t-40 -157.5t-15 -210q0 -281 93.5 -433.5t274.5 -152.5q53 0 77 6q9 2 15 8v-94q-4 -4 -18 -9q-30 -6 -74 -6q-70 0 -133 18.5t-112.5 52.5t-90.5 82t-70 106.5t-49 126.5t-29.5 142t-9.5 153z" />
<glyph unicode="&#xe13;" horiz-adv-x="2058" d="M68 993q36 78 114 156q168 156 392 156q108 0 207 -24t182 -71t133 -127t50 -183v-399q0 -60 2 -100.5t8.5 -86.5t19 -75t34.5 -58.5t53.5 -45.5t77 -26t103.5 -10q150 0 276 79q54 30 95 83v1014h129v-1275h-129v164q-39 -55 -107 -96q-140 -95 -338 -95q-76 0 -137 25 t-100.5 67t-66 99t-38 117.5t-11.5 126.5v430q0 87 -27.5 154t-70.5 107t-103.5 65t-119.5 34.5t-124 9.5q-144 0 -276 -108q-73 -67 -102 -107l181 -155q-14 -18 -29 -52q-26 -68 -26 -194v-436q0 -6 -0.5 -16.5t-0.5 -14.5t1 -11t4 -10t8.5 -6t13.5 -4h94v-94h-124 q-25 0 -45 5t-33.5 13t-23 22.5t-15 28.5t-8 36.5t-3 41t-0.5 47.5v398q0 109 32 182q16 42 35 64q-22 16 -56 44t-40 33q-91 74 -91 78z" />
<glyph unicode="&#xe14;" horiz-adv-x="1258" d="M68 654q0 103 17.5 191t48 153.5t73 118t91 87.5t104.5 58t110.5 33t111.5 10q78 0 150 -12.5t141 -42t119.5 -74.5t81 -116t30.5 -160v-900h-126v915q0 87 -57 155.5t-146.5 103t-192.5 34.5q-65 0 -127 -22.5t-117 -68.5t-96.5 -111t-65.5 -155.5t-24 -196.5 q0 -136 22 -242.5t66.5 -184t115 -118.5t164.5 -41q44 0 74 6q14 4 18 8v-94q-4 -4 -18 -9q-24 -6 -70 -6q-85 0 -160.5 29t-137 87t-106.5 139t-69.5 190t-24.5 236z" />
<glyph unicode="&#xe15;" horiz-adv-x="1258" d="M68 654q0 118 13.5 215.5t39.5 168t61 122.5t79.5 83.5t92.5 46.5t104 15q31 0 58.5 -17t57.5 -48q21 -24 50 -64q29 40 50 64q15 16 26 25.5t26 19.5t30.5 15t32.5 5q136 0 246.5 -112.5t110.5 -268.5v-924h-126v924q0 66 -28.5 131.5t-78.5 109t-105 43.5 q-44 0 -116 -90q-51 -59 -68 -86q-17 24 -70 86q-26 29 -41.5 45t-36 30.5t-36.5 14.5q-34 0 -67 -19t-65.5 -62t-57 -105.5t-39.5 -157.5t-15 -210q0 -96 11.5 -179.5t38.5 -159.5t68 -130t104.5 -85.5t143.5 -31.5q53 0 77 6q9 2 15 8v-94q-4 -4 -18 -9q-24 -6 -62 -6 q-100 0 -183.5 34t-143 95t-100.5 146.5t-60 187.5t-19 218z" />
<glyph unicode="&#xe16;" horiz-adv-x="1258" d="M68 993q36 78 114 156q34 32 69.5 57t82.5 49t106 37t126 13q81 0 159 -12t156 -42t135.5 -75t93.5 -116t36 -160v-736q0 -64 -52 -124q-29 -28 -53 -40h-24v838q0 57 -11.5 105.5t-33 84t-49.5 64t-63 48t-70.5 33t-75.5 21t-75.5 11t-72.5 3.5q-82 0 -148.5 -29.5 t-132.5 -78.5q-67 -57 -103 -107l181 -155q-12 -11 -23 -49q-20 -66 -20 -197v-436q0 -3 -0.5 -12t-0.5 -12t0.5 -9.5t2 -9t3.5 -7t5 -6t8 -3.5t12 -3h90v-94h-86q-92 -2 -129 41.5t-37 152.5v398q0 109 32 182q16 42 35 64q-22 16 -56 44t-40 33q-91 74 -91 78z" />
<glyph unicode="&#xe17;" horiz-adv-x="1243" d="M114 0v1275h126v-161q60 60 126 96q168 95 356 95q100 0 180.5 -39.5t129 -103.5t74 -139.5t25.5 -152.5v-870h-126v777q0 211 -89.5 305t-276.5 94q-147 0 -285 -80q-56 -28 -114 -79l3 -1017h-129z" />
<glyph unicode="&#xe18;" horiz-adv-x="1243" d="M114 993q0 57 20.5 104t53.5 79t79.5 56.5t93.5 38.5t100.5 22.5t95 11.5t82.5 3q124 0 311 -57q73 -21 150 -55v-94q-139 48 -156 53q-182 55 -305 55q-35 0 -61.5 -0.5t-70.5 -5t-77 -12.5t-71 -24.5t-62 -39t-40.5 -57t-16.5 -78.5q0 -62 30.5 -101.5t82 -57 t118.5 -25.5t141 -14t147.5 -15.5t140.5 -35.5t118.5 -69.5t82 -122.5t30.5 -189q0 -77 -25.5 -143.5t-81.5 -123.5t-157.5 -90t-239.5 -33h-9q-471 -2 -471 405v249h123v-249q0 -49 9.5 -90.5t24 -71.5t38 -54t45.5 -39t52.5 -26t54 -16.5t54.5 -8.5t49 -3.5t42 -0.5 q84 0 155 26t116 68t70 93.5t25 104.5q0 75 -17 131t-55.5 92.5t-74.5 59.5t-101.5 36.5t-106 19t-117.5 12.5q-85 8 -128 13.5t-109 24t-98.5 45.5t-58 78t-25.5 121z" />
<glyph unicode="&#xe19;" horiz-adv-x="1243" d="M114 405v879h126v-774q0 -80 8 -138t32 -112t65 -87.5t108.5 -53.5t161.5 -20q138 0 276 79q56 29 114 80l-3 1026h129v-1284h-126v159q-46 -50 -123 -95q-162 -91 -354 -91q-99 0 -180 38.5t-131 101t-76.5 138t-26.5 154.5z" />
<glyph unicode="&#xe1a;" horiz-adv-x="1212" d="M114 430v845h126v-857q0 -44 8.5 -89.5t31 -93t55.5 -84.5t87 -60t121 -23h131q62 0 114 23t85.5 60t57 84.5t33.5 93.5t10 89v857h126v-845q0 -71 -16 -138t-48 -125t-78 -101t-110.5 -68t-141.5 -25h-214q-92 0 -166 38t-119.5 102.5t-69 145.5t-23.5 171z" />
<glyph unicode="&#xe1b;" horiz-adv-x="1212" d="M114 430v845h126v-857q0 -44 8.5 -89t30 -93t54 -84.5t85.5 -60t119 -23.5h129q63 0 116 23t87.5 60t59 84.5t35 93.5t10.5 89v1256h126v-1244q0 -89 -25.5 -171t-73 -146t-121.5 -102t-164 -38h-215q-97 0 -172.5 38t-121.5 102.5t-69.5 145t-23.5 171.5z" />
<glyph unicode="&#xe1c;" horiz-adv-x="1477" d="M114 988v11q0 28 0.5 44.5t3.5 49t8.5 53.5t18 48t29.5 43t44 27t61 11h105v-99h-74q-25 0 -42.5 -22t-24.5 -57t-9.5 -61t-2.5 -50q-4 -258 79 -522q35 -139 83 -246l305 714h49l291 -714q51 121 84 242q85 317 112 815h130q-45 -522 -156 -943q-53 -192 -108 -332h-86 l-296 718l-294 -718h-86q-53 122 -113 316q-111 356 -111 672z" />
<glyph unicode="&#xe1d;" horiz-adv-x="1477" d="M114 988v44.5t3 49t8.5 56.5t18 50t30 46t45 28.5t63.5 12.5h105v-99h-77q-76 0 -76 -194q0 -236 80 -518q34 -139 82 -246l302 714h49l291 -714q57 160 102 374q100 506 100 1122h126q0 -694 -134 -1260q-65 -274 -132 -454h-86l-296 730l-294 -730h-86 q-53 122 -113 316q-111 356 -111 672z" />
<glyph unicode="&#xe1e;" horiz-adv-x="1545" d="M21 1275h117l284 -983l300 983h86l294 -983l290 983h117l-360 -1275h-61l-323 1072l-323 -1072h-58z" />
<glyph unicode="&#xe1f;" horiz-adv-x="1668" d="M21 1275h117l284 -983l300 983h86l294 -983l416 1422h117l-486 -1714h-61l-323 1082l-323 -1082h-58z" />
<glyph unicode="&#xe20;" horiz-adv-x="1258" d="M64 3v96h92q27 2 31 27q1 6 1 33v433q0 109 32 182q16 42 35 64q-22 16 -56 44t-40 33q-91 74 -91 78q41 80 116 156q169 156 390 156q78 0 153.5 -12t152.5 -42t135 -75t94.5 -116t36.5 -160v-736q0 -64 -52 -124q-29 -28 -53 -40h-24v838q0 64 -15 117.5t-40 91 t-61 66.5t-74.5 46.5t-83.5 28.5t-85.5 15.5t-83.5 4.5q-156 0 -289 -108q-61 -56 -95 -107l182 -155q-17 -20 -32 -55q-26 -73 -26 -191v-398q0 -79 -16 -120t-50 -56t-98 -15h-86z" />
<glyph unicode="&#xe21;" horiz-adv-x="1243" d="M114 0v1275h126v-996q50 -59 117 -101q143 -102 288 -102q190 0 275 100t85 313v786h126v-867q0 -114 -48.5 -212t-145 -160.5t-221.5 -62.5q-196 0 -353 95q-74 43 -123 96v-164h-126z" />
<glyph unicode="&#xe22;" horiz-adv-x="1167" d="M68 363q0 177 140 294q59 50 146 73q-66 12 -129 53q-126 91 -126 240q0 65 19.5 116.5t49.5 81.5t69.5 50t75 27t71.5 7q108 0 144 -12q19 -4 34 -9v-92q-2 2 -6.5 2.5t-11.5 1.5t-13 2q-72 10 -135 10q-54 0 -94.5 -30t-58.5 -71t-18 -84q0 -99 96.5 -171t240.5 -72 v-100q-73 0 -136.5 -22.5t-105 -57.5t-71 -78t-42.5 -83.5t-13 -75.5q0 -49 8 -88.5t32 -79.5t64 -67t107 -43.5t157 -16.5q62 0 113.5 12t88.5 32.5t66 49.5t47 60t29.5 66.5t16 67t4.5 62.5v857h126v-845q0 -92 -27 -171.5t-83.5 -145t-153.5 -103t-227 -37.5 q-135 0 -232 27t-154 79.5t-82.5 122t-25.5 161.5z" />
<glyph unicode="&#xe23;" horiz-adv-x="1029" d="M114 76v124q47 -33 114 -68q132 -64 276 -64q64 0 114 17.5t81.5 46t52.5 68t29 79.5t8 84q0 62 -23 107t-62 71.5t-90 45t-107 33t-111.5 30.5t-106.5 41.5t-90 62t-62 97.5t-23 142q0 77 36 138.5t94.5 98.5t126.5 56t139 19q144 0 261 -54q43 -19 83 -53v-108 q-30 30 -86 59q-127 59 -258 59q-47 0 -94 -14t-87 -39.5t-64.5 -66t-24.5 -89.5q0 -57 19 -100t51.5 -69t75.5 -47.5t91.5 -34t100 -28.5t100 -31.5t91.5 -43t75.5 -63t51.5 -91.5t19 -128q0 -65 -9.5 -117.5t-38 -105t-74.5 -88t-124.5 -57.5t-182.5 -22q-153 0 -274 51 q-62 25 -98 52z" />
<glyph unicode="&#xe24;" horiz-adv-x="1258" d="M68 993q36 78 114 156q168 156 386 156q82 0 160 -12t155 -42t134.5 -75t93 -116t35.5 -160v-1378q0 -64 -52 -124q-29 -28 -53 -40h-24v1480q0 64 -15 117.5t-40 91t-61 66.5t-74.5 46.5t-83.5 28.5t-85.5 15.5t-83.5 4.5q-144 0 -289 -108q-67 -57 -103 -107l184 -155 q-8 -7 -26 -49q-20 -66 -20 -197v-436q0 -3 -0.5 -12t-0.5 -12t0.5 -9.5t2 -9t3.5 -7t5 -6t8 -3.5t12 -3h90v-94h-96q-85 0 -120.5 42.5t-35.5 151.5v398q0 109 32 182q16 42 35 64q-22 16 -56 44t-40 33q-91 74 -91 78z" />
<glyph unicode="&#xe25;" horiz-adv-x="1135" d="M68 316q0 89 29.5 157.5t77 109.5t115.5 67t136.5 35t147.5 9q178 0 264 40q37 16 59 43v79q0 52 -10.5 101t-35 95t-61 80t-92 55t-124.5 21q-172 0 -319 -130q-57 -49 -114 -126l-39 101q47 74 112 126q157 126 360 126q229 0 339 -121t110 -376v-808h-126v663 q-31 -26 -71 -39q-88 -38 -252 -38q-29 0 -61.5 -3.5t-70 -13t-72.5 -23.5t-67.5 -36t-56.5 -49t-38 -64t-14 -81t11.5 -82t31.5 -64.5t46.5 -46.5t57.5 -32t62.5 -17.5t62.5 -5.5q58 0 100 6l26 8v-91q-8 -3 -32 -9q-32 -9 -84 -9q-210 0 -309 83t-99 260z" />
<glyph unicode="&#xe26;" horiz-adv-x="1258" d="M64 0v99h92q27 2 31 27q1 6 1 33v433q0 109 32 182q16 42 35 64q-22 16 -56 44t-40 33q-91 74 -91 78q41 80 116 156q35 32 70.5 57t82.5 49t105 37t124 13q86 0 166 -12.5t156.5 -42t133 -74.5t90.5 -116t34 -160v-1378q0 -64 -52 -124q-29 -28 -53 -40h-24v1480 q0 68 -16 123.5t-42 93t-64 66t-77.5 44.5t-87 26t-87 13.5t-83.5 3.5q-145 0 -278 -108q-68 -63 -100 -107l181 -155q-6 -10 -25 -55q-24 -81 -24 -191v-398q0 -114 -36.5 -155t-124.5 -39h-89z" />
<glyph unicode="&#xe27;" horiz-adv-x="1120" d="M68 99l40 97q35 -39 82 -64q110 -64 270 -64q109 0 197.5 44t146 121.5t89 181.5t31.5 224q0 243 -125.5 390t-338.5 147q-145 0 -270 -51q-43 -19 -82 -53l-40 104q24 35 73 64q109 65 325 65q121 0 226 -42t186 -123t128 -210t47 -291t-47.5 -291t-129.5 -210 t-188 -123t-228 -42q-218 0 -322 61q-45 24 -70 65z" />
<glyph unicode="&#xe28;" horiz-adv-x="1273" d="M114 0v900q0 96 44 174t118.5 128t170 76.5t201.5 26.5q105 0 184 -27q200 75 200 176h129q0 -28 -7 -52.5t-17 -42.5t-28 -35.5t-32.5 -29t-39 -24.5t-40 -20t-41.5 -18q47 -29 82.5 -59t64.5 -69.5t43.5 -90.5t14.5 -113v-900h-126v900q0 60 -23 111.5t-61 87 t-88.5 60.5t-104.5 37t-110 12q-47 0 -94 -8t-93 -23t-85 -40.5t-69 -58.5t-47 -79t-17 -99v-417q35 49 95 101q120 102 240 102v-130q-61 0 -122.5 -24t-111.5 -62q-59 -38 -101 -86v-384h-129z" />
<glyph unicode="&#xe29;" horiz-adv-x="1212" d="M114 430v845h126v-867q0 -42 8.5 -85.5t30.5 -90t54 -82.5t84.5 -59t116.5 -23h129q65 0 119 23t89 60t59.5 84.5t35 93.5t10.5 89l-2 230h-276v129h276v492h126v-492h92v-129h-90l4 -218q0 -61 -14.5 -123.5t-46.5 -123t-77.5 -107t-114 -75t-149.5 -28.5h-215 q-81 0 -146 28t-107 73t-70 105.5t-40 123t-12 127.5z" />
<glyph unicode="&#xe2a;" horiz-adv-x="1135" d="M68 316q0 51 9.5 94.5t27.5 77.5t43.5 63t55.5 50t66.5 37t74 26.5t80 17.5t82.5 9.5t83 2.5q168 0 254 40q36 20 50 43v79q0 52 -10.5 101t-35 95t-61 80t-92 55t-123.5 21q-173 0 -320 -130q-57 -49 -114 -126l-44 106q37 56 118 121q169 126 360 126q60 0 114 -12 q86 22 147 66t61 95h120q0 -42 -15 -75.5t-43.5 -58t-61 -42.5t-76.5 -34q105 -65 153.5 -173.5t48.5 -262.5l3 -808h-129v663q-23 -23 -62 -36q-83 -37 -242 -37q-37 0 -76 -5t-85.5 -16t-87 -32t-74.5 -49.5t-53.5 -73t-19.5 -98.5q0 -53 16 -96t43 -71t62.5 -47 t72.5 -26.5t76 -7.5q56 0 98 6q13 2 30 8l-2 -88q-5 -2 -14 -6t-14 -6q-31 -9 -98 -9q-208 0 -302 83t-94 260z" />
<glyph unicode="&#xe2b;" horiz-adv-x="1182" d="M114 0v1275h126v-627l627 627h162l-417 -419q38 -7 75.5 -17.5t84.5 -31t87 -47t80 -67t68 -88.5t45.5 -115t17.5 -144v-346h-126l2 304q0 79 -17.5 146.5t-45.5 114.5t-66 86t-75 63t-77 41.5t-67 25t-50 11.5l-308 -314l3 -478h-129z" />
<glyph unicode="&#xe2c;" horiz-adv-x="1668" d="M21 1275h117l284 -993l300 993h86l298 -993l234 818q12 32 12 73q0 53 -29 96.5t-72 72.5q-44 32 -102 50q91 19 185 68q81 42 134 106t53 148h114q0 -185 -175 -280q-75 -34 -176 -48q62 -27 108 -64q102 -91 76 -197q-1 -4 -1 -10.5t-2 -13.5t-5 -17l-311 -1084h-71 l-313 1072l-311 -1072h-70z" />
<glyph unicode="&#xe2d;" horiz-adv-x="1243" d="M64 454q0 28 1 45t3.5 37.5t8 32t14.5 23.5t23 18t33.5 10t46.5 4h246v-99h-206q-17 -2 -25.5 -6.5t-12 -12.5t-8.5 -28q-5 -32 -1.5 -67.5t9 -70.5t22 -69t38 -64t55.5 -55.5t75.5 -44.5t98.5 -29t124 -10q93 0 167 28.5t124 79.5t83.5 124t48.5 157t15 182 q0 79 -12.5 151t-36 135.5t-61 115.5t-85 89t-109.5 57.5t-134 20.5q-219 0 -336 -142q-55 -64 -77 -139h-128q21 102 88 187q148 191 453 191q120 0 217.5 -39.5t161.5 -104.5t107.5 -152.5t62 -179.5t18.5 -190q0 -172 -46.5 -303.5t-127 -209t-179.5 -115.5t-214 -38 q-114 0 -212.5 31t-173 89.5t-117 151.5t-42.5 209z" />
<glyph unicode="&#xe2e;" horiz-adv-x="1243" d="M64 454q0 103 26 136.5t106 33.5h244v-99h-206q-42 0 -46 -47q-5 -57 2.5 -111t35.5 -110t74.5 -97t125.5 -66.5t183 -25.5q93 0 167 28.5t124 79.5t83.5 124t48.5 157t15 182q0 119 -28.5 221.5t-82 180t-137 122.5t-187.5 45q-222 0 -339 -142q-53 -57 -77 -139h-128 q21 102 88 187q30 39 69 70.5t93.5 60t130 44.5t163.5 16q66 0 153 -21q31 9 55.5 17.5t57.5 24t54.5 32.5t37.5 42t16 54h116q0 -39 -12.5 -72t-31.5 -55.5t-48 -41t-55 -29.5t-58 -22q73 -46 128.5 -116t87.5 -150t47.5 -162.5t15.5 -166.5q0 -172 -46.5 -303.5t-127 -209 t-179.5 -115.5t-214 -38q-114 0 -212.5 31t-173 89.5t-117 151.5t-42.5 209z" />
<glyph unicode="&#xe2f;" horiz-adv-x="1135" d="M68 1275h128q19 -68 42 -116.5t57 -85.5t82.5 -55.5t111.5 -18.5q146 0 255.5 72t143.5 204h132v-845v-31q0 -88 -1.5 -131t-14 -105t-37 -90.5t-73 -50.5t-120.5 -22v99q31 0 46 3.5t32.5 20.5t24.5 53.5t12 100t5 163.5v715q-35 -73 -92 -129q-128 -129 -301 -129 q-173 -2 -286.5 90.5t-146.5 287.5z" />
<glyph unicode="&#xe30;" horiz-adv-x="721" d="M114 408v62h117v-113q0 -42 25.5 -58.5t103.5 -16.5h236l-36 -98h-222q-47 0 -79.5 5.5t-61.5 19.5t-46 39t-27 64.5t-10 95.5zM114 1084v68h117v-114q0 -41 25.5 -57.5t103.5 -16.5h236l-36 -97h-216q-46 0 -78.5 4.5t-63 18t-48.5 37.5t-29 63t-11 94z" />
<glyph unicode="&#xe31;" d="M-722 1726v71h113v-117q0 -41 26 -57.5t105 -16.5h528l-38 -100h-504q-129 0 -179.5 48.5t-50.5 171.5z" />
<glyph unicode="&#xe32;" horiz-adv-x="982" d="M68 1096v102q35 31 79 53q105 54 237 54q63 0 127.5 -15t129.5 -50.5t115.5 -87.5t82 -133.5t31.5 -180.5v-838h-126v808q0 99 -31 176.5t-86.5 125.5t-128 73t-158.5 25q-76 0 -184 -56q-48 -24 -88 -56z" />
<glyph unicode="&#xe33;" horiz-adv-x="982" d="M-554 1726q0 60 30.5 110.5t82.5 80.5t113 30q86 0 151.5 -65.5t65.5 -155.5q0 -92 -63.5 -156t-153.5 -64q-93 0 -159.5 64.5t-66.5 155.5zM-452 1726q0 -52 35.5 -87t88.5 -35q49 0 85.5 35.5t36.5 86.5q0 49 -37 86.5t-85 37.5q-52 0 -88 -37t-36 -87zM68 1096v102 q35 31 79 53q105 54 237 54q63 0 127.5 -15t129.5 -50.5t115.5 -87.5t82 -133.5t31.5 -180.5v-838h-126v808q0 99 -31 176.5t-86.5 125.5t-128 73t-158.5 25q-76 0 -184 -56q-48 -24 -88 -56z" />
<glyph unicode="&#xe34;" d="M-968 1506l36 106h754v-106h-790z" />
<glyph unicode="&#xe35;" d="M-968 1506l36 104h628v187h126v-291h-790z" />
<glyph unicode="&#xe36;" d="M-968 1506l36 104h419q-1 4 -6.5 20.5t-5.5 25.5q-4 40 7 77t34.5 64.5t58.5 44t75 16.5q66 0 119 -49t53 -126q0 -71 -46 -124t-126 -53h-618zM-434 1680q0 -28 24.5 -52t52.5 -24q22 0 42 11t31 28.5t11 36.5q0 35 -24.5 59.5t-59.5 24.5q-29 0 -53 -25t-24 -59z" />
<glyph unicode="&#xe37;" d="M-968 1506l36 104h389v187h115v-187h124v187h126v-291h-790z" />
<glyph unicode="&#xe38;" d="M-393 -228h114q79 0 123.5 -54.5t44.5 -139.5v-190h-129v210q0 19 -8.5 35.5t-24 27.5t-35.5 11h-85v100z" />
<glyph unicode="&#xe39;" d="M-741 -228h102q181 0 181 -218q0 -94 112 -94q106 0 106 98v214h129v-202q0 -50 -9 -85t-32.5 -65.5t-70.5 -46t-117 -15.5q-49 0 -87.5 7.5t-64.5 19.5t-44.5 31.5t-28.5 38.5t-16 46t-7.5 47.5t-1.5 49.5q0 19 -8 35.5t-23.5 27.5t-35.5 11h-84v100z" />
<glyph unicode="&#xe3a;" d="M-240 -228h129v-138h-129v138z" />
<glyph unicode="&#xe3f;" horiz-adv-x="1120" d="M114 0v1460h294v258h117l3 -262q184 -2 285.5 -89.5t101.5 -235.5q0 -121 -74.5 -220.5t-195.5 -133.5q156 -27 259.5 -124.5t103.5 -244.5q0 -180 -135.5 -294t-347.5 -114v-255h-117v255h-294zM240 102h264q159 0 268.5 84.5t109.5 221.5q0 151 -112 233.5t-300 82.5 h-230v-622zM240 824h212q171 0 254 73.5t83 202.5q0 58 -16 103t-51 81.5t-99 56t-153 19.5h-230v-536z" />
<glyph unicode="&#xe40;" horiz-adv-x="429" d="M114 194v1081h126v-1116v-12v-12t0.5 -9.5t1.5 -8.5t3.5 -6.5t5.5 -6t8 -3t11 -2.5h93v-99h-93q-90 0 -123 44.5t-33 149.5z" />
<glyph unicode="&#xe41;" horiz-adv-x="951" d="M114 194v1081h126v-1116v-12v-12t0.5 -9.5t1.5 -8.5t3.5 -6.5t5.5 -6t8 -3t11 -2.5h93v-99h-84q-92 0 -128.5 42.5t-36.5 151.5zM604 194v1081h126v-1116v-8q0 -19 1 -27t8.5 -16t22.5 -9h92v-99h-86q-62 0 -97.5 18.5t-51 60t-15.5 115.5z" />
<glyph unicode="&#xe42;" horiz-adv-x="592" d="M214 1708q0 71 21 116.5t70.5 74t125.5 40t193 11.5h220v-98h-235q-82 0 -133 -7t-81.5 -24.5t-42.5 -43.5t-12 -69q0 -36 10 -87.5t21.5 -99t21 -128t9.5 -167.5v-1067v-8q0 -19 1 -27t8 -16t23 -9h91v-99h-83q-94 0 -130 39.5t-36 154.5v1032q0 87 -9.5 167.5t-21 128 t-21.5 99t-10 87.5z" />
<glyph unicode="&#xe43;" horiz-adv-x="777" d="M0 1864q13 30 46 59q82 59 224 59q369 0 369 -372q0 -61 -9.5 -112.5t-21 -86t-21 -103t-9.5 -159.5v-993q0 -3 -1 -8q0 -14 0.5 -21t3.5 -15.5t9.5 -12t18.5 -5.5h91v-94h-88q-63 0 -96.5 16t-50.5 57.5t-17 120.5v955q0 82 10.5 156t22.5 118.5t22 95t10 91.5 q0 67 -13.5 116.5t-36 79t-56 47t-68 23.5t-78.5 6q-111 0 -173 -61q-26 -23 -48 -60z" />
<glyph unicode="&#xe44;" horiz-adv-x="777" d="M0 1852v98q130 -1 220 -94q14 22 38 46q54 48 132 48q29 0 52 -6.5t39.5 -23t28 -32.5t18.5 -47.5t11.5 -54t6 -67t2 -70.5t0.5 -80v-24v-1389q0 -3 -0.5 -12t-0.5 -12t0.5 -9.5t2 -9t3.5 -7t5 -6t8 -3.5t12 -3h91v-94h-91q-57 0 -89.5 15.5t-49.5 58t-17 120.5v1351v35 q5 194 -26 249q-25 41 -68 23q-36 -16 -70 -76q-8 -13 -21 -52l-73 64q-87 64 -164 64z" />
<glyph unicode="&#xe45;" horiz-adv-x="982" d="M68 1096v102q35 31 79 53q105 54 225 54q67 0 133.5 -15t133 -50.5t117.5 -88t82.5 -133.5t31.5 -180v-1316q0 -64 -52 -124q-32 -31 -50 -40h-24v1450q0 99 -30 175.5t-84 125t-127.5 74t-162.5 25.5q-76 0 -184 -56q-48 -24 -88 -56z" />
<glyph unicode="&#xe46;" horiz-adv-x="1167" d="M68 962q0 162 74 252.5t204 90.5q56 0 143 -65l73 -64q23 22 71 64q76 65 141 65q97 0 161.5 -48.5t91 -123t26.5 -171.5v-1440q0 -66 -51 -124q-32 -31 -50 -40h-25v1542q0 52 -3.5 92.5t-15 82.5t-31 69.5t-53.5 45.5t-80 18q-41 0 -117 -83q-26 -26 -65 -81 q-38 55 -64 81q-76 83 -120 83q-59 0 -102 -36.5t-62.5 -91.5t-19.5 -118q0 -95 43 -173q18 -32 42 -51l-42 -111q-47 16 -87 61q-82 88 -82 274z" />
<glyph unicode="&#xe47;" d="M-952 1695q0 43 11 78.5t28.5 58t42.5 39.5t47.5 25.5t48.5 13.5t41 6t29 1h246q117 0 179 27q21 10 39 28v-92q-9 -10 -39 -24q-69 -24 -179 -24h-216q-87 0 -124.5 -35.5t-37.5 -101.5q0 -16 5 -32t15.5 -32t31.5 -26.5t50 -10.5q28 0 50 7.5t33 15.5t24 21 q19 26 23 45h48q4 -30 16 -45q25 -44 80 -44q30 0 52.5 10.5t32.5 26.5t14 29t4 23h117q0 -80 -55.5 -128.5t-134.5 -48.5q-62 0 -110 18q-34 14 -40 18q-15 -8 -47 -18q-69 -18 -138 -18q-19 0 -42 5.5t-49 19t-47 34t-35 54.5t-14 76z" />
<glyph unicode="&#xe48;" d="M-240 1506v291h129v-291h-129z" />
<glyph unicode="&#xe49;" d="M-798 1695v102h168q46 0 84.5 -40t38.5 -86q0 -26 18 -43.5t43 -17.5h406l-40 -104h-415q-71 0 -113.5 40t-42.5 89q0 60 -55 60h-92z" />
<glyph unicode="&#xe4a;" d="M-812 1604q0 77 55.5 133.5t135.5 56.5q51 0 105 -27q18 -13 33 -29q19 20 35 29q41 30 104 30q77 0 119.5 -46.5t42.5 -109.5q0 -5 1 -9t1 -7.5t2 -5.5t2.5 -4t3.5 -3t4 -1.5t4.5 -0.5t4.5 -0.5t6 0t6 0.5h107l-40 -104h-90q-55 0 -85 12.5t-39.5 32t-9.5 53.5 q0 91 -71 91q-38 0 -61.5 -27.5t-23.5 -63.5h-47q0 35 -20 63t-63 28q-33 0 -62.5 -22t-29.5 -69t22 -74q6 -9 21 -24h-123q-9 6 -24 21q-26 32 -26 77z" />
<glyph unicode="&#xe4b;" d="M-393 1600v102h153v95h129v-95h151v-102h-151v-94h-129v94h-153z" />
<glyph unicode="&#xe4c;" d="M-492 1506v39q0 118 59.5 185t183.5 67h117l-38 -102h-55q-63 0 -102 -39.5t-39 -98.5v-51h-126z" />
<glyph unicode="&#xe4d;" d="M-554 1726.5q0 91.5 66.5 156t159.5 64.5q90 0 153.5 -64t63.5 -156.5t-63.5 -156.5t-153.5 -64q-93 0 -159.5 64.5t-66.5 156zM-452 1726q0 -52 35.5 -87t88.5 -35q49 0 85.5 35.5t36.5 86.5q0 49 -37 86.5t-85 37.5q-52 0 -88 -37t-36 -87z" />
<glyph unicode="&#xe4e;" d="M-651 1598q0 88 61 146.5t166 58.5q0 50 12 84t43 59.5t85 37.5t134 12v-85q-13 0 -37 1q-82 2 -111 -13q-58 -28 -62 -154v-21q-174 0 -174 -118q0 -51 21 -76q12 -18 21 -24h-138q-21 46 -21 92z" />
<glyph unicode="&#xe4f;" horiz-adv-x="1335" d="M114 531q0 115 44.5 219t120 178.5t179.5 118t218 43.5q78 0 150.5 -19.5t134 -55t112.5 -87t86.5 -113t55 -134.5t19.5 -150q0 -115 -43 -218t-117.5 -177.5t-178 -118.5t-219.5 -44q-152 0 -281.5 74t-205 202.5t-75.5 281.5zM264 531q0 -169 122 -290t290 -121 q85 0 161.5 33t131 88t87 131t32.5 159q0 114 -54.5 208.5t-149 149.5t-208.5 55q-111 0 -205.5 -54.5t-150.5 -150t-56 -208.5zM396 531q0 117 82 199t198 82q77 0 141.5 -37.5t101.5 -102t37 -141.5q0 -117 -81 -198t-199 -81q-117 0 -198.5 81t-81.5 198z" />
<glyph unicode="&#xe50;" horiz-adv-x="1246" d="M68 531q0 114 43.5 218t117.5 178.5t177.5 118.5t217.5 44t217.5 -44t178 -118.5t118.5 -178.5t44 -218q0 -153 -72.5 -281t-199.5 -202.5t-280 -74.5q-114 0 -218.5 44t-179.5 118.5t-119.5 178t-44.5 217.5zM196 531q0 -75 21.5 -145.5t61 -127t92 -99t118 -66 t135.5 -23.5q86 0 165 36.5t136 98t91 147t34 179.5q0 124 -57.5 229.5t-155.5 166.5t-213 61q-116 0 -215 -61t-156 -166.5t-57 -229.5z" />
<glyph unicode="&#xe51;" horiz-adv-x="1243" d="M68 642q0 65 23.5 130t70 122t110.5 101t150 69.5t182 25.5q92 0 175 -22.5t155.5 -71t126 -118.5t84.5 -170.5t31 -221.5q0 -116 -49 -226t-135 -195t-213 -136.5t-272 -51.5h-5q5 1 -3 2q-1 1 -4 1l27 102h12q95 0 188.5 40t165.5 107t117 161t45 196q0 125 -35 223.5 t-96 159.5t-141 92.5t-174 31.5q-60 0 -113 -11t-92 -30t-71.5 -43.5t-54 -53.5t-38 -58t-25 -58.5t-12.5 -53t-4 -43.5q0 -70 29 -138.5t78.5 -113t103.5 -44.5q80 0 117.5 32.5t37.5 87.5v59h126v-39q0 -35 -8 -66.5t-28 -63.5t-50.5 -55t-80.5 -37.5t-114 -14.5 q-65 0 -125.5 27.5t-108 77t-75.5 125t-28 163.5z" />
<glyph unicode="&#xe52;" horiz-adv-x="1566" d="M21 1606v96h47q44 0 82.5 -6.5t68.5 -19.5t54.5 -30t42.5 -40t31.5 -46t22.5 -52t15 -55.5t9 -58t4 -57.5t1 -56v-961q0 -43 11.5 -78t29.5 -58.5t44 -41t51.5 -27.5t54.5 -16.5t51.5 -8.5t44.5 -2h402q26 0 49.5 2t53.5 8.5t54 17t49 29.5t41.5 45.5t26.5 65.5t10 88 v354q0 74 -20 132t-65.5 95t-110.5 37q-64 0 -106 -62q-17 -20 -35 -62q-20 47 -30 62q-37 62 -105 62q-75 0 -125.5 -44t-50.5 -110q0 -52 18 -92.5t44.5 -63t62 -37t66 -19t61.5 -4.5v-97q-22 0 -48 3t-59.5 9.5t-65.5 19t-64.5 29.5t-60 43t-49 58t-33.5 75.5t-12 93.5 q0 42 18.5 87t52 84.5t86 65t113.5 25.5q70 0 139 -30q21 -11 45 -29q10 10 40 29q54 30 136 30q66 0 121.5 -33.5t90.5 -88.5t53.5 -124.5t18.5 -143.5v-332q0 -63 -11.5 -117.5t-31.5 -94t-47.5 -71t-59 -52t-67 -34t-69.5 -19t-69 -5.5h-489q-58 0 -110.5 11.5 t-104.5 39.5t-90 71.5t-61.5 113t-23.5 157.5v924q0 316 -243 316z" />
<glyph unicode="&#xe53;" horiz-adv-x="1551" d="M68 537q0 140 26.5 247t75.5 173.5t114.5 99.5t145.5 33q145 0 264 -126q48 -52 77 -126q29 74 77 126q107 126 260 126q67 0 123.5 -20t103 -64t79.5 -108t51.5 -156t18.5 -205q0 -200 -71 -393q-31 -79 -67 -144h-136q48 79 71 138q73 185 73 399q0 89 -17 169.5 t-49 145t-85 103t-119 38.5q-34 0 -70 -18.5t-70.5 -58t-61 -93.5t-42.5 -131.5t-16 -166.5h-96q0 100 -24.5 190t-62.5 149.5t-83 94t-88 34.5q-37 0 -72 -13.5t-65.5 -39t-56 -65t-44 -89t-28.5 -113.5t-10 -136q0 -88 21.5 -171t62 -150t105.5 -107.5t145 -40.5 q48 0 74 14q8 4 22 17v-108q-4 -1 -15.5 -4t-16.5 -5q-26 -9 -67 -9q-94 0 -179 45t-146 120.5t-96.5 179.5t-35.5 219z" />
<glyph unicode="&#xe54;" horiz-adv-x="1504" d="M68 513q0 104 31 203t85 175.5t133 122.5t169 46h531q30 0 54.5 2.5t51 9.5t47 18t39 29t31 42.5t19.5 59.5t7 78v407h126l3 -348q0 -112 -26.5 -191.5t-77 -125t-115.5 -65.5t-150 -20h-554q-61 0 -115 -41.5t-89 -106.5t-54.5 -141.5t-19.5 -150.5q0 -72 16 -142 t46 -130.5t80.5 -98t111.5 -37.5l581 -6q-82 44 -147 110q-63 62 -103.5 148t-40.5 190h132q0 -91 40.5 -178t98.5 -145t120 -93t109 -35h154v-99h-914q-82 0 -150.5 28.5t-116 77t-80.5 114t-48 139.5t-15 154z" />
<glyph unicode="&#xe55;" horiz-adv-x="1504" d="M68 516q0 104 30.5 202.5t84.5 174.5t134 121.5t172 45.5h171q-21 42 -21 107q0 95 66.5 161.5t161.5 66.5q62 0 114 -30.5t82.5 -83t30.5 -114.5q0 -48 -22 -114q34 0 65.5 11.5t60.5 35t47 66.5t18 100v440h129v-360q0 -65 -8 -118t-22.5 -93t-36.5 -70.5t-48 -51 t-59 -33.5t-68.5 -18.5t-77.5 -5.5h-596q-62 0 -116.5 -41.5t-90 -106.5t-55.5 -142t-20 -150q0 -33 3 -65.5t9 -65t15.5 -63.5t23 -59.5t29.5 -53.5t36.5 -45t43.5 -34.5t51 -22.5t59 -8h562q-84 46 -147 113q-63 63 -104 149t-41 189h136q0 -74 25 -145t65.5 -125t90 -96 t100.5 -63.5t95 -21.5h146v-99h-914q-69 0 -128 19t-103.5 53t-79 81t-56 105t-32.5 122.5t-11 135.5zM774 1176q0 -39 26.5 -65.5t66.5 -26.5h9q36 8 59 32t23 60q0 37 -27 65t-64 28q-39 0 -66 -27.5t-27 -65.5z" />
<glyph unicode="&#xe56;" horiz-adv-x="1719" d="M21 1606v100h65q50 0 95.5 -14t81 -33t70 -57t59 -69.5t51.5 -89t43.5 -96t40 -110t35 -111t34.5 -117.5q39 -137 61 -203q38 82 96 140q141 142 343 142q127 0 232 -39t176 -108.5t110 -166.5t39 -212q0 -169 -65.5 -302t-193 -210t-298.5 -77q-157 0 -289.5 84 t-188.5 228h126q20 -50 61.5 -92t91 -69t102 -41.5t97.5 -14.5q127 0 226 65t152 178t53 251q0 36 -5.5 71t-16.5 68.5t-27 65.5t-38 60.5t-48 53t-58.5 44.5t-69 34t-79 21.5t-89.5 7.5q-65 0 -122.5 -18t-100 -49t-76.5 -74.5t-56 -93t-35 -105.5h-138q-121 430 -151 523 q-81 245 -165 339q-88 96 -231 96z" />
<glyph unicode="&#xe57;" horiz-adv-x="2026" d="M68 537q0 109 21 199t55 148t79 98.5t90.5 58t91.5 17.5q67 0 125.5 -24.5t94.5 -56t65.5 -71.5t40.5 -61.5t16 -36.5q0 7 12 32t39.5 62.5t64.5 72t96 59t125 24.5q49 0 95.5 -17t91 -56t77.5 -97t53.5 -148.5t20.5 -202.5q0 -118 -26.5 -238t-61.5 -207q26 2 52.5 9 t58.5 20.5t59 37.5t50 56t36.5 80.5t13.5 106.5v922q0 32 2 61.5t10 69.5t21.5 73t38.5 67t58.5 57.5t84.5 38.5t113 15h44v-100q-63 0 -108.5 -15.5t-71.5 -39.5t-41.5 -61t-20 -71.5t-4.5 -78.5v-926q0 -87 -22.5 -158.5t-58.5 -118t-85.5 -78t-101.5 -45.5t-108 -14h-199 q47 79 71 138q70 193 70 399q0 72 -7.5 133t-25.5 115t-45.5 92t-69.5 59.5t-95 21.5q-30 0 -61.5 -10.5t-62 -30.5t-58 -52.5t-48.5 -72t-33.5 -93t-12.5 -113.5h-65q0 78 -25.5 148.5t-65.5 118.5t-88 76.5t-93 28.5q-116 0 -181 -103.5t-65 -317.5q0 -59 9 -115.5 t26.5 -109t46.5 -97t65.5 -77.5t86 -51.5t106.5 -18.5q50 0 70 12q15 4 20 14v-103q-4 -4 -20 -9q-22 -9 -73 -9q-70 0 -137 24.5t-126 72.5t-104 115t-70.5 158t-25.5 194z" />
<glyph unicode="&#xe58;" horiz-adv-x="1504" d="M68 537q0 78 19.5 152.5t62 142t102 118.5t144.5 80.5t184 29.5h434q43 0 76 5t67 19.5t56 39.5t36 68.5t14 103.5v410h129v-372q0 -196 -94.5 -287t-265.5 -91h-470q-102 0 -187 -57.5t-133 -155.5t-48 -215q0 -90 16 -170t49 -146.5t88.5 -105t128.5 -38.5q99 0 160 82 q28 28 52 84q27 -51 74 -84q93 -82 249 -82q33 0 65.5 6t67 22.5t60.5 42t42.5 66.5t16.5 93v80h129v-80q0 -93 -33 -159.5t-90.5 -101t-120.5 -49.5t-137 -15q-148 0 -246 65q-42 25 -77 64q-22 -36 -55 -64q-76 -65 -191 -65q-50 0 -101.5 21t-100.5 66.5t-87.5 110 t-61.5 159.5t-23 207z" />
<glyph unicode="&#xe59;" horiz-adv-x="1842" d="M68 537q0 109 27 202t71 156.5t101.5 108.5t116.5 65.5t117 20.5q89 0 149.5 -29.5t120.5 -84.5q88 203 258 203q48 0 94.5 -22.5t84.5 -54.5t74.5 -64t76.5 -54t78 -22q53 0 91 48t57 131t19 189v376h126v-376q0 -98 -16 -180.5t-48.5 -148t-86.5 -102.5t-125 -37 q-49 0 -91 11.5t-73 30.5t-59 41.5t-51.5 45.5t-46 43t-48.5 33.5t-53 16.5q-50 0 -91.5 -19t-66 -48.5t-37.5 -61.5t-13 -61q0 -26 2 -32l50 -168q13 -44 35.5 -125t67 -241t91.5 -328h-114l-209 747q-9 31 -20 59t-34 65t-51 63t-72.5 44t-97.5 18q-47 0 -95.5 -31 t-89.5 -87t-67 -145.5t-26 -195.5q0 -70 10.5 -135.5t35.5 -127t61.5 -107t91.5 -72.5t123 -27q51 0 64 8q3 2 4.5 3.5l3 3t2.5 3.5l2 2v-100q-24 -15 -67 -15q-89 0 -171.5 39t-146 109.5t-101.5 178.5t-38 237z" />
<glyph unicode="&#xe5a;" horiz-adv-x="1504" d="M68 1275h128q19 -70 40.5 -117t55 -85t82 -56t115.5 -18q146 0 255.5 72t143.5 204h132v-845q0 -93 -5.5 -157t-21 -119.5t-43 -87t-71 -49t-105.5 -17.5v99q23 0 37 3t29.5 13t24 31t16 56t10.5 88.5t3 127.5v737q-35 -73 -92 -129q-128 -129 -295 -129 q-181 -2 -293.5 89.5t-145.5 288.5zM1220 0v1275h128v-1275h-128z" />
<glyph unicode="&#xe5b;" horiz-adv-x="2134" d="M114 513q0 122 39 229t107 184.5t164 122.5t206 45q273 0 405 -182q55 -77 73 -182h-122q-17 70 -65 130q-109 133 -291 133q-86 0 -160.5 -41t-124 -108t-77.5 -153.5t-28 -177.5q0 -87 27 -166.5t76.5 -141t127 -98.5t171.5 -37q136 0 246 71q53 32 82 71l161 -156 l120 152l141 -152l123 150q21 -24 65 -68q79 -68 146 -68q38 0 67.5 10.5t46 25.5t27.5 34t15 34t4 28q0 56 -22 106q-8 18 -18 26h132q12 -18 22 -26q0 -1 3.5 -9.5t4.5 -11t4 -10.5t4 -13.5t3 -13.5t2.5 -17t0.5 -19q0 -16 -0.5 -29t-6 -39.5t-14 -47t-27 -45.5t-44 -41.5 t-66 -27.5t-91.5 -11q-101 0 -187 65q-41 27 -74 64l-126 -152l-142 152l-119 -152l-161 152q-41 -42 -85 -64q-109 -65 -237 -65q-104 0 -201 42t-169 113.5t-115 172t-43 212.5z" />
<glyph unicode="&#x2000;" horiz-adv-x="1382" />
<glyph unicode="&#x2001;" horiz-adv-x="2764" />
<glyph unicode="&#x2002;" horiz-adv-x="1382" />
<glyph unicode="&#x2003;" horiz-adv-x="2764" />
<glyph unicode="&#x2004;" horiz-adv-x="921" />
<glyph unicode="&#x2005;" horiz-adv-x="691" />
<glyph unicode="&#x2006;" horiz-adv-x="460" />
<glyph unicode="&#x2007;" horiz-adv-x="460" />
<glyph unicode="&#x2008;" horiz-adv-x="345" />
<glyph unicode="&#x2009;" horiz-adv-x="552" />
<glyph unicode="&#x200a;" horiz-adv-x="153" />
<glyph unicode="&#x2010;" horiz-adv-x="768" d="M114 584v108h540v-108h-540z" />
<glyph unicode="&#x2011;" horiz-adv-x="768" d="M114 584v108h540v-108h-540z" />
<glyph unicode="&#x2012;" horiz-adv-x="768" d="M114 584v108h540v-108h-540z" />
<glyph unicode="&#x2013;" horiz-adv-x="1090" d="M114 584v108h862v-108h-862z" />
<glyph unicode="&#x2014;" horiz-adv-x="1674" d="M114 584v108h1446v-108h-1446z" />
<glyph unicode="&#x2018;" horiz-adv-x="352" d="M114 1106v163q0 102 98 217q44 57 98 96h77q-51 -70 -73 -110q-74 -127 -74 -203v-163h-126z" />
<glyph unicode="&#x2019;" horiz-adv-x="352" d="M-27 1106q7 11 22.5 34.5t27 41.5t21.5 34q70 132 70 206v160h126v-160q0 -104 -99 -220q-46 -60 -97 -96h-71z" />
<glyph unicode="&#x201c;" horiz-adv-x="690" d="M114 1106v163q0 102 98 217q44 57 98 96h92q-58 -72 -80 -110q-76 -122 -76 -203v-163h-132zM405 1106v163q0 101 93 217q49 63 92 96h92q-51 -70 -73 -110q-72 -124 -72 -203v-163h-132z" />
<glyph unicode="&#x201d;" horiz-adv-x="690" d="M-27 1106q7 11 22.5 34.5t27 41.5t21.5 34q70 132 70 206v160h132v-160q0 -104 -93 -220q-49 -63 -91 -96h-89zM249 1106q6 8 19.5 26.5t21.5 29t18 26t18 28.5q79 127 79 206v160h132v-160q0 -105 -97 -220q-45 -57 -100 -96h-91z" />
<glyph unicode="&#x2022;" horiz-adv-x="727" d="M114 645q0 107 75 181t180 74q107 0 182.5 -75.5t75.5 -179.5q0 -106 -75.5 -182t-182.5 -76q-104 0 -179.5 75.5t-75.5 182.5z" />
<glyph unicode="&#x2026;" horiz-adv-x="1642" d="M114 0v138h126v-138h-126zM759 0v138h126v-138h-126zM1404 0v138h126v-138h-126z" />
<glyph unicode="&#x202f;" horiz-adv-x="552" />
<glyph unicode="&#x205f;" horiz-adv-x="691" />
<glyph unicode="&#x20ac;" horiz-adv-x="1489" d="M114 510v129h150l3 77q0 58 3 92h-156v126h171q22 121 83 223.5t152 177t213 116t260 41.5q268 0 377 -50l-40 -102q-19 9 -37.5 16.5t-38.5 13t-33.5 9.5t-36 6.5t-33 4t-37.5 2t-35.5 0.5h-41h-41.5q-146 0 -265.5 -55.5t-200.5 -158t-119 -244.5h627v-126h-642 q-3 -34 -3 -92q0 -53 3 -77h580v-129h-568q22 -101 70 -181.5t121 -138.5t174 -89t223 -31q118 0 183.5 15.5t150.5 64.5l40 -104q-35 -20 -75.5 -34t-75.5 -21.5t-81.5 -11.5t-79 -5t-82.5 -1q-275 0 -453 141t-241 396h-168z" />
<glyph unicode="&#x2122;" horiz-adv-x="1188" d="M114 1434v44h350v-44h-144v-470h-56v470h-150zM543 964v514h75l184 -431l197 431h67v-514h-43v440l-203 -440h-31l-193 440v-440h-53z" />
<glyph unicode="&#xe000;" horiz-adv-x="1059" d="M0 0v1060h1060v-1060h-1060z" />
<glyph horiz-adv-x="988" />
<glyph horiz-adv-x="1212" d="M68 1058q30 67 88 121q144 126 369 126q135 0 237 -39q255 72 255 188h129q0 -33 -9 -61t-21 -48t-35.5 -38t-41 -29t-49 -23.5t-49 -18t-49.5 -15.5l-6 -1.5t-5 -1.5t-5 -2q130 -90 200 -231t70 -316q0 -101 -19 -196t-61 -181.5t-102.5 -151t-149.5 -102.5t-196 -38 h-160l-124 501q-3 10 -7.5 15.5t-11.5 7.5t-12.5 2.5t-17 -0.5t-18.5 -1h-55v99h114q30 0 51 -6t28 -13t12 -13t7 -6l144 -492q81 0 149.5 24.5t116.5 67.5t84 98.5t57 121t31.5 131t10.5 132.5q0 75 -14 142t-39.5 121t-61 99t-78 77.5t-91.5 55t-101.5 33.5t-106.5 11 q-181 0 -317 -136q-60 -60 -94 -134z" />
<glyph horiz-adv-x="2058" d="M68 993q41 80 116 156q169 156 394 156q78 0 154.5 -12t152.5 -42t133 -75t92.5 -116t35.5 -160v-482q0 -45 6.5 -89t24.5 -93t46.5 -85t77.5 -59.5t112 -23.5h129q63 0 113 23.5t80 59.5t49.5 84.5t26.5 93t7 89.5v857h126v-845q0 -72 -12.5 -138t-40 -125t-68 -101.5 t-100 -67.5t-131.5 -25h-246q-329 0 -329 457v408q0 58 -11.5 107t-33 85t-48.5 64.5t-62 47.5t-70.5 32t-75.5 20.5t-75 10.5t-73 3q-80 0 -146 -29.5t-132 -78.5q-63 -54 -108 -107l184 -155q-6 -10 -26 -55q-20 -71 -20 -191l2 -436v-8q0 -14 0.5 -21t3.5 -15.5t9.5 -12 t18.5 -5.5h86v-94h-106q-35 0 -60 8.5t-44.5 29.5t-29.5 59.5t-10 96.5v398q0 89 30 182q16 42 35 64q-22 16 -56 44t-40 33q-91 74 -91 78z" />
<glyph d="M-1020 1695q0 50 14.5 89.5t40 62.5t52 38t58.5 21.5t50.5 8.5t36.5 2h184q107 0 176 30q26 13 39 35v-102q-9 -10 -39 -24q-69 -24 -176 -24h-154q-88 0 -126.5 -35.5t-38.5 -101.5q0 -12 0.5 -21t2.5 -21.5t7 -22t13 -18t21 -13.5t29 -5q58 0 83 44q13 18 13 45h58 q4 -24 19 -45q25 -44 73 -44q30 0 51 9t31 23t14.5 28t4.5 29h117q0 -76 -55 -126.5t-133 -50.5q-55 0 -109 18q-37 15 -43 18q-14 -9 -32 -18q-48 -18 -122 -18q-17 0 -41 9.5t-52 29t-47.5 59.5t-19.5 91z" />
<glyph d="M-584 2122v106h176q46 0 84.5 -41.5t38.5 -88.5q0 -26 17 -43.5t43 -17.5h243l-33 -102h-270q-68 0 -111.5 38.5t-43.5 87.5q0 61 -55 61h-89z" />
<glyph d="M-706 2067q0 48 23 91t67.5 71.5t99.5 28.5q52 0 82 -30q11 -11 23 -29q15 22 21 29q30 30 74 30q82 0 129.5 -46.5t45.5 -113.5v-9v-7t1.5 -5.5t2 -4t3 -2.5t3 -1.5t4 -1t4.5 -0.5h6h6l129 3l-33 -104h-117q-33 0 -56.5 7.5t-36 18t-20 28.5t-9 33t-1.5 37 q0 32 -23.5 51t-41.5 19q-32 0 -46.5 -26.5t-14.5 -66.5h-61q0 21 -8 42t-23 36t-31 15q-13 0 -26.5 -5.5t-24.5 -16.5t-18 -29.5t-7 -41.5q0 -49 24 -79q6 -6 28 -22h-135q-15 11 -23 22q-20 25 -20 79z" />
<glyph horiz-adv-x="2119" d="M68 993q36 78 114 156q168 156 386 156q100 0 193 -19t181 -66t140 -118q9 21 23 43t44.5 52.5t69 53t99.5 38.5t132 16q67 0 133.5 -15t133 -50.5t117 -88t82 -133.5t31.5 -180v-1316q0 -66 -51 -124q-32 -31 -50 -40h-25v1450q0 131 -52.5 222t-141.5 134.5t-208 43.5 q-45 0 -83.5 -10t-65 -24.5t-47.5 -38t-34 -43t-22 -48t-13 -44.5t-6 -40t-2 -27.5v-14.5v-1396q0 -64 -52 -124q-29 -28 -53 -40h-24v1480q0 64 -15 117.5t-40 91t-61 66.5t-74.5 46.5t-83.5 28.5t-85.5 15.5t-83.5 4.5q-144 0 -289 -108q-67 -57 -103 -107l184 -155 q-8 -7 -26 -49q-20 -66 -20 -197v-436q0 -20 5 -33t12 -19.5t21 -9t24 -2.5t28.5 1t29.5 1v-94h-96q-85 0 -120.5 42.5t-35.5 151.5v398q0 109 32 182q16 42 35 64q-22 16 -56 44t-40 33q-91 74 -91 78z" />
<glyph horiz-adv-x="2119" d="M64 0v99h92q15 3 23.5 20t10.5 46t1.5 55t-2 62.5t-1.5 51.5v258q0 109 32 182q16 42 35 64q-22 16 -56 44t-40 33q-91 74 -91 78q41 80 116 156q35 32 70.5 57t82.5 49t105 37t124 13q105 0 198.5 -18.5t179.5 -64t138 -114.5q8 20 23.5 41.5t46.5 50.5t70 51.5t99.5 38 t128.5 15.5q67 0 133.5 -15t133 -50.5t117 -88t82 -133.5t31.5 -180v-1316q0 -66 -51 -124q-32 -31 -50 -40h-25v1450q0 131 -52.5 222t-141.5 134.5t-208 43.5q-58 0 -104 -14.5t-75 -36.5t-49 -54t-29.5 -61t-14 -64.5t-4.5 -57.5t1.5 -47l1.5 -25v-1326q0 -64 -52 -124 q-29 -28 -53 -40h-24v1480q0 68 -16 123.5t-42 93t-64 66t-77.5 44.5t-87 26t-87 13.5t-83.5 3.5q-145 0 -278 -108q-68 -63 -100 -107l181 -155q-6 -10 -25 -55q-24 -81 -24 -191v-398q0 -78 -17.5 -120t-50.5 -58t-93 -16h-89z" />
</font>
</defs>
</svg>
