<?xml version="1.0" standalone="no"?>
<!DOCTYPE svg PUBLIC "-//W3C//DTD SVG 1.1//EN" "http://www.w3.org/Graphics/SVG/1.1/DTD/svg11.dtd" >
<svg xmlns="http://www.w3.org/2000/svg">
<metadata></metadata>
<defs>
<font id="thaisans_neue_lightregular" horiz-adv-x="0" >
<font-face units-per-em="2048" ascent="1534" descent="-514" />
<missing-glyph horiz-adv-x="968" />
<glyph unicode="&#x3b;&#x3b;arm&#x3b;&#x3b;" horiz-adv-x="3114" d="M112 1867v120h480v242q-68 0 -123.5 72t-55.5 167q0 68 35 124.5t89.5 86.5t115.5 30q114 0 177.5 -63t63.5 -178q0 -56 -20 -108t-62.5 -89.5t-98.5 -41.5v-242h482v-120h-482v-362l323 -723h-120l-263 603l-262 -603h-121l322 723v362h-480zM232 0q0 35 12.5 70.5 t36.5 67.5t66 52t95 20q91 0 151 -60t60 -150q0 -115 -81 -172l66 -307l166 332h60l165 -332l106 629h150l-47 -253l32 60l196 46q0 210 32.5 335.5t97.5 179.5t171 54q87 0 134 -58t47 -152h-61q0 49 -23.5 84.5t-65.5 35.5q-113 0 -162.5 -109t-49.5 -339l221 53l26 -111 l-247 -63v-120q0 -115 -2.5 -198t-10.5 -173.5t-22 -152t-39 -120.5t-59.5 -93.5t-84 -55t-113.5 -20.5q-61 0 -107.5 19.5t-74.5 61t-28 100.5h60q0 -29 18 -50.5t45 -31.5t58 -10q44 0 78.5 12.5t59.5 43.5t42.5 60.5t28.5 89t17.5 102.5t9 126.5t3.5 135.5t1 154v89 l-240 -60l-103 -541h-78l-212 451l-210 -451h-78l-97 481l55 37q-3 -3 -18 -3q-9 -3 -43 -3q-24 0 -50.5 6t-55.5 22t-51.5 38.5t-37.5 59t-15 81.5zM353 0q0 -24 9.5 -43t30.5 -31.5t49 -12.5q90 0 90 87q0 90 -90 90q-43 0 -66 -25.5t-23 -64.5zM532 2468q0 -52 28.5 -86 t92.5 -34t92 34t28 86q0 64 -34.5 92.5t-86 28.5t-86 -28.5t-34.5 -92.5zM1226 782l685 1867h519l601 -1867h-481l-183 573h-810l-212 -573h-119zM1617 1505h698l-328 1023zM2005 60l60 302h90l-90 -302h-60zM2089 2559l40 -117l69 117h-109zM2149 2387l25 -84l156 256h-75z M2155 60l60 302h91l-91 -302h-60zM2195 2246l34 -109l167 284l-32 102zM2258 2048l18 -61l169 280l-18 60zM2301 1915l17 -60l169 279l-19 61zM2339 -298q0 110 27.5 214.5t75 183t115.5 126t143 47.5q160 0 245.5 -109.5t85.5 -310.5q0 -288 -102.5 -430t-288.5 -142 q-59 0 -111.5 24t-96 72.5t-68.5 132t-25 192.5zM2345 1776l19 -61l167 278l-20 64zM2384 1655l21 -72l169 281l-21 72zM2427 1517l21 -60l166 281l-17 60zM2459 -238l422 181q-4 54 -23 103q-48 104 -158 104q-130 0 -198 -196q-29 -80 -43 -192zM2459 -388q0 -35 11.5 -71 t32.5 -68t57 -52.5t80 -20.5q43 0 78.5 16t60 46t41 62t30.5 73q27 87 31 196zM2468 1382l19 -49l168 275l-15 58zM2508 1264l17 -48l170 278l-18 51zM2548 1144l17 -58l172 275l-19 63zM2586 1023l22 -69l167 284l-20 66zM2625 903l9 -30h40l141 238l-21 72zM2721 873h60 l74 124l-22 60zM2830 873h60l-21 66z" />
<glyph unicode=" "  horiz-adv-x="968" />
<glyph unicode="&#x09;" horiz-adv-x="968" />
<glyph unicode="&#xa0;" horiz-adv-x="968" />
<glyph unicode="!" horiz-adv-x="376" d="M112 0v153h153v-153h-153zM112 343v1199h153v-1199h-153z" />
<glyph unicode="&#x22;" horiz-adv-x="707" d="M112 1083v462h156v-462h-156zM419 1083v462h156v-462h-156z" />
<glyph unicode="#" horiz-adv-x="1615" d="M112 442l29 124h229l93 342h-228l30 121h229l115 425h147l-115 -425h448l115 425h148l-114 -425h258l-33 -121h-259l-90 -342h259l-37 -124h-256l-117 -442h-144l117 442h-451l-117 -442h-145l117 442h-228zM517 566h449l94 342h-451z" />
<glyph unicode="$" horiz-adv-x="1158" d="M112 84v126q86 -45 126 -60q137 -57 301 -57q167 0 261 82.5t94 234.5q0 43 -12 80.5t-27.5 64.5t-48 52.5t-57 41t-71 34.5t-73.5 28t-80 27q-51 17 -77 26t-72.5 26.5t-71.5 33t-60.5 38.5t-55 49t-39.5 59t-28.5 73.5t-8.5 88.5q0 75 34.5 139t92 107t130.5 69t151 32 v228h146v-228q149 -12 242 -46q44 -11 80 -37v-126q-60 30 -103 43q-153 45 -307 45q-74 0 -145 -27.5t-119.5 -81t-48.5 -117.5q0 -39 11 -71t37.5 -58.5t50.5 -45t71 -38.5t76 -31t87 -30q61 -22 93 -33.5t88 -36t87 -46t71 -56.5t60.5 -72.5t35.5 -90t15 -113.5 q0 -388 -382 -431v-229h-146v224q-161 3 -310 60q-53 19 -98 50z" />
<glyph unicode="%" horiz-adv-x="1697" d="M112 1244q0 207 77 315.5t202 108.5q58 0 106.5 -25t85 -74t57 -128t20.5 -180q0 -99 -22.5 -178.5t-62 -129t-90 -75t-109.5 -25.5q-116 0 -190 100t-74 291zM259 1250q0 -68 6.5 -118t17.5 -80t28 -48t34.5 -24.5t39.5 -6.5q23 0 41.5 6.5t36 25t29 49t18.5 81t7 117.5 q0 296 -132 296q-126 0 -126 -298zM325 0l997 1789h160l-997 -1789h-160zM1039 353q0 206 78 314.5t202 108.5q58 0 106 -25t84.5 -74t56.5 -127t20 -180q0 -100 -22.5 -179.5t-61.5 -129t-89.5 -75.5t-108.5 -26q-116 0 -190.5 101t-74.5 292zM1186 358.5q0 -72.5 7.5 -125 t19 -82t29 -46.5t33.5 -22t38 -5q23 0 41 6t36 24.5t29.5 49t18.5 82t7 122.5q0 73 -7 127t-18.5 85.5t-29.5 50t-36 25t-41 6.5q-21 0 -38 -7t-34 -26.5t-28.5 -51.5t-19 -86t-7.5 -126.5z" />
<glyph unicode="&#x26;" horiz-adv-x="1640" d="M112 370q0 166 81 279.5t255 192.5q-35 24 -66 53t-59 67.5t-44.5 88.5t-16.5 104q0 105 53 181t140.5 112.5t200.5 36.5q68 0 132.5 -21.5t115.5 -59t82 -94.5t31 -124q0 -133 -76.5 -216.5t-236.5 -141.5q64 -33 122 -75.5t100 -82t85 -92t69.5 -89.5t60.5 -89 q93 135 148.5 301.5t55.5 289.5v38h154q-8 -176 -83 -370t-197 -366q34 -42 62 -69.5t65 -52t82 -36.5t101 -12v-123q-74 0 -134.5 13.5t-108.5 41t-83 58t-74 74.5q-209 -213 -537 -213q-158 0 -263.5 41t-161 130t-55.5 225zM265 370q0 -146 82.5 -211.5t241.5 -65.5 q135 0 255 49.5t201 141.5q-15 21 -43.5 63t-46.5 68t-48 65t-54 66t-58.5 60t-67.5 57t-75.5 47t-88.5 40q-67 -29 -110 -52t-82.5 -54.5t-60.5 -68.5t-33 -87.5t-12 -117.5zM416 1155q0 -82 43 -152.5t130 -120.5q143 51 209 127t66 183q0 40 -22 72t-55.5 50.5t-67.5 28 t-63 9.5q-113 0 -176.5 -55.5t-63.5 -141.5z" />
<glyph unicode="'" horiz-adv-x="376" d="M112 1083v462h153v-462h-153z" />
<glyph unicode="(" horiz-adv-x="586" d="M66 551q0 582 356 1006h129q-176 -215 -260 -464t-84 -542q0 -284 84 -525t260 -448h-132q-173 190 -263 437.5t-90 535.5z" />
<glyph unicode=")" horiz-adv-x="586" d="M21 -422q176 207 260 447.5t84 525.5q0 587 -344 1006h129q356 -424 356 -1006q0 -573 -356 -973h-129z" />
<glyph unicode="*" horiz-adv-x="842" d="M112 1147l244 126l-244 126l98 136l172 -162l-32 238h167l-35 -241l178 165l99 -136l-247 -126l247 -126l-99 -136l-178 166l35 -241h-167l32 239l-172 -164z" />
<glyph unicode="+" horiz-adv-x="1098" d="M112 545v124h376v397h124v-397h376v-124h-376v-364h-124v364h-376z" />
<glyph unicode="," horiz-adv-x="376" d="M-49 -328q63 85 78 112q83 131 83 207v169h153v-169q0 -102 -102 -220q-41 -52 -100 -99h-112z" />
<glyph unicode="-" horiz-adv-x="782" d="M112 572v129h560v-129h-560z" />
<glyph unicode="." horiz-adv-x="376" d="M112 0v160h153v-160h-153z" />
<glyph unicode="/" horiz-adv-x="667" d="M21 0l479 1792h138l-475 -1792h-142z" />
<glyph unicode="0" horiz-adv-x="1218" d="M66 695q0 191 40.5 342t113.5 247.5t171.5 147t217.5 50.5q91 0 172 -28.5t149.5 -88.5t117.5 -147t76.5 -212t27.5 -277q0 -148 -30.5 -272.5t-84.5 -212.5t-126.5 -149.5t-156 -91t-173.5 -29.5q-113 0 -206 44t-162.5 131.5t-108 226.5t-38.5 319zM220 704 q0 -151 28.5 -269t79.5 -192t119 -112t150 -38q87 0 160 39t127.5 115t85 195.5t30.5 270.5q0 125 -20 230t-56 181t-86 129t-111 79t-130 26q-65 0 -122 -25.5t-104 -79t-80.5 -130.5t-52 -183.5t-18.5 -235.5z" />
<glyph unicode="1" horiz-adv-x="661" d="M66 1089v127q117 49 229 145q62 50 96 93h160v-1454h-154v1250q-40 -27 -65.5 -42.5t-74.5 -43.5t-97 -46.5t-94 -28.5z" />
<glyph unicode="2" horiz-adv-x="992" d="M66 0v123q0 51 19.5 102t52.5 97t77.5 94t94.5 92t102.5 91t102.5 91.5t94 93t77.5 95.5t53 100t19.5 104q0 72 -19.5 125.5t-55 86t-84 48t-109.5 15.5q-109 0 -207.5 -29.5t-157.5 -93.5v126q117 121 365 121q91 0 167.5 -24t133.5 -70.5t89 -119.5t32 -166 q0 -61 -19.5 -123t-52 -115t-76.5 -107t-94 -100.5t-102.5 -95t-102 -91.5t-94.5 -88t-79 -86.5t-54.5 -86t-22.5 -86.5h757v-123h-907z" />
<glyph unicode="3" horiz-adv-x="1023" d="M112 54v136q68 -57 146 -77t187 -20q160 0 259.5 74.5t99.5 208.5q0 105 -51.5 173t-172.5 104t-318 36v112q126 4 241 38q48 15 88.5 36t76.5 51t56 72.5t20 93.5q0 139 -65.5 202.5t-181.5 63.5q-86 0 -174 -20.5t-151 -67.5v126q70 46 145 66t180 20q84 0 159 -27.5 t127.5 -74t83 -109t30.5 -130.5q0 -291 -283 -385q71 -13 133 -45t109 -78t74 -109t27 -133q0 -100 -39 -180t-108.5 -131.5t-162 -78.5t-202.5 -27q-194 0 -333 80z" />
<glyph unicode="4" horiz-adv-x="1055" d="M21 359v138l671 957h161v-969h183v-126h-183v-359h-155v359h-677zM178 485h520v756z" />
<glyph unicode="5" horiz-adv-x="962" d="M112 24v126q18 -11 75 -29q92 -28 204 -28q175 0 264 84.5t89 238.5q0 159 -100 249.5t-259 90.5q-131 0 -207 -15q-16 -2 -40 -7t-26 -5v725h683v-127h-530v-463h114q128 0 228 -32.5t162.5 -91.5t95 -138t32.5 -174q0 -148 -64 -251t-176.5 -153t-265.5 -50 q-96 0 -159 13t-120 37z" />
<glyph unicode="6" horiz-adv-x="1064" d="M66 641q0 409 157.5 625t442.5 216q15 0 52.5 0.5t55.5 0t46 -2.5t50 -8t43 -15v-124q-9 2 -32 6t-36 6q-68 13 -179 13q-212 3 -334 -163t-116 -460q22 49 64.5 84t92 52t92.5 24.5t83 7.5q93 0 176 -33.5t144 -92.5t96.5 -145t35.5 -187q0 -134 -59 -241.5t-166 -168.5 t-243 -61q-144 0 -249 79t-161 229.5t-56 358.5zM232 482q0 -117 32 -203t100.5 -136t167.5 -50q86 0 159.5 49t116 130t42.5 173q0 107 -37 182.5t-108 115t-173 39.5q-59 0 -110 -21.5t-85 -54.5t-58.5 -74t-35.5 -79.5t-11 -70.5z" />
<glyph unicode="7" horiz-adv-x="977" d="M21 1327v127h936v-90l-523 -1364h-150l495 1327h-758z" />
<glyph unicode="8" horiz-adv-x="1037" d="M66 379q0 133 68.5 240.5t199.5 166.5q-94 46 -151 135t-57 193q0 161 110 264.5t281 103.5q109 0 200 -49t143.5 -133.5t52.5 -185.5q0 -70 -24.5 -133.5t-72 -114t-112.5 -80.5q131 -58 200 -167.5t69 -239.5q0 -99 -35 -177t-97 -127.5t-144.5 -75t-179.5 -25.5 q-212 0 -331.5 102.5t-119.5 302.5zM220 410q0 -69 18 -126t54 -100t93.5 -67t131.5 -24q143 0 222.5 88.5t79.5 228.5q0 59 -19.5 113.5t-56.5 98.5t-95.5 70.5t-130.5 26.5q-134 0 -215.5 -86t-81.5 -223zM279 1095q0 -67 25.5 -121t80.5 -89t132 -35q104 0 174 73t70 172 q0 120 -71 191.5t-173 71.5q-114 0 -176 -69t-62 -194z" />
<glyph unicode="9" horiz-adv-x="1064" d="M66 1005q0 102 33.5 190t93 151.5t146.5 99.5t190 36q105 0 191.5 -45.5t148.5 -129.5t96.5 -210.5t34.5 -283.5q0 -416 -151 -627.5t-439 -211.5q-17 0 -53.5 -1t-57.5 -1t-50 2t-52.5 7.5t-43.5 15.5v124q39 -12 70 -15q69 -13 187 -13q145 0 247.5 78.5t151 219.5 t41.5 328q-26 -51 -67.5 -86.5t-90 -52t-90 -23t-85.5 -6.5q-92 0 -174.5 32.5t-143.5 90.5t-97 144t-36 187zM216 1005q0 -167 83 -250t230 -83q59 0 110 21t86 54t60 74t36.5 80.5t11.5 74.5q0 186 -81.5 284t-222.5 98q-58 0 -114.5 -26.5t-100.5 -72.5t-71 -112.5 t-27 -141.5z" />
<glyph unicode=":" horiz-adv-x="376" d="M112 0v153h153v-153h-153zM112 876v153h153v-153h-153z" />
<glyph unicode=";" horiz-adv-x="376" d="M-49 -328q60 74 78 108q83 131 83 211v165h153v-165q0 -110 -102 -223q-44 -51 -100 -96h-112zM112 876v156h153v-156h-153z" />
<glyph unicode="&#x3c;" horiz-adv-x="1058" d="M66 454v63l973 546v-138l-774 -440l774 -379v-135z" />
<glyph unicode="=" horiz-adv-x="1098" d="M112 370v127h876v-127h-876zM112 686v124h876v-124h-876z" />
<glyph unicode="&#x3e;" horiz-adv-x="1058" d="M21 -29v135l774 379l-774 440v138l973 -546v-63z" />
<glyph unicode="?" horiz-adv-x="917" d="M112 1244v129q27 32 72 54q106 55 247 55q56 0 109.5 -12.5t102 -38t85 -62.5t58 -90t21.5 -116q0 -64 -20 -118.5t-52 -92.5t-70.5 -70.5t-77 -60t-70.5 -53.5t-52 -57.5t-20 -66.5v-301h-152v295q0 41 15 78.5t40.5 65t58 55t66 51t66 51.5t58 56.5t41 67t15.5 81.5 q0 55 -17.5 98t-47.5 68.5t-67.5 38t-80.5 12.5q-142 0 -244 -60q-46 -24 -84 -57zM293 0v153h152v-153h-152z" />
<glyph unicode="@" horiz-adv-x="1940" d="M150 551q0 96 22.5 188t65.5 173.5t102.5 153.5t135 129.5t161 99t183.5 65t200 25.5q129 2 250 -31t220.5 -97t175 -150.5t117 -197.5t41.5 -231q0 -141 -55 -262t-149.5 -192t-203.5 -71q-110 -2 -166.5 54t-63.5 181q-72 -136 -141 -187t-178 -51q-50 0 -98 14 t-92 45.5t-77.5 76.5t-53.5 111t-20 145q0 93 39.5 178.5t103 147t147 98.5t169.5 37q95 0 156 -36.5t85 -84.5l24 118h138l-84 -468q-5 -81 6 -126q5 -27 11.5 -47t18 -39.5t30 -30t43.5 -10.5q51 0 95.5 26t74.5 67.5t52 94t32 105.5t10 103q0 54 -13.5 112t-41.5 116 t-67.5 111.5t-95.5 99.5t-121 79.5t-147.5 51.5t-173.5 16q-93 -2 -180 -25t-159 -63t-134 -93.5t-108.5 -116.5t-79.5 -131.5t-49.5 -140t-16.5 -140.5q0 -81 20 -161t58.5 -154.5t98.5 -138t135.5 -111t173.5 -74.5t209 -27q211 0 423 86v-121q-235 -79 -417 -79 q-178 0 -334.5 59t-267.5 162t-175 248.5t-64 310.5zM672 545q0 -68 17.5 -121.5t47 -85.5t64 -48.5t72.5 -16.5q48 0 88 15t75.5 48.5t62.5 85.5t46.5 129.5t29.5 177.5q-3 61 -51.5 105.5t-138.5 44.5q-55 0 -110 -22.5t-100.5 -63.5t-74 -106t-28.5 -142z" />
<glyph unicode="A" horiz-adv-x="1278" d="M21 0l533 1454h159l534 -1454h-152l-144 391h-641l-147 -391h-142zM353 517h555l-273 784z" />
<glyph unicode="B" horiz-adv-x="1128" d="M112 0v1454h408q189 0 298.5 -93.5t109.5 -243.5q0 -113 -64.5 -210.5t-179.5 -139.5q148 -25 240.5 -123t92.5 -234q0 -86 -36 -162t-100 -130.5t-156 -86t-199 -31.5h-414zM265 123h244q155 0 255 81t100 206q0 143 -104 221.5t-287 78.5h-208v-587zM265 833h192 q148 0 232 64.5t84 188.5q0 241 -300 241h-208v-494z" />
<glyph unicode="C" horiz-adv-x="1203" d="M66 710q0 178 53 323.5t148.5 243.5t231 151.5t299.5 53.5q270 0 379 -52l-48 -126q-34 17 -69.5 27.5t-58 16t-67.5 8t-60.5 2.5h-75.5q-123 0 -228 -42.5t-183 -122.5t-122.5 -204t-44.5 -279q0 -289 156 -453t422 -164q108 0 176.5 18t154.5 67l51 -127 q-55 -32 -124.5 -50t-130.5 -22.5t-149 -4.5q-158 0 -289.5 51t-224.5 145t-144.5 232.5t-51.5 307.5z" />
<glyph unicode="D" horiz-adv-x="1353" d="M112 0v1454h400q387 0 582 -179t195 -534q0 -131 -36 -246t-104.5 -205t-164.5 -155.5t-221 -100t-269 -34.5h-382zM265 123h229q143 0 261 41.5t202.5 119.5t131 194.5t46.5 262.5q0 119 -28 214.5t-80.5 165t-130.5 115.5t-177 68.5t-219 22.5h-235v-1204z" />
<glyph unicode="E" horiz-adv-x="977" d="M112 0v1454h755v-127h-602v-538h542v-123h-542v-543h602v-123h-755z" />
<glyph unicode="F" horiz-adv-x="887" d="M112 0v1454h755v-127h-602v-538h542v-123h-542v-666h-153z" />
<glyph unicode="G" horiz-adv-x="1384" d="M66 695q0 173 59 320.5t161.5 249.5t245.5 159.5t307 57.5q167 0 311 -43q53 -17 94 -40v-117q3 -3 -2 -1q-156 77 -414 77q-130 0 -241.5 -47t-192.5 -131.5t-127.5 -209.5t-46.5 -275t43.5 -266t122 -189t185.5 -110t239 -37q97 0 171 17.5t139 55.5v440h-331v123h484 v-657q-107 -59 -217 -78.5t-270 -19.5q-158 0 -291 50t-228 142t-148 228t-53 301z" />
<glyph unicode="H" horiz-adv-x="1308" d="M112 0v1454h153v-635h780v635h153v-1454h-153v695h-780v-695h-153z" />
<glyph unicode="I" horiz-adv-x="376" d="M112 0v1454h153v-1454h-153z" />
<glyph unicode="J" horiz-adv-x="736" d="M21 0l51 115q4 -1 17.5 -5.5t22.5 -6.5q41 -10 101 -10q256 0 256 413v948h154v-948q0 -125 -27 -224t-78 -167.5t-126.5 -104.5t-171.5 -36q-112 0 -157 11q-27 5 -42 15z" />
<glyph unicode="K" horiz-adv-x="1143" d="M112 0v1454h153v-776l620 776h175l-391 -488l445 -966h-157l-388 839l-304 -388v-451h-153z" />
<glyph unicode="L" horiz-adv-x="887" d="M112 0v1454h153v-1331h602v-123h-755z" />
<glyph unicode="M" horiz-adv-x="1730" d="M112 0v1454h216l522 -1219l549 1219h221v-1454h-154v1261l-581 -1261h-72l-548 1258v-1258h-153z" />
<glyph unicode="N" horiz-adv-x="1399" d="M112 0v1454h204l819 -1267v1267h154v-1454h-206l-818 1252v-1252h-153z" />
<glyph unicode="O" horiz-adv-x="1519" d="M66 704q0 368 186.5 573t520.5 205q149 0 275 -53t215.5 -148.5t140 -235t50.5 -307.5q0 -182 -50 -326.5t-142.5 -240.5t-224 -146.5t-293.5 -50.5q-153 0 -279 50t-214 143t-136.5 230.5t-48.5 306.5zM220 704q0 -182 61.5 -319.5t180.5 -214.5t282 -77 q175 0 300.5 77.5t191 223t65.5 344.5q0 136 -37.5 250.5t-105.5 196.5t-167 127.5t-218 45.5q-175 0 -300.5 -81.5t-189 -228t-63.5 -344.5z" />
<glyph unicode="P" horiz-adv-x="1052" d="M112 0v1454h397q233 0 356 -115.5t123 -327.5q0 -100 -35 -185.5t-100.5 -147.5t-164.5 -97.5t-222 -35.5h-201v-545h-153zM265 669h201q88 0 157.5 24t115.5 69t70 107.5t24 138.5q0 165 -74 242t-250 77h-244v-658z" />
<glyph unicode="Q" horiz-adv-x="1519" d="M66 704q0 369 186.5 573.5t526.5 204.5q148 0 273 -53t213.5 -148.5t138.5 -235t50 -307.5q0 -162 -40 -295t-115.5 -229t-184.5 -157q210 -83 210 -264h-141q0 32 -17.5 62t-43 51.5t-59.5 40.5t-61.5 30.5t-53.5 19.5q-101 -23 -198 -23q-210 0 -364 86t-237 251 t-83 393zM220 704q0 -182 62 -320t180.5 -214.5t278.5 -76.5q175 0 301.5 77.5t192.5 223t66 344.5q0 181 -64.5 322t-184 219.5t-273.5 78.5q-179 0 -306 -81.5t-190 -228t-63 -344.5z" />
<glyph unicode="R" horiz-adv-x="1173" d="M112 0v1454h439q91 0 170 -26t138.5 -74.5t94 -124.5t34.5 -169q0 -78 -26.5 -140.5t-74.5 -106.5t-109 -73.5t-137 -47.5q17 -6 34 -16.5t29 -20t29 -29t25 -28.5t26 -35.5t22.5 -34t24 -38.5t22.5 -36l288 -454h-172l-265 419q-3 5 -9 14q-22 33 -32.5 49t-30 42 t-33 38.5t-34.5 29t-41 24.5t-46 13.5t-56 5.5h-157v-635h-153zM265 759h241q92 0 165 32.5t117.5 101.5t44.5 167q0 124 -87 198q-84 72 -221 72h-11l-249 -3v-568z" />
<glyph unicode="S" horiz-adv-x="1158" d="M112 84v126q78 -41 132 -60q137 -57 307 -57q168 0 255.5 85.5t87.5 231.5q0 43 -12 80t-27.5 64t-48 52.5t-57 41t-70.5 34.5t-73.5 28.5t-80.5 27.5q-45 15 -68.5 23t-65 24t-64.5 28t-57 32t-53.5 39t-42.5 46t-34.5 56t-19.5 66.5t-8 79.5q0 48 14 92t39.5 79.5 t60 65t76 50.5t87.5 36t93.5 22.5t95.5 7.5q154 0 307 -46q56 -16 103 -43v-123q-60 30 -103 43q-143 42 -307 42q-51 0 -106 -16.5t-101.5 -45.5t-76 -72.5t-29.5 -91.5q0 -39 11 -71t37.5 -58.5t50.5 -45t71 -38.5t76 -31t87 -30q61 -22 93 -33.5t88 -36t87 -46t71 -56.5 t60.5 -72.5t35.5 -90t15 -113.5q0 -51 -6 -95.5t-21.5 -90t-40.5 -81.5t-65 -68.5t-92.5 -54t-125 -34t-160.5 -12.5q-172 0 -317 52q-52 19 -108 58z" />
<glyph unicode="T" horiz-adv-x="1023" d="M21 1327v127h982v-127h-406v-1327h-155v1327h-421z" />
<glyph unicode="U" horiz-adv-x="1308" d="M112 548v906h153v-894q0 -116 19.5 -200.5t63 -145.5t116 -91t174.5 -30q206 0 306.5 112t100.5 337v912h153v-885q0 -304 -137 -449.5t-420 -145.5q-272 0 -400.5 139.5t-128.5 434.5z" />
<glyph unicode="V" horiz-adv-x="1278" d="M21 1454h151l463 -1285l460 1285h152l-534 -1454h-159z" />
<glyph unicode="W" horiz-adv-x="1911" d="M21 1454h151l357 -1294l387 1294h98l328 -1298l387 1298h153l-443 -1454h-189l-284 1198l-343 -1198h-189z" />
<glyph unicode="X" horiz-adv-x="1187" d="M21 0l473 726l-443 728h178l352 -601l385 601h178l-472 -728l472 -726h-178l-382 600l-386 -600h-177z" />
<glyph unicode="Y" horiz-adv-x="1128" d="M21 1454h151l370 -776l400 776h147l-472 -925v-529h-154v517z" />
<glyph unicode="Z" horiz-adv-x="1128" d="M21 0v26l855 1301h-795v127h1027v-30l-855 -1301h822q0 -22 1.5 -61t1.5 -62h-1057z" />
<glyph unicode="[" horiz-adv-x="561" d="M112 -422v1979h430v-121h-295v-1737h295v-121h-430z" />
<glyph unicode="\" horiz-adv-x="667" d="M21 1792h142l475 -1792h-138z" />
<glyph unicode="]" horiz-adv-x="561" d="M21 -301h295v1737h-295v121h430v-1979h-430v121z" />
<glyph unicode="^" horiz-adv-x="1333" d="M112 581l485 979h63l544 -979h-138l-440 777l-376 -777h-138z" />
<glyph unicode="_" horiz-adv-x="1098" d="M112 -18h876v-129h-876v129z" />
<glyph unicode="`" horiz-adv-x="610" d="M112 1635h144l213 -311h-113z" />
<glyph unicode="a" horiz-adv-x="1037" d="M109 273q2 55 17 100t39 77t56.5 56.5t67 39.5t73.5 24.5t73 13t68 3.5q126 0 223 25q54 18 63 23q0 167 -76.5 247.5t-218.5 80.5q-154 0 -259 -93q-43 -39 -72 -94l-51 118q32 53 81 91q112 90 298 90q64 0 123 -12t116.5 -41t100 -72.5t68.5 -112.5t26 -156v-681h-139 v121q-24 -28 -53 -51.5t-68.5 -47t-90.5 -37.5t-105 -14q-81 0 -147.5 18.5t-115.5 54.5q-48 36 -74 95q-23 53 -23 118v16zM247 273q0 -53 19 -92t53.5 -61t76 -32t92.5 -10q90 0 172.5 50t125.5 110v279q-13 -4 -42.5 -11.5t-42.5 -11.5q-109 -25 -175 -25 q-52 0 -100.5 -12.5t-89 -35.5t-65 -61.5t-24.5 -86.5z" />
<glyph unicode="b" horiz-adv-x="1187" d="M112 0v1542h138v-620q52 52 93 75q124 78 277 78q64 0 132 -19.5t135 -62.5t119 -103t84.5 -149t32.5 -193q0 -115 -29 -210t-77.5 -159t-113.5 -107.5t-135 -63.5t-145 -20q-157 0 -276 75q-50 28 -97 75v-138h-138zM250 253q54 -54 106 -81q138 -79 273 -79 q46 0 93.5 15t95 50.5t84.5 86.5t60 129.5t23 173.5q0 64 -16 122.5t-43 103.5t-62.5 82t-75.5 60.5t-80.5 36.5t-78.5 13q-79 0 -144 -22t-129 -59q-40 -21 -106 -78v-554z" />
<glyph unicode="c" horiz-adv-x="887" d="M66 500q0 173 67.5 303.5t190 201t282.5 70.5q83 0 183 -33q22 -7 75 -34l-48 -108q-25 20 -57 33q-81 33 -153 33q-78 0 -149.5 -31t-128 -87.5t-90.5 -147t-34 -200.5q0 -71 15.5 -131t43.5 -104t65.5 -77.5t82.5 -54t94 -30.5t101 -10q92 0 153 33q36 16 57 37 l48 -112q-23 -16 -75 -33q-97 -30 -202 -30q-157 0 -274 59.5t-182 176t-65 276.5z" />
<glyph unicode="d" horiz-adv-x="1187" d="M66 548q0 108 33 198t85.5 149.5t120.5 101t136 60t134 18.5q152 0 270 -78q44 -25 94 -75v620h139v-1542h-139v138q-50 -50 -94 -75q-119 -75 -273 -75q-75 0 -145.5 18.5t-136.5 61t-115.5 106t-79 160t-29.5 214.5zM204 548q0 -100 23.5 -180t60 -130.5t85.5 -84 t96.5 -47t96.5 -13.5q126 0 265 79q58 30 108 81v554q-61 53 -108 78q-141 81 -265 81q-47 0 -96.5 -17t-97 -52t-85 -83.5t-60.5 -117.5t-23 -148z" />
<glyph unicode="e" horiz-adv-x="1034" d="M66 512q0 120 36 225.5t98 179t148 116t184 42.5q203 0 320 -132t117 -380v-63h-768q0 -105 29 -185t79.5 -127.5t114 -71t139.5 -23.5q130 0 219 51q39 24 60 54l52 -117q-40 -27 -87 -47q-111 -46 -238 -46q-91 0 -166 18t-138.5 58t-107 100.5t-67.5 148.5t-24 199z M198 609h630q-7 171 -84.5 264t-211.5 93q-84 0 -153.5 -44t-116.5 -125t-64 -188z" />
<glyph unicode="f" horiz-adv-x="676" d="M21 922v107h195v175q0 367 278 367q88 0 135 -5q15 -3 27 -3v-106q-12 0 -21 3q-5 0 -17 0.5t-29.5 1.5t-37.5 1q-107 0 -151 -63t-44 -196v-175h300v-107h-300v-922h-140v922h-195z" />
<glyph unicode="g" horiz-adv-x="1187" d="M66 512q0 118 29.5 215t78 160.5t114.5 106.5t136 62t145 19q149 0 273 -78q50 -28 97 -75v138h139v-1039q0 -288 -132 -416t-423 -128q-150 0 -264 47q-55 24 -84 48l51 112q26 -26 72 -52q100 -48 225 -48q216 0 316 99.5t100 310.5v144q-47 -47 -97 -75 q-119 -75 -276 -75q-63 0 -129.5 18t-133.5 58.5t-119 99.5t-85 149t-33 199zM204 512q0 -79 23.5 -148.5t62 -118t86.5 -84t97.5 -52t95.5 -16.5q126 0 264 79q52 27 106 81v557q-65 57 -106 78q-140 81 -264 81q-48 0 -96 -14t-97 -48t-86.5 -84.5t-61.5 -131t-24 -179.5z " />
<glyph unicode="h" horiz-adv-x="1098" d="M112 0v1542h138v-651q29 55 75 91q116 93 262 93q106 0 185 -29t125.5 -82t68.5 -121t22 -154v-689h-138v698q0 114 -81.5 183.5t-199.5 69.5q-143 0 -244 -90q-43 -38 -75 -91v-770h-138z" />
<glyph unicode="i" horiz-adv-x="360" d="M112 0v1060h138v-1060h-138zM112 1232v135h138v-135h-138z" />
<glyph unicode="j" horiz-adv-x="360" d="M-304 -491l51 115q9 -9 33 -21q44 -19 76 -19q126 0 191 100.5t65 289.5v1086h138v-1054q0 -257 -103.5 -393t-287.5 -136q-82 0 -127 14q-25 11 -36 18zM112 1232v135h138v-135h-138z" />
<glyph unicode="k" horiz-adv-x="962" d="M112 0v1542h138v-1108l473 592h153l-264 -331l321 -695h-129l-275 592l-279 -354v-238h-138z" />
<glyph unicode="l" horiz-adv-x="360" d="M112 0v1542h138v-1542h-138z" />
<glyph unicode="m" horiz-adv-x="1836" d="M112 0v1060h138v-169q0 4 12 22.5t39 46t63.5 53t94 44t122.5 18.5q148 0 236.5 -50t133.5 -146q11 17 30 38.5t54.5 50t76 51.5t97.5 39.5t115 16.5q62 0 114.5 -9.5t93.5 -27.5t73 -44t55 -58t37.5 -71.5t21.5 -82.5t7 -93v-689h-140v698q0 80 -40 138.5t-103.5 86.5 t-141.5 28q-137 0 -238 -90q-43 -38 -75 -91v-770h-138v698q0 114 -81.5 183.5t-199.5 69.5q-143 0 -244 -90q-43 -38 -75 -91v-770h-138z" />
<glyph unicode="n" horiz-adv-x="1098" d="M112 0v1060h138v-169q29 55 75 91q116 93 256 93q407 0 407 -386v-689h-138v698q0 61 -23 109.5t-62.5 79.5t-91 47.5t-110.5 16.5q-137 0 -238 -90q-43 -38 -75 -91v-770h-138z" />
<glyph unicode="o" horiz-adv-x="1155" d="M66 514q0 271 138.5 416t384.5 145q229 0 364.5 -142t135.5 -394q0 -269 -136.5 -410t-383.5 -141q-113 0 -205.5 35t-159 101t-102.5 165.5t-36 224.5zM204 514q0 -81 17.5 -149.5t49.5 -118.5t77.5 -84.5t101 -51.5t119.5 -17q177 0 279.5 114t102.5 332 q0 202 -99 314.5t-263 112.5q-177 0 -281 -115.5t-104 -336.5z" />
<glyph unicode="p" horiz-adv-x="1187" d="M112 -479v1539h138v-138q52 52 93 75q124 78 283 78q72 0 140.5 -19t133.5 -62t114 -106.5t79 -160.5t30 -215q0 -109 -33 -199t-85.5 -149t-120 -99.5t-135 -58.5t-132.5 -18q-161 0 -274 75q-41 23 -93 75v-617h-138zM250 253q66 -57 106 -78q135 -78 267 -78 q63 0 127 29.5t116.5 81.5t85.5 131.5t33 172.5q0 78 -15 145t-41.5 115.5t-61 86.5t-75 61t-81.5 34.5t-82 11.5q-138 0 -273 -78q-40 -21 -106 -78v-557z" />
<glyph unicode="q" horiz-adv-x="1187" d="M66 512q0 118 30.5 215t80.5 160.5t117 106.5t138 62t146 19q153 0 272 -78q46 -26 89 -75v138h139v-1539h-139v617q-47 -47 -97 -75q-119 -75 -273 -75q-64 0 -131 18t-134.5 58.5t-119.5 99.5t-85 149t-33 199zM204 512q0 -93 33 -172.5t86 -131.5t116.5 -81.5 t126.5 -29.5q132 0 267 78q41 21 106 78v557q-65 57 -106 78q-135 78 -270 78q-52 0 -102 -16t-97 -51.5t-82 -87.5t-56.5 -129t-21.5 -170z" />
<glyph unicode="r" horiz-adv-x="652" d="M112 0v1060h138v-278q23 72 69 146q99 147 220 147q23 0 64 -6q9 -3 29 -3v-130q-4 2 -13 3.5t-13 2.5q-42 6 -67 6q-48 0 -97.5 -42t-101.5 -111q-49 -65 -90 -154v-641h-138z" />
<glyph unicode="s" horiz-adv-x="917" d="M112 40v107q28 -21 78 -35q84 -34 213 -34q127 0 196.5 53t69.5 159q0 51 -19 90t-51.5 63t-74 41.5t-88 31t-92.5 27.5t-88 34.5t-74 48t-51 72t-19 103.5q0 76 51 144t130.5 107.5t163.5 39.5q138 0 221 -35q36 -12 69 -34v-110q-28 18 -69 32q-87 37 -221 37 q-82 0 -144.5 -52t-62.5 -129q0 -42 19 -73t51 -49.5t74 -32.5t88 -26t92.5 -26.5t88 -38.5t74 -56.5t51.5 -86t19 -122.5q0 -41 -9.5 -78t-29 -73t-52.5 -66t-77 -52.5t-106 -34.5t-136 -12q-134 0 -210 32q-52 17 -75 34z" />
<glyph unicode="t" horiz-adv-x="676" d="M21 922v107h195v513h140v-513h300v-107h-300v-569q0 -133 45.5 -196.5t152.5 -63.5q68 0 81 4q15 0 21 3v-103q-3 -1 -7 -2t-10.5 -2t-12.5 -2q-23 -3 -135 -3q-142 0 -208.5 92.5t-66.5 275.5v566h-195z" />
<glyph unicode="u" horiz-adv-x="1098" d="M112 370v690h138v-704q0 -109 80 -179.5t207 -70.5q138 0 239 90q46 46 74 91v773h138v-1060h-138v169q-30 -53 -83 -94q-112 -90 -258 -90q-397 0 -397 385z" />
<glyph unicode="v" horiz-adv-x="1008" d="M26 1060h161l325 -907l316 907h141l-366 -1060h-181z" />
<glyph unicode="w" horiz-adv-x="1534" d="M21 1060h163l235 -907l300 907h103l270 -907l263 907h150l-322 -1060h-160l-253 864l-279 -864h-175z" />
<glyph unicode="x" horiz-adv-x="917" d="M21 0l352 529l-352 531h148l276 -419l281 419h147l-353 -546l353 -514h-147l-281 403l-276 -403h-148z" />
<glyph unicode="y" horiz-adv-x="1080" d="M18 -488l51 115q7 -8 34 -21q35 -22 81 -22q34 0 60.5 6t52 20.5t46.5 42t39 68.5l115 270l-460 1069h150l385 -882l325 882h151l-500 -1280q-25 -62 -43 -100t-42 -76t-49 -59t-59.5 -38t-77 -23.5t-99.5 -6.5q-68 0 -121 17q-33 14 -39 18z" />
<glyph unicode="z" horiz-adv-x="971" d="M112 0v29l629 922h-572v109h782v-40l-623 -911h614v-109h-830z" />
<glyph unicode="{" horiz-adv-x="601" d="M66 463v106q187 18 187 264v353q0 187 83.5 275.5t244.5 95.5v-121q-187 -13 -187 -256v-361q0 -63 -9 -111.5t-30 -89t-57 -68t-88 -41.5q65 -17 106.5 -58.5t59.5 -103.5t18 -149v-345q0 -56 4 -93.5t15.5 -70.5t32 -52t54 -29.5t81.5 -10.5v-120q-165 0 -246.5 85 t-81.5 269v359q0 251 -187 273z" />
<glyph unicode="|" horiz-adv-x="363" d="M112 -376v2083h141v-2083h-141z" />
<glyph unicode="}" horiz-adv-x="601" d="M21 -403q47 0 80.5 10.5t54 29.5t32 52t15.5 70.5t4 93.5v345q0 131 43.5 208.5t140.5 102.5q-52 14 -88 41.5t-57 68t-30 89t-9 111.5v361q0 243 -186 256v121q161 -7 245 -96t84 -275v-353q0 -246 187 -264v-106q-187 -22 -187 -273v-359q0 -184 -82 -269t-247 -85v120 z" />
<glyph unicode="~" horiz-adv-x="1095" d="M112 497q0 123 65.5 192.5t175.5 69.5q38 0 79.5 -17t78 -40.5t74.5 -47.5t83.5 -40.5t90.5 -16.5q49 0 84.5 42.5t41.5 119.5h100q-12 -262 -247 -262q-39 0 -81.5 16.5t-80 39.5t-74 46.5t-77 40t-75.5 16.5q-70 0 -106.5 -40t-36.5 -119h-95z" />
<glyph unicode="&#xa9;" horiz-adv-x="1950" d="M112 729q0 121 31.5 235.5t87.5 210.5t137 176.5t177.5 136t210.5 86.5t235 31q104 0 203 -22.5t185.5 -65t162 -102t135 -135.5t102.5 -162.5t65.5 -185.5t22.5 -203t-22.5 -203t-65.5 -185t-102.5 -161.5t-135 -134.5t-162 -101.5t-185.5 -65t-203 -22.5 q-121 0 -235 30.5t-210.5 86.5t-177 136t-137 175.5t-88 209.5t-31.5 235zM190 729q0 -163 63 -310t170.5 -252.5t256 -167.5t311.5 -62t310 62t253 167.5t168.5 252.5t62.5 310q0 110 -28.5 213.5t-79.5 191t-124 161t-160 124t-190 79t-212 28.5t-213 -28.5t-192 -79 t-161.5 -124t-125.5 -161t-80.5 -191t-28.5 -213.5zM514 713q0 128 39 232.5t109.5 175t170.5 108.5t221 38q163 0 268 -38l-33 -74q-84 40 -235 40q-199 0 -319.5 -131.5t-120.5 -350.5q0 -223 119 -346t321 -123q78 0 125.5 12.5t109.5 47.5l33 -81q-57 -31 -124 -42.5 t-159 -11.5q-239 0 -382 145.5t-143 398.5z" />
<glyph unicode="&#xad;" horiz-adv-x="782" d="M112 572v129h560v-129h-560z" />
<glyph unicode="&#xae;" horiz-adv-x="1977" d="M112 729q0 121 31.5 235.5t87.5 210.5t137 176.5t177.5 136t210.5 86.5t235 31q104 0 203 -22.5t185.5 -65t162 -102t135 -135.5t102.5 -162.5t65.5 -185.5t22.5 -203t-22.5 -203t-65.5 -185t-102.5 -161.5t-135 -134.5t-162 -101.5t-185.5 -65t-203 -22.5 q-121 0 -235 30.5t-210.5 86.5t-177 136t-137 175.5t-88 209.5t-31.5 235zM190 729q0 -163 63 -310t170.5 -252.5t256 -167.5t311.5 -62t310 62t253 167.5t168.5 252.5t62.5 310q0 110 -28.5 213.5t-79.5 191t-124 161t-160 124t-190 79t-212 28.5t-213 -28.5t-192 -79 t-161.5 -124t-125.5 -161t-80.5 -191t-28.5 -213.5zM689 213v1069h322q139 0 226 -74.5t87 -207.5q0 -70 -20.5 -123.5t-58.5 -87t-82.5 -53.5t-99.5 -29q88 -48 166 -168l210 -326h-117l-178 296q-50 78 -116.5 127.5t-111.5 49.5h-130v-473h-97zM786 761h165 q73 0 135 26.5t102.5 82t40.5 130.5q0 91 -65.5 147.5t-178.5 56.5h-199v-443z" />
<glyph unicode="&#xbc;" horiz-adv-x="2052" d="M132 1563v72q53 22 124 78q28 20 54 51h87v-801h-84v689q-1 -1 -15 -9.5t-19.5 -12t-20 -12.5t-24 -14t-24 -12.5t-26 -12t-25.5 -9.5t-27 -7zM476 0l1078 1792h141l-1081 -1792h-138zM1439 259v75l368 527h86v-533h103v-69h-103v-199h-83v199h-371zM1523 328h287v416z " />
<glyph unicode="&#xbd;" horiz-adv-x="2091" d="M132 1563v72q53 22 124 78q28 20 54 51h87v-801h-84v689q-1 -1 -15 -9.5t-19.5 -12t-20 -12.5t-24 -14t-24 -12.5t-26 -12t-25.5 -9.5t-27 -7zM476 0l1078 1792h141l-1081 -1792h-138zM1505 60v69q0 40 21.5 80.5t56 76.5t75.5 72.5t82.5 73t76 73.5t55.5 79.5t21 84.5 q0 153 -150 153q-37 0 -72.5 -6.5t-72 -22.5t-59.5 -40v69q69 69 204 69q69 0 121.5 -23.5t83.5 -72.5t31 -117q0 -49 -21 -97.5t-55 -89t-75 -79.5t-82 -75t-75.5 -69.5t-57 -69.5t-24.5 -69h422v-69h-506z" />
<glyph unicode="&#xbe;" horiz-adv-x="2049" d="M112 1008v75q40 -32 82 -43t101 -11q91 0 143.5 40t52.5 117q0 87 -67.5 129.5t-227.5 42.5v61q75 4 129 20q132 40 132 138q0 77 -35.5 113t-99.5 36q-45 0 -94 -11.5t-84 -37.5v69q19 13 38.5 21.5t41.5 14t45.5 8t52.5 2.5q96 0 158 -53.5t62 -133.5q0 -161 -154 -211 q82 -16 134.5 -70.5t52.5 -131.5q0 -110 -78.5 -169.5t-201.5 -59.5q-100 0 -183 45zM476 0l1078 1792h141l-1081 -1792h-138zM1436 259v75l368 527h86v-533h103v-69h-103v-199h-83v199h-371zM1520 328h287v416z" />
<glyph unicode="&#xe01;" horiz-adv-x="1264" d="M66 982q43 84 118 159q160 160 394 160q80 0 157.5 -13.5t153.5 -44.5t133 -77t92.5 -117t35.5 -158v-722q0 -27 -10 -52t-17.5 -35.5t-27.5 -35.5q-24 -30 -53 -46h-45v831q0 82 -26.5 145.5t-68 100.5t-99 60.5t-112.5 31.5t-116 8q-147 0 -271 -99q-52 -38 -94 -96 l181 -151q-10 -14 -26 -52q-25 -78 -25 -182v-597h-156v589q0 87 29 178q16 41 34 64q-18 13 -48.5 39t-42.5 36q-90 72 -90 76z" />
<glyph unicode="&#xe02;" horiz-adv-x="1052" d="M66 1147v123h178q48 0 89 -9.5t75.5 -29.5t59.5 -50t38.5 -73.5t13.5 -96.5q0 -47 -19.5 -93t-44 -77.5t-59.5 -67.5q-87 -87 -87 -244v-119q0 -50 5.5 -91t21 -84.5t41.5 -73.5t70 -49t103 -19q56 0 99.5 20.5t69 52.5t42 75.5t22 84.5t5.5 84v860h153v-860 q0 -75 -11.5 -138t-39 -119.5t-70.5 -95t-109 -61t-152 -22.5q-407 0 -407 436v119q0 55 8 101.5t18 76.5t30 62t31.5 46t37 40.5t32.5 35.5q58 82 58 120q0 28 -6 51t-19.5 42.5t-38.5 31t-60 11.5h-178z" />
<glyph unicode="&#xe03;" horiz-adv-x="1052" d="M66 1150v120q35 0 84 -38q29 -24 46 -40q16 16 45 40q49 38 109 38q96 0 148.5 -60.5t52.5 -167.5q0 -41 -9 -75t-29.5 -64.5t-35.5 -47.5t-44 -46l-3 -3l-2.5 -2.5l-2.5 -2.5q-115 -115 -115 -241v-150q0 -50 5 -91t20.5 -85t40.5 -73.5t69 -48.5t103 -19 q56 0 99.5 21.5t69.5 54.5t43 78t23 87t6 85v851h153v-839q0 -82 -11 -148.5t-39 -125.5t-72 -98.5t-113 -62t-159 -22.5q-392 0 -392 436v150q0 89 41.5 177t112.5 154q6 6 27 22.5t30.5 28t19.5 39t10 64.5q0 44 -27 69t-66 33q-24 3 -81 -42l-45 -45q-16 16 -40 45 q-44 45 -72 45z" />
<glyph unicode="&#xe04;" horiz-adv-x="1278" d="M112 0v891q0 79 30 147t80.5 115.5t118.5 81.5t143 50t154 16q80 0 156.5 -16.5t144.5 -51t119 -82.5t81 -115t30 -145v-891h-155v891q0 58 -21.5 106.5t-58.5 81.5t-85.5 55.5t-101.5 32.5t-109 10q-55 0 -108 -10.5t-101.5 -34t-84.5 -56.5t-57.5 -80.5t-21.5 -104.5 v-379q47 60 94 94q116 92 238 92v-153q-110 0 -235 -82q-55 -30 -97 -78v-385h-153z" />
<glyph unicode="&#xe05;" horiz-adv-x="1278" d="M112 0v891q0 79 25.5 153t71 132t113.5 93t147 35q21 0 43.5 -11t38.5 -25t36 -36q30 -36 51 -69q24 39 54 69q16 17 27 27.5t26 22t30.5 17t31.5 5.5q78 0 146.5 -35t115 -92.5t73.5 -132.5t27 -153v-891h-155v891q0 47 -12 96t-35.5 92t-62 70.5t-85.5 27.5 q-44 0 -115 -88q-6 -7 -20.5 -24.5t-25.5 -32t-20 -29.5q-7 11 -16.5 23.5t-16.5 21.5t-17 21.5t-16 19.5q-71 88 -112 88q-47 0 -86 -27.5t-62 -70.5t-35 -92t-12 -96v-379q47 60 94 94q122 92 238 92v-153q-110 0 -235 -82q-55 -30 -97 -78v-385h-153z" />
<glyph unicode="&#xe06;" horiz-adv-x="1293" d="M66 1150v120q35 0 84 -38q29 -24 46 -40q16 16 45 40q49 38 109 38q59 2 104 -23t71 -77.5t26 -127.5q0 -55 -13 -100t-34.5 -76.5t-47 -59t-51.5 -52.5t-47 -51t-34.5 -62t-13.5 -78v-270q55 -56 106 -86q127 -84 265 -84q97 0 165 24.5t108 74t57.5 117t17.5 161.5v770 h154v-867q0 -58 -16.5 -117.5t-52 -115.5t-83.5 -100t-116.5 -70t-147.5 -26q-195 0 -342 95q-71 41 -115 100v-169h-154v578q0 51 10.5 93.5t27 69.5t38.5 52t44.5 42.5t44 39t38.5 43t27.5 54.5t10.5 73q0 48 -30 73.5t-69 25.5q-30 0 -78 -42q-5 -4 -10.5 -9.5l-10 -10 t-11 -11.5t-10.5 -11q-8 13 -34 45q-14 14 -22.5 21.5t-24 15.5t-31.5 8z" />
<glyph unicode="&#xe07;" horiz-adv-x="1068" d="M66 850h154l180 -727q90 0 171.5 38t142 104.5t96 163t35.5 206.5t-36.5 206.5t-98.5 163t-144 104.5t-172 38v126q133 0 246 -48t191 -132t122 -202t44 -256q0 -115 -33.5 -217t-91 -177t-133.5 -130t-163 -83t-176 -28h-130z" />
<glyph unicode="&#xe08;" horiz-adv-x="1218" d="M69 1045q29 69 91 127q142 129 369 129q143 0 261.5 -50.5t196 -137t120.5 -202t43 -245.5q0 -141 -38.5 -263t-107.5 -211.5t-172 -140.5t-226 -51h-152l-120 482q-4 10 -8.5 16.5t-8 9.5t-12.5 4.5t-13 1.5h-19h-60v124h121q17 0 31 -2t24 -4t19 -7t14 -8.5t10.5 -9.5 t7.5 -9.5l6 -10.5t5 -9l130 -455q73 0 135 22.5t106.5 62t79 91t54.5 113t30.5 125t10.5 129.5q0 101 -26.5 186t-71 144t-105 100.5t-128 61t-140.5 19.5q-178 0 -316 -126q-54 -50 -95 -126z" />
<glyph unicode="&#xe09;" horiz-adv-x="1264" d="M66 575v123h103q85 0 126.5 -55.5t41.5 -148.5v-84q0 -43 1.5 -73.5t8 -63.5t18 -55.5t30.5 -43.5t47 -33t67.5 -19t90.5 -7q132 0 279 89q57 36 121 94v472q0 199 -97 303t-280 104q-163 0 -298 -85q-70 -36 -118 -84l-47 124q47 46 124 84q151 85 339 85 q136 0 238.5 -36.5t165.5 -104t94 -157.5t31 -202v-801h-152v169q-58 -63 -127 -100q-159 -95 -331 -95q-177 0 -267.5 119t-90.5 332v51v7v20t-1 19.5t-3 20t-5.5 16t-10 12.5t-14.5 4h-84z" />
<glyph unicode="&#xe0a;" horiz-adv-x="1128" d="M66 1147v123h187q55 0 102.5 -15.5t85 -46t58.5 -81t21 -116.5q0 -114 -126 -241q-21 -21 -39 -48.5t-34.5 -80t-16.5 -112.5v-153q0 -21 1.5 -39.5t4 -40t8 -39.5t13.5 -37.5t20 -35t27.5 -30t36.5 -25.5t46.5 -19.5t58 -12.5t69.5 -4q50 0 93.5 17.5t75.5 46.5t57.5 66 t41 77.5t23.5 79t8 71.5q0 63 -12 122.5t-37 112t-60.5 91.5t-86.5 61.5t-111 22.5v124q98 0 175.5 77.5t118.5 204.5t41 278h153q0 -105 -17 -196t-41 -151.5t-59 -111t-63.5 -78t-62 -49t-47.5 -27.5t-26 -10q0 -1 13 -6.5t28.5 -14t38 -22.5t44.5 -34.5t45.5 -46.5 t43.5 -61t36 -76.5t25 -95.5t9 -114q0 -68 -13.5 -132.5t-46 -128.5t-82 -111t-127 -76t-175.5 -29q-104 0 -182.5 21t-127 57t-78 90.5t-40.5 113t-11 132.5v141q0 46 5 86t15.5 71.5t21 55.5t28 47.5t28.5 36.5t31 34.5t28 30.5q58 82 58 120q0 136 -115 136h-187z" />
<glyph unicode="&#xe0b;" horiz-adv-x="1128" d="M66 1150v120q35 0 84 -38q29 -24 46 -40q16 16 45 40q49 38 109 38q91 0 146 -58.5t55 -169.5q0 -17 -2 -33.5t-4 -29.5t-9.5 -28.5t-10 -24t-13.5 -24t-13.5 -20t-17 -20.5t-16 -18t-18 -19.5l-16.5 -17.5q-18 -17 -27.5 -27t-31 -38t-34 -52t-23.5 -59.5t-11 -70.5 v-184q0 -45 5.5 -80.5t23 -75.5t47 -66.5t83.5 -43.5t126 -17q56 0 105.5 24.5t83.5 64t59.5 87.5t38 95t12.5 87q0 63 -12 122.5t-37 112t-60.5 91.5t-86.5 61.5t-111 22.5v124q98 0 175.5 77.5t118.5 204.5t41 278h153q0 -105 -17 -196t-41 -151.5t-59 -111t-63.5 -78 t-62 -49t-47.5 -27.5t-26 -10q0 -1 13 -6.5t28.5 -14t38 -22.5t44.5 -34.5t45.5 -46.5t43.5 -61t36 -76.5t25 -95.5t9 -114q0 -70 -13.5 -135.5t-47 -128.5t-83.5 -109.5t-128.5 -75t-176.5 -28.5q-103 0 -180 21t-124.5 57t-77.5 90t-41 113t-11 133v184q0 85 42.5 169.5 t114.5 152.5q5 5 21.5 19.5t24.5 24t19.5 26t16.5 36.5t5 45q0 47 -26 69t-70 30q-31 0 -78 -42q-14 -11 -42 -45l-37 45q-41 48 -78 48z" />
<glyph unicode="&#xe0c;" horiz-adv-x="2046" d="M66 982q43 84 118 159q160 160 388 160q82 0 161 -13.5t155 -44.5t133.5 -77t93 -117t35.5 -158v-596q43 -56 94 -88q110 -84 250 -84q43 0 79 5.5t63.5 14.5t48.5 25t36 33t25.5 43t17 51t10 60.5t4.5 67.5t1 77v770h154v-860q0 -54 -7.5 -104.5t-23 -100.5t-43.5 -91 t-65.5 -73t-92 -49.5t-121.5 -17.5q-191 0 -328 95q-65 44 -102 100v-169h-153v831q0 60 -14.5 110t-38.5 85t-58 62.5t-71 44t-80 27t-82.5 14t-80.5 3.5q-138 0 -262 -99q-52 -38 -94 -96l181 -151q-13 -13 -29 -52q-28 -70 -28 -190v-405q0 -4 -0.5 -15.5t0 -15t1.5 -11 t4 -10t8.5 -5.5t14.5 -4h89v-123h-117q-87 0 -120 48t-33 150v391q0 87 29 178q15 39 31 64q-18 13 -48.5 39t-42.5 36q-90 72 -90 76z" />
<glyph unicode="&#xe0d;" horiz-adv-x="2046" d="M66 982q43 84 118 159q160 160 391 160q82 0 160.5 -13.5t154.5 -44.5t133 -77t92 -117t35 -158v-472q0 -71 13.5 -123t44 -92t84 -60.5t129.5 -20.5q153 0 268 87q49 35 93 91v969h151v-1132q0 -101 -40 -197t-107.5 -168.5t-162.5 -116.5t-199 -44q-142 0 -261 69 q-53 30 -100 72l48 121q30 -38 81 -70q108 -69 238 -69q106 0 185.5 52.5t123 147.5t43.5 221v13q-45 -60 -105 -100q-136 -95 -295 -95q-89 0 -155.5 21.5t-109.5 60t-69.5 97t-37 125.5t-10.5 153v400q0 58 -14 106.5t-37 84t-56 63t-70 44.5t-80 28.5t-84 15.5t-84 4 q-141 0 -265 -99q-52 -38 -94 -96l181 -151q-13 -13 -29 -52q-28 -70 -28 -190v-405v-8q-1 -19 0 -27t8.5 -16t21.5 -10h87v-123h-107q-84 0 -123.5 44t-39.5 154v391q0 87 29 178q15 39 31 64q-18 13 -48.5 39t-42.5 36q-90 72 -90 76z" />
<glyph unicode="&#xe0e;" horiz-adv-x="1264" d="M63 0v123h90q12 2 19.5 6t10 13.5t3.5 17t1 24.5v405q0 87 29 178q15 39 31 64q-18 13 -48.5 39t-42.5 36q-90 72 -90 76q43 84 118 159q160 160 391 160q85 0 165 -13.5t155 -44.5t131 -77t90 -117t34 -158v-1092q0 -17 -1 -31t-3.5 -34t-7.5 -37.5t-13 -37.5t-20.5 -37 t-29 -34t-39.5 -29.5t-50.5 -22.5t-64 -15.5t-79.5 -5.5q-115 0 -233 72q-47 26 -97 76q-57 -50 -106 -76q-136 -72 -313 -72v123q177 0 313 72q57 30 106 74q59 -54 97 -77q108 -75 219 -75q94 0 131.5 43t37.5 138v1018q0 60 -14.5 110t-38 85t-57.5 62.5t-70.5 44 t-79.5 27t-82 14t-80 3.5q-141 0 -265 -99q-52 -38 -94 -96l181 -151q-13 -17 -29 -55q-31 -83 -31 -187v-391q0 -104 -38.5 -151t-120.5 -47h-115z" />
<glyph unicode="&#xe0f;" horiz-adv-x="1264" d="M63 0v123h90q12 2 19.5 6.5t10 14.5t3.5 18t1 25v402q0 87 29 178q15 39 31 64q-18 13 -48.5 39t-42.5 36q-90 72 -90 76q43 84 118 159q160 160 388 160q83 0 162 -13.5t155.5 -44.5t133.5 -77t92 -117t35 -158v-1057v-4q0 -22 -0.5 -35t-3 -40.5t-7.5 -46.5t-14.5 -46 t-23.5 -45.5t-36 -39.5t-49.5 -33.5t-66 -20.5t-85.5 -8q-83 0 -169 69q-20 15 -78 73l-103 -157l-117 157q-43 -38 -96 -70q-46 -30 -101.5 -49.5t-106.5 -19.5v120q84 0 202 72q17 10 33 22t38 30t31 25l117 -155l106 148l14 -21t29.5 -35t44.5 -40.5t57 -31.5t68 -14 q42 0 73 12.5t47.5 30t27 42t13.5 44t3 40.5v1024q0 62 -14.5 113t-38 86t-58 62t-71 43t-80.5 26t-82.5 13t-80.5 3q-138 0 -262 -99q-52 -38 -94 -96l178 -151q-13 -17 -29 -55q-28 -75 -28 -187v-391q0 -110 -40 -154t-125 -44h-109z" />
<glyph unicode="&#xe10;" horiz-adv-x="1218" d="M66 1045q28 65 94 127q142 129 372 129q132 0 235 -40q233 65 233 187h152q0 -29 -6 -55t-18.5 -47t-27.5 -38.5t-35.5 -32t-39.5 -25.5t-44 -21t-44 -17t-43 -14q123 -87 189.5 -226t66.5 -306q0 -105 -21.5 -202.5t-66.5 -182t-108.5 -147t-153 -98.5t-194.5 -36h-152 l-123 488q-3 8 -7 13.5t-7 8.5t-9.5 4t-10.5 1t-14 -0.5t-15 -0.5h-55v124h115q33 0 55.5 -4.5t35.5 -15t19 -19.5t13 -24l133 -452q72 0 133.5 22.5t106 62t78.5 91t54 113t30.5 125t10.5 129.5q0 101 -26.5 186.5t-71.5 145t-104.5 101.5t-126 61.5t-136.5 19.5 q-181 0 -316 -135q-52 -52 -95 -137zM97 -506q121 0 216 72q33 26 69 72l106 -150l104 150q0 -3 10.5 -18t31 -36t45 -41.5t58.5 -34.5t67 -14q25 0 45 4.5t33 13t23 17t16 21.5t9.5 21.5t4.5 22.5t1 18.5v14.5v138h153v-135v-3q1 -11 0.5 -22.5t-4.5 -39t-12.5 -50.5 t-27.5 -51t-45 -47.5t-69.5 -32.5t-97.5 -13q-112 0 -186 69q-33 32 -55 72l-104 -156l-106 159q-22 -40 -63 -72q-89 -72 -222 -72v123z" />
<glyph unicode="&#xe11;" horiz-adv-x="1293" d="M66 1186v121q33 0 84 -40q37 -29 46 -38q8 9 45 38q51 40 109 40q45 0 89 -20t75 -61t31 -94q30 43 81 84q96 85 210 85q75 0 142 -39.5t111.5 -102.5t70.5 -141.5t26 -156.5v-861h-150v770q0 177 -63 277t-163 100q-65 0 -127 -33.5t-110 -88.5t-91 -125.5t-73 -145 t-52 -146.5t-33 -131t-11 -98v-20v-28v-331h-150v307q0 122 24 235t58.5 192t69 144t58.5 116.5t24 83.5q0 48 -29 73.5t-70 25.5q-29 0 -78 -42q-6 -5 -13 -12t-15.5 -16.5t-13.5 -14.5l-37 46q-42 48 -75 48z" />
<glyph unicode="&#xe12;" horiz-adv-x="2046" d="M66 650q0 100 10.5 186t30 152t47 119t61 89.5t72.5 61t80.5 35.5t86.5 11q34 0 106 -72q22 -22 63 -69q21 23 66 69q72 72 109 72q102 0 184 -54t126 -142.5t44 -191.5v-621q43 -54 92 -88q105 -84 250 -84q56 0 99 9t73.5 23.5t51.5 40.5t33.5 54t19.5 70.5t9 82 t2 97.5v770h154v-860q0 -65 -11 -125t-38 -118t-67 -100t-103 -67.5t-143 -25.5q-188 0 -324 95q-63 42 -98 100v-169h-152v916q0 68 -21.5 126.5t-67 96.5t-107.5 38q-43 0 -115 -88q-5 -7 -19.5 -24.5t-26 -32t-20.5 -29.5q-7 11 -16 23.5t-16.5 21.5t-17.5 21.5t-16 19.5 q-71 88 -112 88q-26 0 -51.5 -12t-51 -36.5t-47 -67.5t-38.5 -99t-27 -136.5t-10 -175.5q0 -126 20 -226t61 -175t107.5 -115.5t154.5 -40.5q53 0 84 13q4 1 12 5.5t13 6.5v-121q-21 -10 -25 -12q-28 -11 -84 -11q-80 0 -150.5 24t-124.5 68t-96.5 105.5t-69.5 137 t-41.5 161.5t-14.5 180z" />
<glyph unicode="&#xe13;" horiz-adv-x="2046" d="M66 982q43 84 118 159q70 70 168.5 115t225.5 45q84 0 164 -14.5t155 -46.5t130.5 -78.5t89 -116t33.5 -154.5v-391q0 -57 2 -97.5t9 -82.5t19.5 -70t33.5 -54t51 -40.5t72 -23.5t96 -9q148 0 259 84q51 33 90 88v975h151v-1270h-151v169q-39 -58 -102 -100 q-136 -95 -328 -95q-76 0 -137.5 25.5t-101 68t-65.5 100t-37 117.5t-11 125v421q0 82 -26.5 145.5t-68 100.5t-99 60.5t-112.5 31.5t-116 8q-144 0 -268 -99q-52 -38 -94 -96l181 -151q-13 -13 -29 -52q-28 -70 -28 -190v-405q0 -4 -0.5 -15.5t0 -15t1.5 -11t4 -10 t8.5 -5.5t14.5 -4h89v-123h-120q-87 0 -118.5 47.5t-31.5 150.5v391q0 87 29 178q15 39 31 64q-18 13 -48.5 39t-42.5 36q-90 72 -90 76z" />
<glyph unicode="&#xe14;" horiz-adv-x="1264" d="M66 650q0 100 17.5 186.5t48 152t73.5 118.5t91.5 88.5t104.5 60t111 35t111 10.5q80 0 154 -13.5t143 -44.5t120 -77t81.5 -117t30.5 -158v-891h-152v900q0 64 -32 117.5t-84.5 88t-120 53t-140.5 18.5q-58 0 -115.5 -20.5t-109.5 -64t-91.5 -104.5t-63 -148.5 t-23.5 -189.5q0 -124 20 -223.5t61 -175.5t107.5 -117t154.5 -41q53 0 84 13q4 1 12 5.5t13 6.5v-124q-1 0 -9 -5t-13 -7q-22 -8 -84 -8q-108 0 -200 46.5t-158.5 132.5t-104 213.5t-37.5 283.5z" />
<glyph unicode="&#xe15;" horiz-adv-x="1264" d="M66 650q0 100 10.5 186t30 152t47 119t61 89.5t72.5 61t80.5 35.5t86.5 11q22 0 44 -11t38 -25t36 -36q30 -36 51 -69q25 39 55 69q66 72 120 72q65 0 129.5 -32t114 -84t80 -124.5t30.5 -147.5v-916h-152v916q0 63 -28 124t-73 99t-92 38q-23 0 -50.5 -23t-64.5 -65 q-7 -9 -20.5 -25t-25.5 -31.5t-23 -29.5q-7 11 -16 23.5t-16.5 21.5t-17.5 21.5t-16 19.5q-71 88 -112 88q-30 0 -60 -16.5t-60.5 -56t-53 -98t-37 -150t-14.5 -203.5q0 -94 11.5 -174.5t37 -152.5t64.5 -123t97.5 -80.5t132.5 -29.5q53 0 84 13q4 1 12 5.5t13 6.5v-121 q-5 -1 -13 -5.5t-12 -6.5q-28 -11 -78 -11q-81 0 -152 23.5t-125.5 66.5t-97.5 104t-71 136.5t-42.5 162.5t-14.5 183z" />
<glyph unicode="&#xe16;" horiz-adv-x="1264" d="M66 982q43 84 118 159q160 160 388 160q82 0 161 -13.5t155 -44.5t133.5 -77t93 -117t35.5 -158v-722q0 -27 -10 -52t-17.5 -35.5t-27.5 -35.5q-24 -30 -53 -46h-45v831q0 60 -14.5 110t-38.5 85t-58 62.5t-71 44t-80 27t-82.5 14t-80.5 3.5q-55 0 -107.5 -15.5 t-86 -35.5t-71.5 -48q-58 -43 -97 -96l181 -151q-10 -14 -26 -52q-25 -78 -25 -190v-405v-8q-1 -19 0 -27t8.5 -16t21.5 -10h87v-123h-98q-62 0 -99 19.5t-55 63t-18 115.5v391q0 87 29 178q15 39 31 64q-18 13 -48.5 39t-42.5 36q-90 72 -90 76z" />
<glyph unicode="&#xe17;" horiz-adv-x="1248" d="M112 0v1270h153v-168q51 56 117 99q167 100 344 100q57 0 108 -14t92 -38t75.5 -57.5t59.5 -72.5t42.5 -82.5t26 -87.5t8.5 -88v-861h-153v770q0 100 -20 170.5t-62 117t-106.5 68t-155.5 21.5q-144 0 -271 -84q-54 -32 -105 -84v-979h-153z" />
<glyph unicode="&#xe18;" horiz-adv-x="1248" d="M112 985q0 56 19.5 103.5t51.5 80t77 57.5t92 40t100.5 24.5t97.5 13t88 3.5q154 0 319 -60q85 -30 151 -58v-120q-90 36 -154 54q-201 57 -316 57q-36 0 -60.5 -0.5t-67 -4.5t-72 -11t-65 -21.5t-57.5 -34.5t-36.5 -51.5t-14.5 -71.5q0 -44 19.5 -75.5t44 -49t77 -29.5 t87.5 -16t106 -11q71 -6 108.5 -10.5t104 -17.5t104 -30.5t86 -50t74 -76t44 -108.5t18.5 -146q0 -60 -16 -114t-53.5 -105.5t-93.5 -89t-143.5 -60t-196.5 -22.5h-4q-40 0 -67 0.5t-83 8.5t-96 22t-89.5 44t-80 72t-52.5 108.5t-22 149.5v230h154v-230q0 -57 14 -102.5 t34.5 -75t52 -51t60 -32.5t66 -17t61.5 -7t55 -1q54 0 102 10.5t86 29.5t68 45t50 56t30.5 63.5t10.5 67.5q0 46 -9 85t-21.5 68t-37.5 53t-46 40t-58 29.5t-62 20.5t-70.5 14t-71 10t-75.5 8q-47 5 -71 8t-67.5 9.5t-66.5 13t-58 18.5t-54 26t-42.5 35.5t-35 47t-19.5 59.5 t-8 75z" />
<glyph unicode="&#xe19;" horiz-adv-x="1248" d="M112 410v866h153v-770q0 -95 16 -162.5t54.5 -118.5t108 -76.5t170.5 -25.5q138 0 265 84q51 30 106 86v983h153v-1276h-153v169q-53 -63 -118 -100q-159 -95 -341 -95q-78 0 -146.5 25.5t-116.5 69t-83 100t-51.5 118t-16.5 123.5z" />
<glyph unicode="&#xe1a;" horiz-adv-x="1218" d="M112 431v839h153v-851q0 -43 8.5 -86t29.5 -87t52 -77.5t79.5 -54.5t107.5 -21h127q59 0 108 21t81 54.5t54.5 77t32 87.5t9.5 86v851h154v-839q0 -71 -16 -137t-49 -124.5t-80 -102t-113 -68.5t-143 -25h-210q-76 0 -140 25t-109 68.5t-76 102t-45.5 124.5t-14.5 137z " />
<glyph unicode="&#xe1b;" horiz-adv-x="1218" d="M112 431v839h153v-851q0 -43 8.5 -86t29.5 -87t51.5 -77.5t78.5 -54.5t106 -21h127q49 0 92 14.5t73.5 40t54.5 57.5t38.5 69t22 73.5t7.5 71.5v1242h154v-1230q0 -71 -16 -137t-49.5 -124.5t-80 -102t-112 -68.5t-140.5 -25h-210q-78 0 -143 25t-109.5 68.5t-75.5 102 t-45.5 124.5t-14.5 137z" />
<glyph unicode="&#xe1c;" horiz-adv-x="1477" d="M112 979q0 29 1 51t4.5 54t10.5 56t20.5 49.5t32 42t46.5 27.5t63 11h116v-120l-81 -3q-69 0 -69 -171q-4 -226 75 -494q25 -99 79 -226l276 666h67l273 -666q49 105 79 226q80 280 108 788h154q-45 -548 -154 -939q-67 -229 -111 -331h-105l-281 678l-279 -678h-103 q-51 120 -111 310q-111 358 -111 669z" />
<glyph unicode="&#xe1d;" horiz-adv-x="1477" d="M112 979q0 24 1 44t3.5 47t8 49t14 46t22.5 42t32 33t43.5 22.5t56.5 7.5h113v-120l-81 -3q-69 0 -69 -171q0 -238 75 -494q25 -99 79 -226l276 666h67l273 -666q57 157 94 353q93 490 93 1089h154q0 -701 -132 -1256q-65 -277 -133 -442h-102l-281 681l-279 -681h-106 q-51 120 -111 310q-111 358 -111 669z" />
<glyph unicode="&#xe1e;" horiz-adv-x="1543" d="M21 1270h142l271 -942l285 942h97l284 -942l270 942h144l-362 -1270h-83l-302 1014l-298 -1014h-87z" />
<glyph unicode="&#xe1f;" horiz-adv-x="1664" d="M21 1270h142l271 -942l285 942h97l284 -942l394 1370h141l-483 -1698h-83l-302 1017l-298 -1017h-87z" />
<glyph unicode="&#xe20;" horiz-adv-x="1264" d="M63 0v123h90q27 3 30 28q1 6 1 33l3 405q0 87 29 178q15 39 31 64q-18 13 -48.5 39t-42.5 36q-90 72 -90 76q43 84 118 159q70 70 168.5 115t225.5 45q65 0 130 -9.5t130 -29.5t120.5 -53.5t98.5 -77.5t68 -105.5t25 -134.5v-722q0 -27 -10 -52t-17.5 -35.5t-27.5 -35.5 q-24 -30 -53 -46h-45v831q0 60 -14 110t-37.5 85t-57 62.5t-70 44t-79 27t-81.5 14t-80 3.5q-147 0 -271 -99q-55 -41 -91 -96l181 -151q-13 -17 -29 -55q-31 -83 -31 -187v-391q0 -112 -39 -155t-132 -43h-103z" />
<glyph unicode="&#xe21;" horiz-adv-x="1248" d="M112 0v1270h153v-966q58 -63 108 -97q132 -92 271 -92q181 0 261 90.5t80 288.5v776h153v-860q0 -65 -17.5 -128t-52.5 -119t-84 -98t-116.5 -66.5t-144.5 -24.5q-196 0 -344 95q-71 41 -114 100v-169h-153z" />
<glyph unicode="&#xe22;" horiz-adv-x="1173" d="M66 365q0 173 144 288q66 52 149 73q-68 12 -133 50q-129 85 -129 235q0 65 20 117t50.5 83.5t70.5 52.5t77 29t73 8q106 0 151 -12q8 -1 16 -3.5t16 -5.5t10 -4v-121q-20 7 -39 11q-35 11 -132 11q-75 0 -117.5 -50t-42.5 -116q0 -97 93 -159.5t238 -62.5v-123 q-73 0 -134.5 -21t-102 -54t-69.5 -73.5t-42 -79.5t-13 -73q0 -48 9 -85.5t32 -73.5t60.5 -60t99 -38.5t142.5 -14.5q65 0 118.5 14.5t90 40t64 57.5t43 69.5t22.5 73t7 71.5v851h155v-839q0 -72 -17 -137t-55.5 -124.5t-95 -102.5t-142 -68t-190.5 -25q-110 0 -195 18.5 t-141.5 51.5t-93 82.5t-52 108t-15.5 130.5z" />
<glyph unicode="&#xe23;" horiz-adv-x="1037" d="M112 84v132q62 -40 114 -63q124 -60 271 -60q51 0 93 10.5t72 30t52 44.5t34.5 56t18.5 63t6 68q0 48 -17.5 86t-39.5 60.5t-68 43.5t-76 30t-90 26q-51 13 -77.5 21t-72.5 25.5t-71 34t-58 45t-50 61.5t-29 80t-12 104q0 61 23.5 113.5t63 89.5t91.5 63.5t110 39.5 t117 13q138 0 262 -57q52 -23 88 -55v-126q-34 30 -91 57q-130 57 -262 57q-62 0 -117.5 -20t-93.5 -65.5t-38 -106.5q0 -57 22.5 -98.5t61 -66.5t88 -44t104.5 -34t110 -32t104.5 -44.5t88 -64.5t61.5 -97t23 -139q0 -45 -5 -83.5t-18 -79.5t-33.5 -73.5t-55 -62.5 t-79.5 -49.5t-108.5 -31t-140.5 -11.5q-137 0 -275 52q-41 16 -101 58z" />
<glyph unicode="&#xe24;" horiz-adv-x="1264" d="M66 982q43 84 118 159q160 160 391 160q66 0 131.5 -9.5t131 -29.5t121 -53.5t98.5 -77.5t68 -105.5t25 -134.5v-1351q0 -27 -10 -52t-17.5 -35.5t-27.5 -36.5q-24 -29 -53 -45h-45v1460q0 82 -27 145.5t-68.5 100.5t-99 60.5t-111.5 31.5t-113 8q-141 0 -271 -99 q-58 -43 -97 -96l181 -151q-10 -14 -26 -52q-25 -78 -25 -190v-405v-8q-1 -19 0 -27t8.5 -16t21.5 -10h87v-123h-104q-89 0 -127.5 45.5t-38.5 152.5v391q0 87 29 178q15 39 31 64q-18 13 -48.5 39t-42.5 36q-90 72 -90 76z" />
<glyph unicode="&#xe25;" horiz-adv-x="1143" d="M66 319q0 87 29.5 155t77.5 110t115 69t135.5 37.5t145.5 10.5q181 0 256 34q37 14 54 35v80q0 50 -10 96.5t-34 90t-59 75t-88 50t-119 18.5q-175 0 -313 -132q-70 -65 -109 -129l-50 126q39 71 107 127q154 129 365 129q236 0 349.5 -124t113.5 -376v-801h-153v641 q-15 -16 -66 -32q-80 -34 -244 -34q-32 0 -68 -6t-76 -17.5t-76 -32.5t-65 -48t-46.5 -66.5t-17.5 -85.5q0 -60 22.5 -105t59.5 -70.5t80.5 -38t90.5 -12.5q61 0 102 10q3 1 37 12v-118q-34 -11 -37 -12q-32 -11 -96 -11q-413 0 -413 345z" />
<glyph unicode="&#xe26;" horiz-adv-x="1264" d="M63 0v123h90q27 3 30 28q1 6 1 33l3 405q0 87 29 178q15 39 31 64q-18 13 -48.5 39t-42.5 36q-90 72 -90 76q43 84 118 159q160 160 388 160q84 0 164 -13.5t156 -44.5t132.5 -77t91 -117t34.5 -158v-1351q0 -27 -10 -52t-17.5 -35.5t-27.5 -36.5q-24 -29 -53 -45h-45 v1460q0 62 -14.5 113t-38 86t-58 62t-71 43t-80.5 26t-82.5 13t-80.5 3q-55 0 -107.5 -15.5t-86 -35.5t-71.5 -48q-58 -43 -97 -96l181 -151q-11 -19 -26 -55q-28 -75 -28 -187v-391q0 -112 -38.5 -155t-129.5 -43h-106z" />
<glyph unicode="&#xe27;" horiz-adv-x="1124" d="M66 109l49 123q28 -36 86 -69q110 -70 268 -70q129 0 228.5 70t154 193t54.5 279q0 236 -119 374t-318 138q-150 0 -268 -55q-54 -24 -83 -53l-52 124q25 39 78 69q123 69 329 69q97 0 184.5 -27t161 -82t127.5 -133.5t84 -187t30 -236.5t-30.5 -236t-85 -185.5 t-128.5 -132t-162 -81t-185 -26.5q-207 0 -325 66q-57 32 -78 69z" />
<glyph unicode="&#xe28;" horiz-adv-x="1278" d="M112 0v891q0 77 29 144t79.5 115t118 82.5t145 51.5t160.5 17q113 0 187 -25q33 13 62 28t58 36t46 49t17 59h155q0 -47 -16.5 -85.5t-47.5 -66t-61 -45.5t-71 -35q196 -121 196 -325v-891h-155v891q0 56 -21 103.5t-57 80.5t-83.5 56.5t-100.5 34.5t-108 11 q-40 0 -79 -5t-76.5 -16t-71 -27.5t-61.5 -40.5t-48.5 -52.5t-31.5 -65.5t-11 -79v-385q43 60 94 97q118 95 238 95v-153q-110 0 -235 -82q-55 -30 -97 -78v-385h-153z" />
<glyph unicode="&#xe29;" horiz-adv-x="1218" d="M112 431v839h153v-854q0 -42 8.5 -84.5t29.5 -86t51.5 -77t78.5 -54.5t106 -21h127q42 0 79.5 11t66 30t52.5 44.5t40.5 55t27.5 61.5t16.5 63t5.5 61v216h-270v135h270v497h154v-497h90v-135h-90v-204q0 -66 -15 -130t-47.5 -123.5t-78.5 -104.5t-113.5 -72t-146.5 -27 h-210q-80 0 -146 26.5t-109.5 71.5t-73.5 104.5t-43 123.5t-13 131z" />
<glyph unicode="&#xe2a;" horiz-adv-x="1143" d="M66 319q0 87 30.5 155t80 110t117.5 69t137.5 37.5t146.5 10.5q175 0 250 34q36 16 48 35v80q0 42 -7 81t-22 76.5t-40 68.5t-58 54.5t-79 36.5t-101 13q-175 0 -313 -132q-62 -57 -112 -129l-47 126q39 71 107 127q154 129 365 129q70 0 132 -16q76 29 125.5 70t49.5 93 h150q0 -82 -47 -134t-129 -85q179 -122 179 -428v-801h-153v641q-18 -18 -60 -32q-75 -34 -238 -34q-41 0 -85.5 -7t-95 -25.5t-90 -46t-65.5 -74t-26 -103.5q0 -60 22 -105t59.5 -70.5t80.5 -38t91 -12.5q62 0 103 10q4 1 37 12v-115q-15 -10 -34 -15q-32 -11 -102 -11 q-407 0 -407 345z" />
<glyph unicode="&#xe2b;" horiz-adv-x="1187" d="M112 0v1270h153v-592l591 592h198l-419 -420q39 -9 75 -19.5t82.5 -31t84.5 -46t76.5 -64.5t65 -86t43 -112.5t16.5 -140.5v-350h-153v307q0 73 -16.5 136.5t-42 108.5t-60.5 82t-69.5 60t-71.5 40t-63 25t-48 11l-289 -294v-476h-153z" />
<glyph unicode="&#xe2c;" horiz-adv-x="1664" d="M21 1270h142l271 -948l285 948h97l284 -948l216 761q11 32 11 72q0 94 -95 167q-45 34 -97 51q99 25 181 72q180 100 180 253h139q0 -183 -172 -277q-74 -37 -171 -51q47 -23 96 -60q95 -78 83 -181q0 -21 -8 -51l-311 -1078h-89l-296 1011l-294 -1011h-91z" />
<glyph unicode="&#xe2d;" horiz-adv-x="1248" d="M63 454q0 49 5.5 80.5t20 56.5t43 36t72.5 11h253v-124h-195q-46 -4 -46 -45q-3 -54 6 -104.5t36 -101t70.5 -87.5t115.5 -60t165 -23q87 0 157 26.5t118.5 74t80.5 115.5t46.5 149t14.5 177q0 115 -27.5 213.5t-79 172t-130.5 115t-177 41.5q-207 0 -319 -135 q-57 -66 -77 -136h-150q24 118 87 196q149 199 459 199q88 0 164 -21t133 -57.5t103.5 -87t77 -109t51.5 -125t30 -132.5t9 -134q0 -136 -30 -247.5t-83 -187.5t-125.5 -127.5t-155 -75t-174.5 -23.5q-93 0 -175.5 19t-151 59t-118 96.5t-77 134.5t-27.5 171z" />
<glyph unicode="&#xe2e;" horiz-adv-x="1248" d="M63 454q0 102 30 143t111 41h253v-124h-195q-46 0 -46 -45q-3 -55 6.5 -105.5t36.5 -101t70.5 -87.5t115 -59.5t164.5 -22.5q74 0 135 18t106.5 52.5t79.5 82.5t55 109.5t31 130.5t10 149q0 115 -27.5 213.5t-79 172t-130.5 115t-177 41.5q-210 0 -322 -135 q-52 -61 -74 -136h-150q24 118 87 196q149 199 459 199q76 0 161 -22q203 61 203 169h141q0 -48 -17.5 -88t-48.5 -67t-64 -44.5t-71 -29.5q68 -46 120.5 -114.5t83 -147t45.5 -159.5t15 -163q0 -136 -30 -247.5t-83 -187.5t-125.5 -127.5t-155 -75t-174.5 -23.5 q-93 0 -175.5 19t-151 59t-118 96.5t-77 134.5t-27.5 171z" />
<glyph unicode="&#xe2f;" horiz-adv-x="1143" d="M66 1270h154q19 -68 39.5 -114.5t52.5 -83.5t77.5 -54.5t107.5 -17.5q139 0 241 70t135 200h156v-839q0 -49 -1 -84.5t-4.5 -75.5t-9 -68.5t-16 -58.5t-24.5 -50.5t-34.5 -39.5t-46.5 -30t-59.5 -17.5t-74.5 -6.5v123q18 0 28.5 1t24.5 5.5t21 13t15.5 24t12.5 38t8 56 t5.5 77.5t1.5 102v668q-30 -62 -87 -114q-123 -118 -283 -118q-183 0 -294.5 98.5t-145.5 295.5z" />
<glyph unicode="&#xe30;" horiz-adv-x="736" d="M112 410v78h141v-115q0 -40 25 -56t101 -16h241l-51 -120h-219q-49 0 -85 6t-66 21.5t-48.5 41.5t-28.5 66t-10 94zM112 1072v78h141v-111q0 -27 9.5 -42t37 -23t79.5 -8h241l-51 -121h-216q-61 0 -103 10t-74.5 34.5t-48 69.5t-15.5 113z" />
<glyph unicode="&#xe31;" d="M-723 1729v78h142v-115q0 -41 25 -56.5t102 -15.5h523l-48 -124h-503q-129 0 -185 52.5t-56 180.5z" />
<glyph unicode="&#xe32;" horiz-adv-x="992" d="M66 1066v123q34 34 81 55q36 16 64.5 27t76.5 20.5t97 9.5q67 0 134.5 -16t133.5 -53t116.5 -90t81.5 -133.5t31 -177.5v-831h-153v801q0 95 -30 168.5t-82.5 118t-119.5 67t-144 22.5q-89 0 -200 -57q-38 -16 -87 -54z" />
<glyph unicode="&#xe33;" horiz-adv-x="992" d="M-566 1729q0 93 66.5 159t163 66t162 -66t65.5 -159q0 -98 -65.5 -165.5t-162 -67.5t-163 67.5t-66.5 165.5zM-442 1726q0 -43 31 -74.5t74.5 -31.5t75.5 31.5t32 74.5t-32.5 75t-75 32t-74 -32t-31.5 -75zM66 1066v123q34 34 81 55q36 16 64.5 27t76.5 20.5t97 9.5 q67 0 134.5 -16t133.5 -53t116.5 -90t81.5 -133.5t31 -177.5v-831h-153v801q0 95 -30 168.5t-82.5 118t-119.5 67t-144 22.5q-89 0 -200 -57q-38 -16 -87 -54z" />
<glyph unicode="&#xe34;" d="M-985 1496l49 130h761v-130h-810z" />
<glyph unicode="&#xe35;" d="M-985 1496l49 127h608v184h153v-311h-810z" />
<glyph unicode="&#xe36;" d="M-985 1496l52 127h401l-10 45q-3 83 51 141t135 58q72 0 126.5 -52.5t54.5 -131.5q0 -77 -50.5 -132t-130.5 -55h-629zM-422 1680q0 -25 17.5 -42.5t42.5 -17.5q28 0 47.5 17.5t19.5 42.5q0 28 -19.5 47t-47.5 19q-25 0 -42.5 -19t-17.5 -47z" />
<glyph unicode="&#xe37;" d="M-985 1496l49 127h373v184h132v-184h103v184h153v-311h-810z" />
<glyph unicode="&#xe38;" d="M-413 -223h120q87 0 135.5 -54.5t48.5 -144.5v-201h-153v201q0 19 -8 35t-23.5 26.5t-34.5 10.5h-85v127z" />
<glyph unicode="&#xe39;" d="M-764 -223h114q95 0 142.5 -55.5t47.5 -155.5q0 -92 98 -92q100 0 100 92v211h153v-211q0 -25 -2.5 -47t-10 -44.5t-19 -40.5t-31 -34t-44.5 -26.5t-60.5 -17t-79.5 -6.5q-67 0 -115.5 13.5t-75.5 33.5t-43 52t-20 61t-4 68q0 19 -8.5 35t-23.5 26.5t-35 10.5h-83v127z " />
<glyph unicode="&#xe3a;" d="M-262 -223h153v-159h-153v159z" />
<glyph unicode="&#xe3f;" horiz-adv-x="1128" d="M112 0v1451h288v256h145v-256q179 -7 281 -98t102 -236q0 -119 -72 -216t-190 -131q73 -13 136 -42.5t111.5 -74t76 -107t27.5 -136.5q0 -118 -60 -210.5t-167 -144t-245 -55.5v-250h-145v250h-288zM265 123h241q154 0 256 80.5t102 206.5q0 143 -104 221.5t-287 78.5 h-208v-587zM265 833h189q155 0 237 66t82 187q0 241 -300 241h-208v-494z" />
<glyph unicode="&#xe40;" horiz-adv-x="451" d="M112 198v1072h153v-1086v-8q-1 -14 -0.5 -20.5t3.5 -15t9.5 -12.5t17.5 -5h90v-123h-109q-89 0 -126.5 46t-37.5 152z" />
<glyph unicode="&#xe41;" horiz-adv-x="962" d="M112 198v1072h153v-1086v-8q-1 -14 -0.5 -20.5t3.5 -15t9.5 -12.5t17.5 -5h90v-123h-101q-92 0 -132 45.5t-40 152.5zM609 198v1072h152v-1086v-8q0 -19 1 -27t8.5 -16t21.5 -10h90v-123h-103q-91 0 -130.5 45.5t-39.5 152.5z" />
<glyph unicode="&#xe42;" horiz-adv-x="610" d="M210 1683q0 136 94 194.5t316 58.5h244v-126h-232q-107 0 -164.5 -13t-80 -40t-22.5 -77q0 -35 9 -84.5t20.5 -96t21 -125t9.5 -164.5v-1026v-12.5v-11.5t0.5 -9.5t1.5 -9t3 -6.5t5.5 -6t8 -3.5t10.5 -2.5h91v-123h-103q-92 0 -132 43t-40 155v1012q0 86 -9 164.5 t-20.5 125.5t-21 97t-9.5 86z" />
<glyph unicode="&#xe43;" horiz-adv-x="790" d="M0 1833q18 31 54 63q90 66 230 66q186 0 281 -91.5t95 -284.5q0 -59 -9.5 -109.5t-20.5 -84t-20.5 -101t-9.5 -156.5v-954v-12.5v-11.5t0.5 -9.5t1.5 -9t3 -6.5t5 -5.5t8 -3.5t11 -2h90v-121h-105q-90 0 -129.5 43.5t-39.5 154.5v937q0 80 9.5 153t21 116t21 92.5 t9.5 89.5q0 73 -18 124t-51 78.5t-73.5 39t-93.5 11.5q-95 0 -167 -66q-37 -37 -52 -66z" />
<glyph unicode="&#xe44;" horiz-adv-x="790" d="M0 1810v123q25 0 49 -4t42 -10t36.5 -15t30.5 -17t25.5 -19t19.5 -16.5t14.5 -15l8.5 -9.5q20 34 44 55q33 25 66 39.5t80 14.5q35 0 62 -11t45 -26t30 -47t18 -56t9 -72t3.5 -77.5t0.5 -88.5v-12v-11v-12v-1339v-8q-1 -14 -0.5 -20.5t3.5 -15t9.5 -12.5t17.5 -5h90v-123 h-104q-91 0 -130 43.5t-39 154.5v1325v35q5 175 -24 227q-22 40 -64 25q-16 -6 -30.5 -20.5t-20.5 -23.5t-22 -34q-13 -27 -26 -58q-28 32 -72 66q-93 70 -172 70z" />
<glyph unicode="&#xe45;" horiz-adv-x="992" d="M66 1066v123q34 34 81 55q37 17 64 27t74.5 20t96.5 10q69 0 137 -16t134 -53t116.5 -90t81.5 -133.5t31 -177.5v-1291q0 -12 -1.5 -22.5t-6 -21.5t-6.5 -17.5t-10 -18t-10 -14.5t-12.5 -16t-10.5 -14q-23 -27 -55 -45h-41v1430q0 93 -29.5 166t-81 118.5t-119 68.5 t-146.5 23q-89 0 -200 -57q-38 -16 -87 -54z" />
<glyph unicode="&#xe46;" horiz-adv-x="1173" d="M66 951q0 159 78.5 254.5t208.5 95.5q21 0 47.5 -12t43 -23t47.5 -34q24 -21 72 -69q49 48 72 69q31 23 47.5 34t43 23t47.5 12q74 0 131 -29t91 -78.5t51 -111t17 -131.5v-1411q0 -12 -1.5 -22.5t-6 -21.5t-6.5 -17.5t-10 -18t-10 -14.5t-12.5 -16t-11.5 -14 q-23 -27 -54 -45h-43v1520q0 286 -164 286q-46 0 -115 -85q-50 -57 -66 -84q-16 27 -66 84q-69 85 -112 85q-76 0 -120.5 -65.5t-44.5 -160.5q0 -97 42 -165q16 -29 45 -48l-51 -129q-55 17 -96 63q-94 100 -94 279z" />
<glyph unicode="&#xe47;" d="M-960 1698q0 43 11 78.5t27.5 59t40.5 41t47 27t49.5 15t44.5 7t36 1.5h241q121 0 179 35q32 14 46 37v-120q-13 -17 -46 -31q-61 -27 -179 -27h-212q-156 0 -156 -123q0 -34 24.5 -65t71.5 -31q27 0 48 6.5t31.5 14.5t23.5 20q17 23 20 46h55q5 -33 15 -46 q23 -41 79 -41q26 0 45.5 10t29 25t14 28t4.5 24h132q0 -86 -56 -139.5t-140 -53.5q-56 0 -108 24q-20 12 -42 28q-20 -16 -45 -28q-68 -24 -135 -24q-24 0 -48.5 6t-51.5 20.5t-48 36.5t-34.5 58t-13.5 81z" />
<glyph unicode="&#xe48;" d="M-262 1496v311h153v-311h-153z" />
<glyph unicode="&#xe49;" d="M-798 1680v127h189q30 0 58 -18.5t45.5 -47t17.5 -58.5q0 -25 17.5 -42.5t42.5 -17.5h410l-48 -127h-431q-68 0 -110.5 38.5t-42.5 85.5q0 60 -54 60h-94z" />
<glyph unicode="&#xe4a;" d="M-831 1608q0 82 57.5 140.5t138.5 58.5q53 0 103 -31q23 -18 32 -30q13 17 34 30q43 31 101 31q56 0 96.5 -23.5t58 -57.5t17.5 -74q0 -6 1 -10.5t1.5 -8t3 -5.5t3.5 -3t4.5 -1.5t5.5 -0.5h7h7h142l-48 -127h-127q-77 0 -106 30t-29 82q0 43 -18 66.5t-48 23.5 q-37 0 -58 -26.5t-21 -63.5h-53q0 36 -19 63t-61 27q-28 0 -51.5 -25t-23.5 -65q0 -52 28 -85l27 -27h-150q-13 9 -28 24q-27 37 -27 88z" />
<glyph unicode="&#xe4b;" d="M-413 1589v126h151v92h153v-92h149v-126h-149v-93h-153v93h-151z" />
<glyph unicode="&#xe4c;" d="M-526 1496v55q0 115 65 185.5t188 70.5h135l-49 -127h-54q-61 0 -96.5 -37t-35.5 -95v-52h-153z" />
<glyph unicode="&#xe4d;" d="M-566 1729q0 93 66.5 159t163 66t162 -66t65.5 -159q0 -97 -65.5 -163.5t-162.5 -66.5t-163 66.5t-66 163.5zM-442 1726q0 -43 31 -74.5t74.5 -31.5t75.5 31.5t32 74.5t-32.5 75t-75 32t-74 -32t-31.5 -75z" />
<glyph unicode="&#xe4e;" d="M-666 1602q0 45 17 84t47.5 67t74.5 44t96 16q0 98 65.5 143.5t218.5 45.5v-94h-14q-37 0 -54.5 -1t-44.5 -6t-40 -17.5t-27.5 -34t-20 -56.5t-5.5 -83q-170 0 -170 -115q0 -50 20 -75l6.5 -6.5t5.5 -6.5t5.5 -6t6.5 -5h-159q-28 54 -28 106z" />
<glyph unicode="&#xe4f;" horiz-adv-x="1339" d="M112 529q0 116 44 220t119 179.5t178.5 119.5t218.5 44t219.5 -44t179.5 -119.5t119.5 -179.5t44.5 -220q0 -114 -44.5 -217t-119.5 -177t-179.5 -117.5t-219.5 -43.5t-218.5 43.5t-178.5 117.5t-119 177t-44 217zM268 529q0 -81 32 -155.5t86.5 -128.5t129.5 -86.5 t156 -32.5q111 0 204 54.5t146 147t53 201.5q0 84 -31.5 159t-85 128.5t-128.5 85t-158 31.5q-109 0 -202 -53t-147.5 -146.5t-54.5 -204.5zM397 529q0 115 80 195t194.5 80t194 -80t79.5 -194.5t-79.5 -194t-193.5 -79.5q-76 0 -139 36t-99.5 99t-36.5 138z" />
<glyph unicode="&#xe50;" horiz-adv-x="1250" d="M66 529q0 116 44 219.5t118.5 178.5t178.5 118.5t219 43.5q92 0 177.5 -28t154.5 -79t120.5 -120t79.5 -154.5t28 -178.5q0 -114 -44 -217t-119 -177t-178.5 -117.5t-218 -43.5t-218 43.5t-178.5 117.5t-119.5 177t-44.5 217zM220 529q0 -117 53.5 -216.5t146 -157.5 t203.5 -58q113 0 207 58t148 157.5t54 216.5q0 119 -54 219.5t-148 159t-207 58.5q-111 0 -203.5 -58.5t-146 -159t-53.5 -219.5z" />
<glyph unicode="&#xe51;" horiz-adv-x="1248" d="M66 638q0 68 24.5 134t71.5 123.5t111.5 101.5t150.5 69.5t182 25.5q91 0 175.5 -23.5t158 -73.5t127.5 -120.5t85 -170.5t31 -219q0 -121 -53 -232t-143 -192.5t-214.5 -130t-260.5 -48.5q-12 0 -33 3l35 118h12q71 0 143.5 23t136.5 67t114.5 102.5t79.5 134t29 155.5 q0 120 -33 213t-91.5 151t-134.5 87.5t-164 29.5q-86 0 -155.5 -25t-111 -62.5t-69.5 -83.5t-39 -85.5t-11 -71.5q0 -68 27 -131t71.5 -101t91.5 -38q39 0 66.5 8t43 24.5t22 37t6.5 47.5v57h153v-54q0 -34 -8 -66.5t-28.5 -66t-52.5 -58t-84 -40.5t-118 -16 q-64 0 -125 27.5t-110 77t-79 126t-30 166.5z" />
<glyph unicode="&#xe52;" horiz-adv-x="1564" d="M21 1568v124h45q62 0 113 -14.5t86.5 -39t63.5 -59t44.5 -72t27 -81t14.5 -82.5t4 -80v-924q0 -58 19.5 -102t47.5 -69t66 -40.5t69.5 -20.5t62.5 -5h394q35 0 68 5t71 21.5t65 43t45 73t18 107.5v339q0 50 -10.5 95.5t-31 82.5t-55.5 59t-79 22q-61 0 -103 -60 q-23 -27 -37 -60q-29 51 -35 60q-42 60 -97 60q-68 0 -112 -40.5t-44 -97.5q0 -52 17.5 -91t43 -60.5t61 -34.5t65 -17t60.5 -4v-124q-32 0 -65 3.5t-74 13t-77 25t-71.5 41.5t-60.5 60t-40.5 84t-15.5 110q0 33 10 69.5t32 72.5t52.5 64.5t75 46t96.5 17.5q77 0 135 -35 q20 -10 47 -37q13 22 43 37q45 35 132 35q71 0 128.5 -34.5t92.5 -92t53 -126.5t18 -144v-324q0 -87 -22.5 -156t-59 -112.5t-85.5 -73t-99.5 -41t-103.5 -11.5h-479q-47 0 -91.5 8.5t-89 26.5t-82 49.5t-66.5 74t-45.5 102.5t-16.5 133v905q0 295 -238 295z" />
<glyph unicode="&#xe53;" horiz-adv-x="1549" d="M66 537q0 273 98.5 414t272.5 141q149 0 258 -132q49 -57 75 -129q27 72 75 129q28 37 63 65.5t86 47.5t108 19q85 0 153.5 -33.5t120.5 -100t80.5 -174t28.5 -247.5q0 -211 -72 -393q-25 -66 -74 -144h-156q43 65 72 141q75 189 75 396q0 116 -28 211.5t-87 156.5 t-140 61q-44 0 -86 -29t-76.5 -83t-55.5 -142.5t-21 -197.5h-123q0 100 -21.5 187t-55.5 143.5t-76.5 89t-86.5 32.5q-40 0 -77.5 -16.5t-70 -51.5t-57 -85t-38.5 -121t-14 -155q0 -87 20.5 -165.5t59 -141.5t100 -100t136.5 -37q45 0 82 16q9 3 27 14v-126q-2 -1 -14 -5.5 t-18 -6.5q-28 -11 -80 -11q-93 0 -177.5 42.5t-147.5 116t-100.5 179t-37.5 225.5z" />
<glyph unicode="&#xe54;" horiz-adv-x="1505" d="M66 514q0 82 19 162t56 149t87 121.5t116.5 83t140.5 30.5h512q34 0 62 3.5t57 12.5t50.5 26t39 42.5t26.5 63.5t9 87v397l153 3v-368q0 -87 -19 -155t-52 -112.5t-80.5 -73t-101 -41t-118.5 -12.5h-544q-60 0 -111 -38.5t-82 -100t-48.5 -134.5t-17.5 -146 q0 -71 15 -138t44 -123t76.5 -90t107.5 -34l554 -6q-78 41 -147 109q-64 62 -105.5 145.5t-41.5 185.5h159q0 -73 24.5 -142.5t64 -122t87.5 -93t96.5 -61.5t89.5 -21h150v-123h-912q-80 0 -148.5 28t-117 77t-83 114.5t-51 140t-16.5 154.5z" />
<glyph unicode="&#xe55;" horiz-adv-x="1505" d="M66 514q0 83 18.5 162.5t55 148.5t86 121.5t117 83t142.5 30.5h153q-21 37 -21 98q0 97 68 165t165 68t163.5 -67.5t66.5 -165.5q0 -54 -17 -98q38 5 67.5 17t55.5 36t40.5 66t14.5 100v413h150v-368q0 -108 -25.5 -186t-73 -121.5t-108 -63.5t-139.5 -20h-566 q-61 0 -112 -38.5t-83 -100t-50 -134.5t-18 -146t15.5 -141t46 -124.5t81 -91t114.5 -34.5h544q-78 41 -147 109q-64 62 -105.5 145.5t-41.5 185.5h156q0 -61 17 -120t45.5 -106.5t66 -88t78.5 -67.5t82.5 -42.5t78.5 -15.5h144v-123h-912q-67 0 -125.5 19t-103 53.5t-80 82 t-58 105t-34.5 122t-12 132.5zM759 1163q0 -39 26 -65t65 -26h8q36 6 58.5 30.5t22.5 60.5t-26.5 62.5t-62.5 26.5q-39 0 -65 -26t-26 -63z" />
<glyph unicode="&#xe56;" horiz-adv-x="1715" d="M21 1568v127h63q56 0 106 -14t89.5 -37t75.5 -60.5t63 -77t53 -94.5t45 -104t40 -115t36.5 -118.5t36.5 -123t37 -120.5q29 68 90 129q63 58 142 93.5t191 35.5q128 0 234 -40t177 -111t110 -168t39 -210q0 -124 -38 -231t-108.5 -186t-177 -124t-236.5 -45 q-165 0 -297 88.5t-192 241.5h150q27 -64 86 -113.5t125 -73.5t128 -24q114 0 207 59t146.5 166.5t53.5 241.5q0 78 -28 151t-79 129.5t-129 91t-171 34.5q-77 0 -141.5 -26.5t-109 -73t-74.5 -104.5t-45 -127h-159q-113 424 -163 564q-80 223 -177 303q-80 66 -199 66z" />
<glyph unicode="&#xe57;" horiz-adv-x="2016" d="M66 537q0 107 20.5 196t54 148.5t78.5 100.5t93 59.5t98 18.5q48 0 91.5 -13.5t75 -33.5t60 -48t45.5 -52t32 -51t20.5 -39t9.5 -22q0 4 6 19t19 39t31.5 50.5t46.5 53.5t60.5 48.5t76 35t91.5 13.5q51 0 100 -18t94.5 -58.5t79.5 -99.5t54.5 -148.5t20.5 -198.5 q0 -215 -82 -416q31 2 61.5 11.5t64.5 30.5t59.5 51t42 78t16.5 108v907q0 35 4 69.5t14 74t26.5 73.5t44.5 66t63.5 55t87 36.5t113.5 13.5h43v-127q-44 0 -79.5 -7t-60.5 -19t-43.5 -31t-29.5 -39t-17.5 -46.5t-9 -50.5t-2.5 -53v-906q0 -86 -22.5 -156.5t-60 -118 t-87.5 -80t-103.5 -47t-108.5 -14.5h-232q43 65 72 141q72 182 72 396q0 399 -225 399q-34 0 -69 -14t-68 -44t-59 -71.5t-41.5 -102t-15.5 -129.5h-94q0 75 -23.5 143.5t-60 115.5t-82.5 74.5t-90 27.5q-103 0 -162.5 -96t-59.5 -303q0 -87 20 -165.5t58 -141.5t99.5 -100 t139.5 -37q47 0 77 13q9 3 27 15v-124q-4 -1 -13 -5.5t-14 -6.5q-27 -11 -82 -11q-88 0 -171.5 39.5t-149 110.5t-105.5 179t-40 234z" />
<glyph unicode="&#xe58;" horiz-adv-x="1505" d="M66 537q0 78 20 153t61.5 142.5t100.5 118t142.5 80t181.5 29.5h422q41 0 74 5t66 20t54.5 40t35.5 68.5t14 101.5v397h153v-376q0 -101 -27 -175.5t-76.5 -118.5t-114.5 -65t-147 -21h-463q-60 0 -114.5 -22.5t-96 -62t-72.5 -91t-47.5 -112t-16.5 -122.5 q0 -87 16 -163.5t47.5 -137.5t83 -96.5t116.5 -35.5q90 0 156 94q30 38 51 92q29 -50 75 -92q100 -94 242 -94q32 0 63 6t63.5 22t56.5 40.5t39.5 64.5t15.5 90v78h150v-78q0 -75 -21 -134.5t-56.5 -98t-86 -63.5t-106 -35.5t-118.5 -10.5q-141 0 -242 66q-46 32 -75 69 q-18 -33 -54 -69q-78 -66 -187 -66q-52 0 -105 21.5t-102.5 67.5t-87.5 111t-61 159t-23 204z" />
<glyph unicode="&#xe59;" horiz-adv-x="1836" d="M66 537q0 106 26.5 199t70 157t99.5 110t114.5 67.5t114.5 21.5q48 0 89.5 -10t76 -31t56 -39t51.5 -46q37 102 103 158t153 56q48 0 95 -22t84 -53.5t72.5 -63t74 -53.5t75.5 -22q49 0 83.5 47t50.5 126.5t16 184.5v368h155v-368q0 -78 -9.5 -146.5t-31.5 -130.5 t-54.5 -106t-82.5 -70t-112 -26q-47 0 -89 12t-73 30.5t-59 41t-51.5 45t-46 41.5t-47 30.5t-50.5 11.5q-43 0 -79 -16.5t-58 -42.5t-34.5 -55.5t-12.5 -57.5q0 -24 3 -29l49 -167q10 -37 68 -250t122 -439h-139l-207 744q-6 20 -13 39t-19 42.5t-26 44t-34.5 40t-44 33 t-54 22t-65.5 8.5q-42 0 -86 -28.5t-82.5 -80.5t-63 -138t-24.5 -189q0 -69 10.5 -131.5t33.5 -120t56.5 -100t84.5 -67.5t112 -25q42 0 72 13q11 4 23 15v-124v-1q-13 -13 -56 -20q-16 -2 -33 -2q-72 0 -140 24.5t-125 73.5t-100 116t-67.5 157t-24.5 192z" />
<glyph unicode="&#xe5a;" horiz-adv-x="1505" d="M66 1270h154q15 -54 30.5 -93.5t38.5 -74.5t51.5 -56.5t68.5 -33.5t91 -12q137 0 238.5 70t134.5 200h156v-839q0 -57 -2 -101t-7.5 -87t-15 -74.5t-24 -60t-34.5 -48t-47 -33.5t-62 -20.5t-78 -6.5v123q16 0 26 1t22 4t19 9t15.5 16.5t13 26.5t9.5 38.5t7 53t3.5 70 t1.5 89.5v677q-30 -62 -87 -114q-123 -118 -280 -118q-183 0 -296 99t-147 295zM1219 0v1270h151v-1270h-151z" />
<glyph unicode="&#xe5b;" horiz-adv-x="2121" d="M112 512q0 95 24 183t70.5 160t109.5 125.5t144.5 82.5t171.5 29q64 0 121 -11t100.5 -29t80.5 -43t62.5 -51t45.5 -55q57 -82 75 -190h-148q-16 64 -61 126q-97 127 -276 127q-105 0 -190 -64t-131 -167.5t-46 -222.5q0 -84 26.5 -160t74.5 -133.5t120 -91.5t158 -34 q126 0 241 73q47 29 81 72l157 -151l118 151l135 -151l123 148q21 -26 67 -72q76 -70 144 -70q39 0 68.5 13t44.5 33.5t22 39t7 34.5q0 59 -25 109q-15 26 -23 34h156q3 -4 7.5 -9.5t9 -13t7.5 -11.5q27 -46 27 -102q0 -13 -1.5 -27.5t-5 -36t-12 -41t-20.5 -41t-32 -39 t-45.5 -32t-62 -22t-80.5 -7.5q-94 0 -184 66q-46 36 -72 69l-123 -149l-138 149l-118 -149l-157 149q-35 -40 -84 -69q-112 -66 -232 -66q-108 0 -206.5 42t-170 114t-113.5 172t-42 210z" />
<glyph unicode="&#x2000;" horiz-adv-x="1354" />
<glyph unicode="&#x2001;" horiz-adv-x="2709" />
<glyph unicode="&#x2002;" horiz-adv-x="1354" />
<glyph unicode="&#x2003;" horiz-adv-x="2709" />
<glyph unicode="&#x2004;" horiz-adv-x="903" />
<glyph unicode="&#x2005;" horiz-adv-x="677" />
<glyph unicode="&#x2006;" horiz-adv-x="451" />
<glyph unicode="&#x2007;" horiz-adv-x="451" />
<glyph unicode="&#x2008;" horiz-adv-x="338" />
<glyph unicode="&#x2009;" horiz-adv-x="541" />
<glyph unicode="&#x200a;" horiz-adv-x="150" />
<glyph unicode="&#x2010;" horiz-adv-x="782" d="M112 572v129h560v-129h-560z" />
<glyph unicode="&#x2011;" horiz-adv-x="782" d="M112 572v129h560v-129h-560z" />
<glyph unicode="&#x2012;" horiz-adv-x="782" d="M112 572v129h560v-129h-560z" />
<glyph unicode="&#x2013;" horiz-adv-x="1098" d="M112 572v129h876v-129h-876z" />
<glyph unicode="&#x2014;" horiz-adv-x="1669" d="M112 572v129h1448v-129h-1448z" />
<glyph unicode="&#x2018;" horiz-adv-x="376" d="M112 1083v169q0 111 98 227q46 58 103 95h112q-58 -67 -82 -111q-78 -124 -78 -211v-169h-153z" />
<glyph unicode="&#x2019;" horiz-adv-x="376" d="M-49 1083q57 71 78 109q83 131 83 210v172h153v-172q0 -109 -102 -222q-49 -56 -100 -97h-112z" />
<glyph unicode="&#x201c;" horiz-adv-x="707" d="M112 1083v169q0 111 98 227q46 58 103 95h121q-50 -58 -84 -111q-82 -115 -82 -211v-169h-156zM419 1083v169q0 111 98 227q40 55 100 95h121q-58 -67 -82 -111q-81 -112 -81 -211v-169h-156z" />
<glyph unicode="&#x201d;" horiz-adv-x="707" d="M-49 1083q57 71 78 109q83 131 83 210v172h156v-172q0 -105 -99 -222q-49 -56 -100 -97h-118zM253 1083q56 71 81 109q85 118 85 210v172h156v-172q0 -109 -102 -222q-48 -56 -100 -97h-120z" />
<glyph unicode="&#x2022;" horiz-adv-x="742" d="M112 641q0 110 76.5 186t184.5 76q111 0 186.5 -76t75.5 -186q0 -109 -76 -185.5t-186 -76.5q-108 0 -184.5 77t-76.5 185z" />
<glyph unicode="&#x2026;" horiz-adv-x="1640" d="M112 0v160h153v-160h-153zM744 0v160h153v-160h-153zM1376 0v160h153v-160h-153z" />
<glyph unicode="&#x202f;" horiz-adv-x="541" />
<glyph unicode="&#x205f;" horiz-adv-x="677" />
<glyph unicode="&#x20ac;" horiz-adv-x="1489" d="M112 500v135h150v75q0 57 3 91h-153v138h175q54 249 242 397.5t459 148.5q272 0 388 -55l-52 -126q-34 17 -70 27.5t-59 16t-69 8t-62 2.5h-76q-204 0 -348 -110.5t-200 -308.5h608v-138h-629q-3 -34 -3 -91q0 -51 3 -75h569v-135h-551q52 -193 194.5 -300t356.5 -107 q110 0 180.5 18t155.5 67l52 -127q-80 -47 -177.5 -62t-229.5 -15q-269 0 -449 139t-241 387h-167z" />
<glyph unicode="&#x2122;" horiz-adv-x="1164" d="M112 1416v44h345v-44h-141v-462h-57v462h-147zM532 954v506h80l177 -418l193 418h66v-506h-45v428l-199 -428h-31l-186 428v-428h-55z" />
<glyph unicode="&#xe000;" horiz-adv-x="1052" d="M0 0v1054h1054v-1054h-1054z" />
<glyph horiz-adv-x="968" />
<glyph horiz-adv-x="1218" d="M66 1045q28 65 94 127q142 129 372 129q132 0 235 -40q233 65 233 187h152q0 -29 -6 -55t-18.5 -47t-27.5 -38.5t-35.5 -32t-39.5 -25.5t-44 -21t-44 -17t-43 -14q123 -87 189.5 -226t66.5 -306q0 -105 -21.5 -202.5t-66.5 -182t-108.5 -147t-153 -98.5t-194.5 -36h-152 l-123 488q-3 8 -7 13.5t-7 8.5t-9.5 4t-10.5 1t-14 -0.5t-15 -0.5h-55v124h115q33 0 55.5 -4.5t35.5 -15t19 -19.5t13 -24l133 -452q72 0 133.5 22.5t106 62t78.5 91t54 113t30.5 125t10.5 129.5q0 101 -26.5 186.5t-71.5 145t-104.5 101.5t-126 61.5t-136.5 19.5 q-181 0 -316 -135q-52 -52 -95 -137z" />
<glyph horiz-adv-x="2046" d="M66 982q43 84 118 159q160 160 394 160q81 0 159 -13.5t153.5 -44.5t132.5 -77t92 -117t35 -158v-472q0 -44 6 -86t23 -87t43.5 -78t71.5 -54t102 -21h127q59 0 105 21t74.5 54t47 77.5t25.5 87t7 86.5v851h154v-839q0 -72 -13 -137t-41.5 -124t-70.5 -102.5t-104 -68.5 t-139 -25h-241q-57 0 -104.5 14t-81 37.5t-59 58.5t-41 73.5t-25 86t-13 92t-3.5 95.5v400q0 60 -14.5 110t-38.5 85t-58 62.5t-71 44t-80.5 27t-82.5 14t-80 3.5q-80 0 -143 -27t-122 -72q-58 -43 -97 -96l178 -151q-11 -19 -26 -55q-25 -84 -25 -187v-405v-8q-1 -19 0 -27 t8.5 -16t21.5 -10h87v-123h-107q-84 0 -123.5 44t-39.5 154v391q0 87 29 178q15 39 31 64q-18 13 -48.5 39t-42.5 36q-90 72 -90 76z" />
<glyph d="M-1039 1698q0 43 11 78.5t28 59t41.5 41t47.5 27t49.5 15t44.5 7t35 1.5h179q118 0 181 35q26 11 49 40l-3 -123q-13 -17 -46 -31q-61 -27 -181 -27h-150q-43 0 -74 -9t-47.5 -26.5t-24 -39t-7.5 -48.5q0 -96 64 -96q57 0 81 41q11 16 11 46h58q4 -28 17 -46 q24 -41 72 -41q34 0 57 15.5t31.5 34t8.5 37.5h133q0 -81 -57.5 -137t-141.5 -56q-56 0 -109 24q-27 16 -42 28q-24 -24 -30 -28q-47 -24 -120 -24q-11 0 -24.5 3t-29.5 10t-31.5 17.5t-30.5 27t-26 36.5t-17.5 48t-6.5 60z" />
<glyph d="M-587 2249h193q45 0 83 -37.5t38 -82.5q0 -26 17 -43.5t43 -17.5h253l-46 -126h-284q-66 0 -108 37.5t-42 85.5q0 61 -54 61h-90z" />
<glyph d="M-707 2065q0 83 57 141t144 58q52 0 81 -30q10 -10 22 -28q5 16 18 28q29 30 81 30q84 0 130.5 -43t44.5 -107q0 -5 0.5 -9t0.5 -7t1.5 -5.5t2.5 -4t3.5 -2.5t3 -1.5t4.5 -1t5 -0.5h5.5h5.5h137l-46 -126h-120q-33 0 -57 6.5t-38.5 17.5t-23 27.5t-11.5 32.5t-3 36 q0 34 -19 56t-41 22q-19 0 -31.5 -13.5t-17.5 -32.5t-5 -44h-61q0 21 -5.5 41t-17.5 34.5t-28 14.5q-27 0 -48 -24.5t-21 -65.5q0 -51 28 -83q20 -21 29 -25h-156q-8 5 -28 25q-26 30 -26 83z" />
<glyph horiz-adv-x="2106" d="M66 982q43 84 118 159q160 160 391 160q158 0 295 -49.5t216 -151.5q119 201 380 201q68 0 136.5 -16t134.5 -53t116 -90t81 -133.5t31 -177.5v-1291q0 -12 -1 -22.5t-5.5 -21.5t-7 -17.5t-10.5 -18t-10 -14.5t-12 -16t-11 -14q-24 -29 -53 -45h-42v1430q0 63 -13.5 117 t-38.5 94.5t-59 72.5t-76 52t-90 30t-100 10q-59 0 -106.5 -15t-77 -36.5t-50.5 -53t-31 -56.5t-15.5 -54.5t-5.5 -39.5v-19v-1363q0 -27 -10 -52t-17.5 -35.5t-27.5 -36.5q-24 -29 -53 -45h-45v1460q0 82 -27 145.5t-68.5 100.5t-99 60.5t-111.5 31.5t-113 8 q-141 0 -271 -99q-58 -43 -97 -96l181 -151l-1.5 -2t-4.5 -6.5t-6.5 -12t-8 -19t-8.5 -25t-8 -32.5t-7 -40t-5 -48t-2 -57v-405q0 -20 5 -33t12 -19t20.5 -8.5t23.5 -2.5t28 1t28 1v-123h-104q-89 0 -127.5 45.5t-38.5 152.5v391q0 87 29 178q15 39 31 64q-18 13 -48.5 39 t-42.5 36q-90 72 -90 76z" />
<glyph horiz-adv-x="2106" d="M63 0v123h90q14 3 22 18t10 40.5t2 48.5t-1.5 56t-1.5 48l3 255q0 87 29 178q15 39 31 64q-18 13 -48.5 39t-42.5 36q-90 72 -90 76q43 84 118 159q160 160 388 160q101 0 195.5 -19.5t181.5 -66.5t137 -115q119 201 380 201q68 0 136.5 -16t134.5 -53t116 -90t81 -133.5 t31 -177.5v-1291q0 -12 -1 -22.5t-5.5 -21.5t-7 -17.5t-10.5 -18t-10 -14.5t-12 -16t-11 -14q-24 -29 -53 -45h-42v1430q0 63 -13.5 117t-38.5 94.5t-59 72.5t-76 52t-90 30t-100 10q-58 0 -105 -12t-77 -34t-52.5 -49t-33.5 -59.5t-17.5 -62.5t-7 -60.5t0.5 -51.5t3.5 -38 t2.5 -18v-1252q0 -27 -10 -52t-17.5 -35.5t-27.5 -36.5q-24 -29 -53 -45h-45v1460q0 62 -14.5 113t-38 86t-58 62t-71 43t-80.5 26t-82.5 13t-80.5 3q-55 0 -107.5 -15.5t-86 -35.5t-71.5 -48q-58 -43 -97 -96l181 -151q-11 -19 -26 -55q-28 -75 -28 -187v-391 q0 -112 -38.5 -155t-129.5 -43h-106z" />
</font>
</defs>
</svg>
