<?xml version="1.0" standalone="no"?>
<!DOCTYPE svg PUBLIC "-//W3C//DTD SVG 1.1//EN" "http://www.w3.org/Graphics/SVG/1.1/DTD/svg11.dtd" >
<svg xmlns="http://www.w3.org/2000/svg">
<metadata></metadata>
<defs>
<font id="thaisans_neueregular" horiz-adv-x="0" >
<font-face units-per-em="2048" ascent="1542" descent="-506" />
<missing-glyph horiz-adv-x="948" />
<glyph unicode="&#x3b;&#x3b;arm&#x3b;&#x3b;" horiz-adv-x="3078" d="M109 1829v118h471v236q-67 0 -121 70.5t-54 164.5q0 100 71 168t163 68q113 0 175 -62t62 -174q0 -55 -20 -106t-61.5 -88t-96.5 -41v-236h473v-118h-473v-354l317 -709h-118l-258 590l-256 -590h-118l315 709v354h-471zM228 0q0 23 5 46t15 46.5t27.5 43.5t39.5 36 t52.5 25t65.5 9q89 0 147.5 -58.5t58.5 -147.5q0 -109 -79 -166l65 -301l163 326h59l161 -326l104 614h147l-47 -245l32 59l192 42q0 206 32 328.5t95.5 175.5t167.5 53q86 0 131.5 -57t45.5 -149h-59q0 31 -9.5 57t-30 43.5t-48.5 17.5q-110 0 -158.5 -106.5t-48.5 -332.5 l216 52l26 -105l-242 -62v-118q0 -87 -1.5 -152.5t-5.5 -138t-11.5 -126.5t-19.5 -109.5t-29.5 -94t-41.5 -74t-55 -56.5t-71.5 -33t-88.5 -12q-60 0 -106 19t-73 59.5t-27 98.5h59q0 -42 35 -66t83 -24q43 0 77 12t58 42.5t41.5 59.5t28.5 87t17 100.5t9 124t3.5 133 t0.5 150.5v88l-235 -59l-101 -530h-76l-208 442l-205 -442h-77l-95 471l53 36q-2 -3 -17 -3q-8 -3 -42 -3q-16 0 -34 3t-38.5 10.5t-39 18t-36 27t-30 36.5t-20 47t-7.5 58zM346 0q0 -23 9 -41t29.5 -29.5t48.5 -11.5q88 0 88 82q0 88 -88 88q-42 0 -64.5 -25t-22.5 -63z M521 2418q0 -51 28 -84.5t90.5 -33.5t90 33.5t27.5 84.5q0 63 -33.5 90.5t-84 27.5t-84.5 -27.5t-34 -90.5zM1201 766l671 1829h508l589 -1829h-471l-180 562h-793l-207 -562h-117zM1584 1475h684l-321 1002zM1964 59l59 295h88l-88 -295h-59zM2046 2507l39 -115l68 115 h-107zM2105 2339l25 -83l152 251h-73zM2111 59l59 295h89l-89 -295h-59zM2150 2200l33 -106l164 278l-31 99zM2212 2006l17 -59l166 273l-18 60zM2254 1876l17 -59l165 274l-18 59zM2291 -289q0 144 45.5 271.5t128 206.5t180.5 79q156 0 240 -107t84 -302 q0 -143 -26.5 -250t-76.5 -175t-120 -101.5t-160 -33.5q-58 0 -109.5 23.5t-94 71t-67 129t-24.5 188.5zM2297 1740l19 -60l164 273l-20 62zM2336 1621l20 -70l165 275l-20 70zM2377 1486l21 -59l162 275l-16 59zM2409 -230l413 177q-4 53 -23 101q-45 99 -154 99 q-128 0 -194 -189q-28 -79 -42 -188zM2409 -377q0 -35 11 -70t32 -66.5t56 -51.5t78 -20t77 16t58.5 45t40.5 60.5t30 71.5q26 85 30 192zM2418 1354l18 -48l165 269l-15 57zM2457 1238l17 -47l166 272l-18 50zM2496 1120l17 -56l168 269l-18 62zM2533 1002l22 -67l164 277 l-20 65zM2572 884l8 -29h39l139 234l-21 70zM2665 855h59l72 121l-21 59zM2772 855h59l-20 65z" />
<glyph unicode=" "  horiz-adv-x="948" />
<glyph unicode="&#x09;" horiz-adv-x="948" />
<glyph unicode="&#xa0;" horiz-adv-x="948" />
<glyph unicode="!" horiz-adv-x="394" d="M109 0v177h178v-177h-178zM109 354v1180h178v-1180h-178z" />
<glyph unicode="&#x22;" horiz-adv-x="718" d="M109 1061v473h178v-473h-178zM433 1061v473h178v-473h-178z" />
<glyph unicode="#" horiz-adv-x="1609" d="M109 433l38 144h225l82 310h-224l35 145h227l113 414h171l-112 -414h413l111 414h171l-112 -414h253l-37 -145h-253l-84 -310h254l-41 -144h-250l-116 -433h-171l115 433h-413l-115 -433h-170l114 433h-224zM543 577h413l82 310h-413z" />
<glyph unicode="$" horiz-adv-x="1160" d="M109 88v148q77 -40 130 -59q141 -59 301 -59q161 0 248.5 77.5t87.5 217.5q0 65 -26.5 114.5t-71 81t-101.5 56.5t-121 46t-127.5 42.5t-120.5 52.5t-101.5 70.5t-71 102t-26.5 141.5q0 76 34 139t91 105.5t127.5 69t148.5 35.5v224h168v-224q134 -11 236 -48 q49 -12 80 -34v-149q-81 35 -107 45q-156 45 -307 45q-69 0 -135.5 -25t-112 -73.5t-45.5 -109.5q0 -53 26 -94t70.5 -68.5t102 -50t121 -44t127 -45.5t121 -59t101.5 -80t70.5 -113t26.5 -153q0 -63 -10.5 -118t-37 -109t-68 -93.5t-107.5 -68.5t-152 -38v-228h-168v219 q-156 3 -301 59q-63 23 -100 52z" />
<glyph unicode="%" horiz-adv-x="1689" d="M109 1230q0 205 79 316t209 111q83 0 144 -45.5t96 -139t35 -225.5q0 -196 -81 -305.5t-208 -109.5q-125 0 -199.5 103.5t-74.5 294.5zM281 1236q0 -42 2 -76t6.5 -59.5t10 -45.5t13.5 -33.5t16.5 -22.5t19 -14t20.5 -7t23 -2q19 0 34.5 6t31 23t26 45t17 76t6.5 112 q0 275 -115 275q-25 0 -44 -12t-35 -41.5t-24 -86t-8 -137.5zM310 0l990 1776h186l-991 -1776h-185zM1018 357q0 205 79 316.5t209 111.5q126 0 200.5 -106.5t74.5 -304.5q0 -196 -81 -303t-208 -107q-122 0 -198 102.5t-76 290.5zM1188 363q0 -66 6 -113.5t15.5 -75 t24.5 -44t30.5 -21.5t35.5 -5q26 0 45 10t36 37t26 81t9 134q0 81 -9 137t-26 84.5t-36 40t-45 11.5q-25 0 -44 -12t-35 -41t-24.5 -85.5t-8.5 -137.5z" />
<glyph unicode="&#x26;" horiz-adv-x="1632" d="M109 374q0 161 80.5 272t249.5 189q-27 18 -51.5 39.5t-49 51t-42.5 62t-29 73.5t-11 84q0 103 53.5 178.5t143 113.5t202.5 38q97 0 180.5 -36.5t136 -106.5t52.5 -158q0 -67 -19 -120t-58.5 -95.5t-92.5 -75.5t-128 -64q61 -33 115 -73t91 -74.5t77.5 -83t62.5 -79 t57 -81.5q90 128 139.5 281.5t49.5 272.5v50h177q-9 -175 -81 -370t-190 -361q30 -37 57.5 -63t63.5 -48t80.5 -32.5t99.5 -10.5v-147q-141 0 -237 46t-171 131q-208 -200 -524 -200q-237 0 -360.5 96t-123.5 301zM287 374q0 -137 79 -196.5t227 -59.5q258 0 428 174 q-15 22 -42.5 61.5t-44 64t-44.5 61.5t-50.5 61.5t-54.5 55.5t-63.5 53.5t-71.5 44t-84 38.5q-61 -25 -101 -46.5t-77 -51.5t-57.5 -65t-32 -83.5t-11.5 -111.5zM433 1145q0 -79 41 -145t119 -110q132 50 193 119t61 165q0 29 -13.5 54.5t-34 42.5t-46.5 28.5t-51 17 t-47 5.5q-104 0 -163 -51t-59 -126z" />
<glyph unicode="'" horiz-adv-x="394" d="M109 1061v473h178v-473h-178z" />
<glyph unicode="(" horiz-adv-x="600" d="M65 552q0 578 354 993h161q-350 -425 -350 -993q0 -552 350 -962h-161q-354 393 -354 962z" />
<glyph unicode=")" horiz-adv-x="600" d="M20 -410q352 412 352 962q0 566 -352 993h163q354 -415 354 -993q0 -569 -354 -962h-163z" />
<glyph unicode="*" horiz-adv-x="851" d="M109 1135l239 124l-239 125l97 132l168 -160l-31 234h164l-35 -236l175 162l96 -132l-242 -125l242 -124l-96 -133l-175 163l35 -236h-164l31 233l-168 -160z" />
<glyph unicode="+" horiz-adv-x="1101" d="M109 531v147h369v389h147v-389h369v-147h-369v-354h-147v354h-369z" />
<glyph unicode="," horiz-adv-x="394" d="M-62 -318q38 41 85 106q86 120 86 212v177h178v-177q0 -103 -104 -225q-58 -63 -104 -93h-141z" />
<glyph unicode="-" horiz-adv-x="792" d="M109 560v148h575v-148h-575z" />
<glyph unicode="." horiz-adv-x="394" d="M109 0v177h178v-177h-178z" />
<glyph unicode="/" horiz-adv-x="681" d="M20 0l475 1776h166l-475 -1776h-166z" />
<glyph unicode="0" horiz-adv-x="1219" d="M65 693q0 187 40.5 336t113 246t172.5 148.5t220 51.5q115 0 213 -47t173 -137t117 -235t42 -330q0 -145 -30 -268t-83.5 -210.5t-125.5 -149t-156 -91.5t-176 -30q-114 0 -208.5 45t-164.5 132t-108.5 224.5t-38.5 314.5zM242 701q0 -147 27.5 -260.5t76.5 -183 t112.5 -104.5t140.5 -35q81 0 149 36.5t120 108t81.5 186.5t29.5 262q0 151 -29.5 270t-81.5 194t-120.5 114t-148.5 39q-76 0 -140.5 -39t-113 -114.5t-76 -197t-27.5 -276.5z" />
<glyph unicode="1" horiz-adv-x="673" d="M65 1061v149q115 45 230 144q54 43 97 92h174v-1446h-177v1210q-181 -119 -324 -149z" />
<glyph unicode="2" horiz-adv-x="999" d="M65 0v135q0 56 23 112t62.5 106t90 101t107 100t112.5 98t107 100t90.5 101.5t62.5 107t23 112.5q0 54 -12.5 97.5t-34.5 72.5t-53.5 48.5t-68.5 28t-82 8.5q-104 0 -204 -31.5t-164 -95.5v147q122 127 368 127q125 0 221 -43.5t151.5 -131.5t55.5 -208q0 -88 -35.5 -173 t-92.5 -154.5t-126.5 -135.5t-140 -127t-130.5 -118t-101.5 -118.5t-48.5 -118.5h734v-147h-914z" />
<glyph unicode="3" horiz-adv-x="1028" d="M109 59v157q67 -56 148 -77t188 -21q96 0 171.5 28t123.5 88.5t48 145.5q0 101 -51 164t-168.5 95.5t-312.5 32.5v139q125 0 236 33q48 13 87.5 32.5t74.5 48t55 69t20 89.5q0 128 -63.5 186.5t-170.5 58.5q-88 0 -176 -21.5t-151 -68.5v149q70 45 147.5 66.5t179.5 21.5 q111 0 205.5 -45.5t150 -125.5t55.5 -175q0 -147 -74.5 -239.5t-220.5 -137.5q93 -12 173.5 -59.5t130.5 -126.5t50 -171q0 -131 -67.5 -226.5t-184 -143.5t-268.5 -48q-194 0 -336 82z" />
<glyph unicode="4" horiz-adv-x="1061" d="M20 351v150l664 945h177v-945h180v-150h-180v-351h-177v351h-664zM212 501h472v681z" />
<glyph unicode="5" horiz-adv-x="969" d="M109 29v154q25 -18 77 -33q79 -32 203 -32q166 0 253 76.5t87 224.5q0 147 -92 232.5t-245 85.5q-130 0 -209 -14q-49 -11 -74 -15v738h696v-149h-518v-427h105q243 0 378.5 -119.5t135.5 -319.5q0 -219 -137.5 -336.5t-379.5 -117.5q-183 0 -280 52z" />
<glyph unicode="6" horiz-adv-x="1069" d="M65 636q0 408 159 623.5t440 215.5h30h31.5t29.5 -0.5t30.5 -1t28.5 -2t29 -3.5t26.5 -5t27 -7.5t23.5 -9.5v-149q-16 3 -70 15q-82 16 -186 16q-197 0 -309.5 -150.5t-112.5 -417.5q25 43 64 74t84 46.5t85.5 22t81.5 6.5q73 0 140.5 -22t123 -63t97 -97t64.5 -128 t23 -151q0 -135 -60 -243t-167 -168t-241 -60q-215 0 -343.5 175.5t-128.5 483.5zM253 478q0 -112 33.5 -193t97.5 -124t153 -43q77 0 145.5 44.5t109 121t40.5 164.5q0 155 -77 235t-218 80q-41 0 -77.5 -10.5t-65 -28.5t-52 -41.5t-39.5 -50t-27.5 -54t-17 -53t-5.5 -47.5 z" />
<glyph unicode="7" horiz-adv-x="984" d="M20 1297v149h945v-90l-517 -1356h-177l486 1297h-737z" />
<glyph unicode="8" horiz-adv-x="1042" d="M65 383q0 129 64.5 234t188.5 165q-92 51 -143 134.5t-51 186.5q0 105 49.5 189.5t140.5 133.5t207 49q82 0 156 -30.5t127 -81.5t84.5 -119t31.5 -141q0 -51 -13 -98.5t-37.5 -88.5t-60 -75t-80.5 -59q82 -39 139 -102.5t84 -138.5t27 -158q0 -131 -59 -223.5 t-161 -137.5t-238 -45q-216 0 -336 104t-120 302zM242 413q0 -135 73 -215t206 -80q132 0 206.5 80.5t74.5 214.5q0 57 -19.5 109.5t-54.5 94t-88.5 66.5t-118.5 25q-124 0 -201.5 -81t-77.5 -214zM301 1086q0 -100 58 -165.5t162 -65.5q95 0 160 67.5t65 163.5 q0 103 -64.5 172.5t-160.5 69.5q-108 0 -164 -67t-56 -175z" />
<glyph unicode="9" horiz-adv-x="1069" d="M65 996q0 136 60.5 245t168 171.5t240.5 62.5q142 0 248 -79.5t164.5 -231t58.5 -356.5q0 -407 -158 -619t-439 -212q-62 0 -95.5 0.5t-81.5 6t-81 16.5v147q36 -11 72 -15q84 -14 186 -14q197 0 308.5 149.5t111.5 416.5q-25 -43 -64 -73.5t-84 -45.5t-85.5 -21.5 t-81.5 -6.5q-73 0 -140.5 21.5t-123 62.5t-97 96.5t-64.5 127.5t-23 151zM239 996q0 -154 77 -234.5t218 -80.5q57 0 105 20t80 51.5t54.5 70.5t32.5 76t10 69q0 169 -73.5 264.5t-208.5 95.5q-77 0 -145 -45t-109 -121.5t-41 -165.5z" />
<glyph unicode=":" horiz-adv-x="394" d="M109 0v177h178v-177h-178zM109 855v177h178v-177h-178z" />
<glyph unicode=";" horiz-adv-x="394" d="M-62 -318q38 41 85 106q86 120 86 212v177h178v-177q0 -103 -104 -225q-58 -63 -104 -93h-141zM109 855v177h178v-177h-178z" />
<glyph unicode="&#x3c;" horiz-adv-x="1064" d="M65 448v78l979 547v-164l-743 -422l743 -363v-160z" />
<glyph unicode="=" horiz-adv-x="1101" d="M109 354v147h885v-147h-885zM109 678v147h885v-147h-885z" />
<glyph unicode="&#x3e;" horiz-adv-x="1064" d="M20 -36v160l743 363l-743 422v164l979 -547v-78z" />
<glyph unicode="?" horiz-adv-x="925" d="M109 1210v146q33 38 74 60q100 59 253 59q74 0 141 -21t121 -60t86 -102t32 -141q0 -63 -19 -116.5t-50.5 -91t-69 -70.5t-75 -60.5t-68.5 -53.5t-50.5 -57.5t-19.5 -65.5v-282h-177v282q0 47 19 87.5t50.5 71.5t69 60t75 58.5t68.5 60t50.5 71.5t19.5 87q0 98 -57 147 t-146 49q-141 0 -242 -59q-43 -23 -85 -59zM287 0v177h177v-177h-177z" />
<glyph unicode="@" horiz-adv-x="1928" d="M109 552q0 113 33 222t91.5 200.5t141 168.5t179.5 130.5t210 83.5t230 30q168 0 320.5 -55.5t263.5 -150.5t176.5 -229t65.5 -285q0 -92 -25.5 -175t-69 -145t-99.5 -107.5t-119.5 -69t-126.5 -23.5q-82 0 -130.5 23.5t-72 72t-29.5 131.5q-53 -122 -122 -174.5 t-176 -52.5q-55 0 -105.5 14t-97 45.5t-80.5 76.5t-54.5 112t-20.5 148q0 94 40 180.5t105.5 147t150.5 96t174 35.5q79 0 133.5 -32t80.5 -86l25 118h164l-82 -484q0 -66 12 -110q23 -113 85 -113q50 0 94 25t74 65t52 90t32.5 99t10.5 93q0 57 -19 121t-55 128t-93 122 t-126.5 102.5t-162 71t-193.5 26.5q-104 0 -201 -30t-173 -82t-140 -120.5t-105.5 -145t-64.5 -156t-23 -152.5q0 -96 28 -187.5t85 -172.5t136.5 -142t189.5 -96.5t236 -35.5q208 0 425 82v-150q-240 -80 -425 -80q-139 0 -268.5 37t-235 107t-184 165t-122 216.5 t-43.5 256.5zM670 543q0 -52 10.5 -94.5t28 -70.5t41 -47t48.5 -27.5t52 -8.5q128 0 193.5 95.5t65.5 310.5q0 77 -39 115.5t-108 38.5q-60 0 -112 -19.5t-93 -57.5t-64 -98.5t-23 -136.5z" />
<glyph unicode="A" horiz-adv-x="1278" d="M20 0l532 1446h177l530 -1446h-176l-143 383h-607l-144 -383h-169zM383 531h507l-251 722z" />
<glyph unicode="B" horiz-adv-x="1131" d="M109 0v1446h412q191 0 302.5 -94.5t111.5 -245.5q0 -117 -69 -212t-185 -128q97 -17 173 -61.5t123 -120t47 -171.5q0 -119 -64 -213.5t-177 -147t-255 -52.5h-419zM287 147h223q146 0 241.5 76.5t95.5 189.5q0 132 -96.5 206t-272.5 74h-191v-546zM287 841h172 q139 0 218.5 60.5t79.5 175.5q0 106 -70 163t-209 57h-191v-456z" />
<glyph unicode="C" horiz-adv-x="1205" d="M65 708q0 175 53 319t148 242t229.5 152t295.5 54q268 0 394 -59l-59 -147q-79 38 -150.5 48.5t-184.5 10.5q-164 0 -288.5 -77t-192.5 -218t-68 -325q0 -274 148.5 -432t400.5 -158q72 0 129 10.5t99 27.5t107 50l59 -147q-153 -82 -415 -82q-158 0 -289 51.5t-223 146 t-142.5 231.5t-50.5 302z" />
<glyph unicode="D" horiz-adv-x="1353" d="M109 0v1446h404q382 0 579 -177.5t197 -531.5q0 -130 -36.5 -244.5t-106 -204.5t-166 -154.5t-220.5 -99t-265 -34.5h-386zM287 147h208q285 0 451 157.5t166 432.5q0 187 -71 312.5t-205.5 186.5t-331.5 61h-217v-1150z" />
<glyph unicode="E" horiz-adv-x="984" d="M109 0v1446h767v-149h-589v-501h529v-147h-529v-502h589v-147h-767z" />
<glyph unicode="F" horiz-adv-x="895" d="M109 0v1446h767v-149h-589v-501h529v-147h-529v-649h-178z" />
<glyph unicode="G" horiz-adv-x="1382" d="M65 693q0 169 59.5 315t162 248t245.5 160.5t306 58.5t313 -45q47 -18 93 -43v-149q-48 27 -96 45q-150 45 -329 45q-125 0 -233 -48t-183.5 -131.5t-118 -201.5t-42.5 -254q0 -277 149 -426t408 -149q95 0 162.5 14.5t135.5 50.5v407h-324v147h501v-661 q-106 -56 -224 -77.5t-271 -21.5q-156 0 -287.5 49.5t-226 140t-147.5 226t-53 300.5z" />
<glyph unicode="H" horiz-adv-x="1308" d="M109 0v1446h178v-621h737v621h177v-1446h-177v678h-737v-678h-178z" />
<glyph unicode="I" horiz-adv-x="394" d="M109 0v1446h178v-1446h-178z" />
<glyph unicode="J" horiz-adv-x="748" d="M20 9l59 132q4 -1 19 -5.5t23 -5.5q35 -12 107 -12q236 0 236 389v939h175v-939q0 -103 -18.5 -188t-54 -148t-86 -106.5t-114 -65.5t-138.5 -22q-100 0 -160 14q-31 9 -48 18z" />
<glyph unicode="K" horiz-adv-x="1146" d="M109 0v1446h178v-732l586 732h207l-396 -493l442 -953h-183l-374 808l-282 -357v-451h-178z" />
<glyph unicode="L" horiz-adv-x="895" d="M109 0v1446h178v-1299h589v-147h-767z" />
<glyph unicode="M" horiz-adv-x="1722" d="M109 0v1446h237l501 -1181l530 1181h236v-1446h-177v1194l-546 -1194h-88l-515 1188v-1188h-178z" />
<glyph unicode="N" horiz-adv-x="1396" d="M109 0v1446h221l782 -1216v1216h177v-1446h-222l-780 1201v-1201h-178z" />
<glyph unicode="O" horiz-adv-x="1514" d="M65 701q0 239 84.5 413.5t243.5 267.5t377 93q153 0 280 -53.5t215.5 -150t137.5 -234.5t49 -303q0 -179 -50 -321.5t-142.5 -238.5t-224.5 -146.5t-295 -50.5q-205 0 -357.5 87t-235 251t-82.5 386zM242 701q0 -268 134 -425.5t364 -157.5q165 0 285 72t184.5 211.5 t64.5 332.5q0 177 -63.5 312t-178 208.5t-262.5 73.5q-248 0 -388 -167t-140 -460z" />
<glyph unicode="P" horiz-adv-x="1058" d="M109 0v1446h401q153 0 261.5 -51t165.5 -151t57 -242q0 -215 -140 -343t-385 -128h-182v-531h-178zM287 678h182q170 0 258.5 87.5t88.5 233.5q0 75 -15 128.5t-50 92.5t-95 58t-146 19h-223v-619z" />
<glyph unicode="Q" horiz-adv-x="1514" d="M65 701q0 239 84.5 413.5t243.5 267.5t377 93q153 0 280 -53.5t215.5 -150t137.5 -234.5t49 -303q0 -161 -41.5 -293.5t-116.5 -227t-182 -154.5q34 -15 60 -28.5t56.5 -36.5t50 -49t33 -63.5t13.5 -81.5h-166q0 31 -16 60.5t-39.5 50.5t-54.5 40t-57.5 30t-51.5 19 q-108 -23 -200 -23q-205 0 -357.5 87t-235 251t-82.5 386zM242 701q0 -268 134 -425.5t364 -157.5q165 0 285 72t184.5 211.5t64.5 332.5q0 177 -63.5 312t-178 208.5t-262.5 73.5q-248 0 -388 -167t-140 -460z" />
<glyph unicode="R" horiz-adv-x="1176" d="M109 0v1446h443q90 0 169.5 -26t140.5 -74.5t96.5 -125t35.5 -170.5q0 -73 -25 -133.5t-70.5 -104t-104.5 -73t-133 -46.5q22 -8 43.5 -24.5t38 -33.5t38 -46.5t33.5 -49t34.5 -56t32.5 -52.5l275 -431h-200l-252 402q-35 57 -62.5 93t-61 66.5t-71.5 44t-84 13.5h-138 v-619h-178zM287 766h229q135 0 217.5 73.5t82.5 210.5q0 56 -20.5 102t-58.5 78t-95 49.5t-126 17.5h-229v-531z" />
<glyph unicode="S" horiz-adv-x="1160" d="M109 88v148q77 -40 130 -59q141 -59 301 -59q161 0 248.5 77.5t87.5 217.5q0 65 -26.5 114.5t-71 81t-101.5 56.5t-121 46t-127.5 42.5t-120.5 52.5t-101.5 70.5t-71 102t-26.5 141.5q0 67 27 124.5t73 99t106 71.5t128 45t137 15q164 0 314 -45q65 -24 100 -43v-149 q-81 35 -107 45q-156 45 -307 45q-69 0 -135.5 -25t-112 -73.5t-45.5 -109.5q0 -53 26 -94t70.5 -68.5t102 -50t121 -44t127 -45.5t121 -59t101.5 -80t70.5 -113t26.5 -153q0 -51 -7 -96.5t-23 -90.5t-42 -81.5t-66 -68.5t-92.5 -53.5t-124 -33.5t-158.5 -12q-201 0 -321 56 q-58 19 -110 55z" />
<glyph unicode="T" horiz-adv-x="1028" d="M20 1297v149h988v-149h-397v-1297h-178v1297h-413z" />
<glyph unicode="U" horiz-adv-x="1308" d="M109 549v897h178v-886q0 -226 82 -334t270 -108q385 0 385 425v903h177v-877q0 -304 -140.5 -448t-421.5 -144q-267 0 -398.5 140t-131.5 432z" />
<glyph unicode="V" horiz-adv-x="1278" d="M20 1446h177l442 -1240l444 1240h176l-530 -1446h-177z" />
<glyph unicode="W" horiz-adv-x="1897" d="M20 1446h177l340 -1240l369 1240h118l309 -1240l369 1240h177l-443 -1446h-206l-265 1151l-326 -1151h-206z" />
<glyph unicode="X" horiz-adv-x="1190" d="M20 0l472 723l-442 723h206l340 -576l369 576h206l-473 -723l473 -723h-206l-369 575l-368 -575h-208z" />
<glyph unicode="Y" horiz-adv-x="1131" d="M20 1446h177l355 -742l383 742h177l-473 -918v-528h-175v518z" />
<glyph unicode="Z" horiz-adv-x="1131" d="M20 0v45l827 1252h-768v149h1033v-45l-825 -1254h793l3 -147h-1063z" />
<glyph unicode="[" horiz-adv-x="577" d="M109 -410v1958h448v-144h-289v-1669h289v-145h-448z" />
<glyph unicode="\" horiz-adv-x="681" d="M20 1776h166l475 -1776h-166z" />
<glyph unicode="]" horiz-adv-x="577" d="M20 -265h290v1669h-290v144h449v-1958h-449v145z" />
<glyph unicode="^" horiz-adv-x="1332" d="M109 569l490 979h76l549 -979h-166l-422 743l-362 -743h-165z" />
<glyph unicode="_" horiz-adv-x="1101" d="M109 0h885v-141h-885v141z" />
<glyph unicode="`" horiz-adv-x="624" d="M109 1624h178l229 -327h-147z" />
<glyph unicode="a" horiz-adv-x="1042" d="M109 281q3 74 30 131t66 90t92 53.5t99.5 27.5t95.5 7q141 0 219 21q53 17 62 23q0 309 -275 309q-142 0 -256 -96q-45 -35 -74 -95l-59 132q34 60 83 95q121 98 306 98q64 0 124 -12.5t117.5 -43t100 -75t69 -113.5t26.5 -155v-678h-162v118q-32 -36 -71.5 -65 t-103.5 -52.5t-134 -23.5q-107 0 -187 33q-80 32 -126 102q-42 64 -42 153v16zM271 281q0 -50 18 -86t50 -55t69.5 -27.5t83.5 -8.5q83 0 162.5 45t118.5 102v250q-13 -4 -41.5 -11.5t-41.5 -11.5q-89 -22 -169 -22q-62 0 -117.5 -17.5t-94 -59t-38.5 -98.5z" />
<glyph unicode="b" horiz-adv-x="1190" d="M109 0v1534h162v-620q36 46 89 80q110 83 265 83q64 0 131.5 -19.5t134 -62t118.5 -102.5t84.5 -149.5t32.5 -194.5q0 -117 -29.5 -212.5t-78.5 -158.5t-114.5 -106t-135.5 -62t-143 -19q-149 0 -265 77q-56 31 -89 79v-147h-162zM271 281q53 -53 101 -84 q109 -79 253 -79q46 0 92 14.5t91 47.5t79.5 81.5t56 123t21.5 164.5q0 71 -21.5 135.5t-56.5 110.5t-79 80t-91.5 51t-91.5 17q-140 0 -253 -82q-37 -23 -101 -79v-501z" />
<glyph unicode="c" horiz-adv-x="895" d="M65 501q0 128 40 235.5t111 182.5t171.5 116.5t217.5 41.5q94 0 191 -39q36 -12 80 -36l-60 -132q-26 22 -59 36q-72 37 -152 37q-75 0 -143.5 -31.5t-120.5 -87.5t-82.5 -140t-30.5 -183q0 -97 30 -172t83 -120t120 -68t144 -23q86 0 152 35q26 11 59 39l60 -133 q-38 -23 -80 -36q-79 -32 -206 -32q-115 0 -211.5 34t-166 98t-108.5 161t-39 217z" />
<glyph unicode="d" horiz-adv-x="1190" d="M65 549q0 88 22.5 165.5t61.5 134t89 101t106.5 72t112.5 41.5t109 14q156 0 266 -83q50 -33 88 -80v620h163v-1534h-163v147q-34 -49 -88 -79q-116 -77 -266 -77q-61 0 -119.5 14t-115.5 41.5t-104.5 73t-84 105.5t-57 143t-20.5 181zM228 549q0 -76 14.5 -140.5 t40 -110.5t59 -81.5t71.5 -56.5t76.5 -31.5t76.5 -10.5q144 0 253 79q48 31 101 84v501q-64 56 -101 79q-113 82 -253 82q-37 0 -76 -12t-77 -34.5t-71.5 -57.5t-59 -77.5t-40 -97.5t-14.5 -115z" />
<glyph unicode="e" horiz-adv-x="1039" d="M65 513q0 158 61 287.5t169.5 203t241.5 73.5q205 0 322 -134.5t117 -379.5v-76h-748q0 -92 26 -163.5t72.5 -115.5t108 -67t134.5 -23q132 0 219 50q38 24 59 54l59 -134q-30 -23 -90 -49q-121 -48 -247 -48q-113 0 -203.5 30.5t-159 92t-105 163t-36.5 236.5zM228 619 h580q-7 152 -77.5 238t-193.5 86q-120 0 -205 -90t-104 -234z" />
<glyph unicode="f" horiz-adv-x="689" d="M20 900v132h192v159q0 179 71 275t218 96q66 0 135 -8q6 -1 17.5 -2.5t16.5 -3.5v-132q-5 1 -14 2.5t-14 2.5l-18 3t-32.5 4.5t-34.5 1.5q-95 0 -139 -56.5t-44 -182.5v-159h296v-132h-296v-900h-162v900h-192z" />
<glyph unicode="g" horiz-adv-x="1190" d="M65 513q0 116 29.5 212t78.5 160t114.5 108.5t135.5 64t143 19.5q156 0 266 -83q50 -33 88 -80v147h163v-1028q0 -284 -135.5 -413.5t-426.5 -129.5q-150 0 -265 51q-52 21 -88 51l60 134q31 -31 70 -53q92 -50 223 -50q201 0 300 90.5t99 289.5v144q-34 -49 -88 -79 q-116 -77 -266 -77q-64 0 -131.5 18.5t-134 60.5t-118.5 101t-84.5 147.5t-32.5 194.5zM228 513q0 -72 21 -136t55.5 -110.5t78.5 -80.5t91 -51t92 -17q144 0 253 79q48 31 101 84v501q-64 56 -101 79q-113 82 -253 82q-38 0 -76.5 -10.5t-76.5 -31.5t-71.5 -56.5t-59 -81.5 t-40 -110.5t-14.5 -139.5z" />
<glyph unicode="h" horiz-adv-x="1101" d="M109 0v1534h162v-650q28 59 75 95q33 28 64 47.5t81 35t105 15.5q105 0 183 -29.5t124 -83t68.5 -122.5t22.5 -155v-687h-162v696q0 51 -20.5 95t-56 74t-84.5 47t-105 17q-130 0 -223 -88q-45 -45 -72 -89v-752h-162z" />
<glyph unicode="i" horiz-adv-x="380" d="M109 0v1061h162v-1061h-162zM109 1227v160h162v-160h-162z" />
<glyph unicode="j" horiz-adv-x="380" d="M-298 -467l59 134q5 -3 11.5 -7.5l13 -9t11.5 -7.5q32 -20 76 -20q76 0 128.5 40t80 122t27.5 203v1073h162v-1044q0 -165 -47 -283.5t-136.5 -181t-214.5 -62.5q-84 0 -129 20q-6 4 -21 11.5t-21 11.5zM109 1227v160h162v-160h-162z" />
<glyph unicode="k" horiz-adv-x="969" d="M109 0v1534h162v-1065l452 563h180l-275 -342l321 -690h-153l-262 572l-263 -330v-242h-162z" />
<glyph unicode="l" horiz-adv-x="380" d="M109 0v1534h162v-1534h-162z" />
<glyph unicode="m" horiz-adv-x="1824" d="M109 0v1061h162v-177q0 5 11.5 24.5t38.5 48.5t63 55.5t92.5 45.5t119.5 19q268 0 363 -204q14 20 30 39.5t51 52t72 55t92 40t114 17.5q104 0 182 -29.5t124.5 -83t69 -123t22.5 -154.5v-687h-162v696q0 104 -75.5 168.5t-189.5 64.5q-131 0 -225 -88q-41 -41 -70 -89 v-752h-162v696q0 51 -20.5 95t-56 74t-84.5 47t-105 17q-130 0 -223 -88q-45 -45 -72 -89v-752h-162z" />
<glyph unicode="n" horiz-adv-x="1101" d="M109 0v1061h162v-177q28 59 75 95q33 28 64 47.5t81 35t105 15.5q105 0 183 -29.5t124 -83t68.5 -122.5t22.5 -155v-687h-162v696q0 51 -20.5 95t-56 74t-84.5 47t-105 17q-130 0 -223 -88q-45 -45 -72 -89v-752h-162z" />
<glyph unicode="o" horiz-adv-x="1157" d="M65 516q0 266 139.5 413.5t385.5 147.5q231 0 367.5 -144.5t136.5 -392.5q0 -265 -138.5 -407t-386.5 -142q-115 0 -208.5 35.5t-159 102t-101 165t-35.5 222.5zM228 516q0 -124 41.5 -214t118.5 -137t181 -47q170 0 266.5 110.5t96.5 311.5q0 186 -92.5 294.5 t-249.5 108.5q-169 0 -265.5 -113t-96.5 -314z" />
<glyph unicode="p" horiz-adv-x="1190" d="M109 -467v1528h162v-147q36 46 89 80q110 83 265 83q73 0 143 -19.5t135.5 -64t114.5 -108.5t78.5 -160t29.5 -212q0 -106 -32.5 -194.5t-84.5 -147.5t-119 -101t-134 -60.5t-131 -18.5q-149 0 -265 77q-56 31 -89 79v-614h-162zM271 281q53 -53 101 -84q109 -79 253 -79 q44 0 91.5 17t91.5 51t79 80.5t56.5 110.5t21.5 136q0 90 -21.5 164t-56 122.5t-79.5 81.5t-91 47.5t-92 14.5q-140 0 -253 -82q-37 -23 -101 -79v-501z" />
<glyph unicode="q" horiz-adv-x="1190" d="M65 513q0 116 29.5 212t78.5 160t114.5 108.5t135.5 64t143 19.5q156 0 266 -83q50 -33 88 -80v147h163v-1528h-163v614q-34 -49 -88 -79q-116 -77 -266 -77q-64 0 -131.5 18.5t-134 60.5t-118.5 101t-84.5 147.5t-32.5 194.5zM228 513q0 -72 21 -136t55.5 -110.5 t78.5 -80.5t91 -51t92 -17q144 0 253 79q48 31 101 84v501q-64 56 -101 79q-113 82 -253 82q-38 0 -76.5 -10.5t-76.5 -31.5t-71.5 -56.5t-59 -81.5t-40 -110.5t-14.5 -139.5z" />
<glyph unicode="r" horiz-adv-x="665" d="M109 0v1061h162v-279q23 75 65 147q90 148 201 148q15 0 28.5 -1.5t28 -4.5t19.5 -4t11.5 -2t12.5 -1.5t10 -2.5v-161q-5 2 -16.5 3t-17.5 3q-60 8 -76 8q-74 0 -177 -144q-54 -72 -89 -145v-625h-162z" />
<glyph unicode="s" horiz-adv-x="925" d="M109 45v132q41 -29 80 -39q86 -34 216 -34q250 0 250 191q0 48 -18.5 84t-50 58t-72.5 39t-86.5 30t-90.5 27t-86 35t-72.5 49.5t-50.5 74t-19 104.5q0 79 54.5 148t136 108.5t164.5 39.5q131 0 223 -39q41 -14 70 -35v-134q-33 24 -73 36q-97 39 -220 39q-75 0 -134 -48 t-59 -115q0 -38 18.5 -66t50 -45t72.5 -30t86.5 -25.5t90.5 -27.5t86 -39.5t72.5 -58t50 -87t18.5 -122.5q0 -65 -22.5 -120t-69.5 -100.5t-129 -71.5t-190 -26q-137 0 -216 32q-46 11 -80 36z" />
<glyph unicode="t" horiz-adv-x="689" d="M20 900v132h192v502h162v-502h296v-132h-296v-543q0 -126 44 -182.5t139 -56.5q45 0 85 6l28 8v-132q-5 -2 -16.5 -3.5t-17.5 -2.5q-23 -3 -135 -3q-289 0 -289 366v543h-192z" />
<glyph unicode="u" horiz-adv-x="1101" d="M109 374v687h162v-695q0 -104 76 -169t190 -65q128 0 223 90q48 47 72 88v751h162v-1061h-162v177q-28 -58 -75 -95q-107 -91 -250 -91q-105 0 -183 29t-124 81.5t-68.5 120.5t-22.5 152z" />
<glyph unicode="v" horiz-adv-x="1013" d="M20 1061h192l309 -869l311 869h162l-369 -1061h-206z" />
<glyph unicode="w" horiz-adv-x="1529" d="M20 1061h192l221 -869l281 869h118l251 -869l250 869h178l-326 -1061h-177l-235 841l-266 -841h-192z" />
<glyph unicode="x" horiz-adv-x="925" d="M20 0l354 531l-354 530h177l267 -397l265 397h177l-354 -545l354 -516h-177l-265 383l-267 -383h-177z" />
<glyph unicode="y" horiz-adv-x="1084" d="M20 -467l59 134q5 -3 11.5 -7.5l13 -9t11.5 -7.5q32 -20 82 -20q45 0 78 11t62.5 42.5t51.5 84.5l101 239l-457 1061h176l368 -839l310 839h177l-495 -1264q-21 -51 -37 -85.5t-36 -69.5t-40.5 -57t-46.5 -41.5t-56.5 -30.5t-69 -17t-86.5 -6q-74 0 -132 20 q-42 21 -45 23z" />
<glyph unicode="z" horiz-adv-x="977" d="M109 0v48l605 881h-548v132h793v-56l-599 -873h589v-132h-840z" />
<glyph unicode="{" horiz-adv-x="616" d="M65 454v126q45 5 78.5 21t57 46t35.5 75.5t12 105.5v346q0 184 85 274.5t263 99.5v-144q-88 -7 -135.5 -66.5t-47.5 -169.5v-354q0 -123 -45.5 -199.5t-145.5 -104.5q191 -49 191 -304v-336q0 -128 40.5 -182t142.5 -54v-144q-348 0 -348 360v347q0 235 -183 257z" />
<glyph unicode="|" horiz-adv-x="383" d="M109 -366v2059h165v-2059h-165z" />
<glyph unicode="}" horiz-adv-x="616" d="M20 -366q102 0 142.5 54t40.5 182v336q0 255 192 304q-101 28 -146.5 104.5t-45.5 199.5v354q0 74 -22 125.5t-62.5 79t-98.5 31.5v144q119 -6 195.5 -47.5t115 -122.5t38.5 -204v-346q0 -119 46 -179t137 -69v-126q-183 -22 -183 -257v-347q0 -360 -349 -360v144z" />
<glyph unicode="~" horiz-adv-x="1098" d="M109 487q0 124 66 200t182 76q34 0 70 -11.5t65 -28.5t62.5 -37.5t62.5 -37.5t64.5 -28.5t70.5 -11.5q47 0 78 39.5t37 115.5h124q-13 -276 -251 -276q-37 0 -74 11t-66.5 28t-62 37t-59.5 37t-59 28t-62 11q-127 0 -127 -152h-121z" />
<glyph unicode="&#xa9;" horiz-adv-x="1936" d="M109 714q0 119 31 231t86.5 206t134.5 172.5t173.5 133.5t206.5 85t230 30q177 0 336 -66.5t273.5 -181t181.5 -273.5t67 -337q0 -176 -67 -334t-181.5 -271.5t-273.5 -180t-336 -66.5q-118 0 -230 30t-206.5 84.5t-173.5 132.5t-134.5 171.5t-86.5 205t-31 228.5z M197 714.5q0 -157.5 61.5 -299.5t165 -244t246.5 -161.5t300.5 -59.5t300 59.5t245.5 161.5t163.5 244t60.5 299.5t-60.5 300t-163.5 245t-245.5 163t-300 60.5t-300.5 -60.5t-246.5 -163t-165 -245t-61.5 -300zM495 698q0 125 38.5 227t107.5 172t167 108.5t216 38.5 q166 0 268 -37l-36 -78q-83 39 -232 39q-128 0 -225.5 -59.5t-150 -166t-52.5 -244.5q0 -141 53 -244.5t149.5 -157.5t225.5 -54q76 0 123.5 12.5t108.5 46.5l36 -82q-100 -56 -284 -56q-234 0 -373.5 144t-139.5 391z" />
<glyph unicode="&#xad;" horiz-adv-x="792" d="M109 560v148h575v-148h-575z" />
<glyph unicode="&#xae;" horiz-adv-x="1936" d="M109 714q0 119 31 231t86.5 206t134.5 172.5t173.5 133.5t206.5 85t230 30q177 0 336 -66.5t273.5 -181t181.5 -273.5t67 -337q0 -176 -67 -334t-181.5 -271.5t-273.5 -180t-336 -66.5q-118 0 -230 30t-206.5 84.5t-173.5 132.5t-134.5 171.5t-86.5 205t-31 228.5z M197 714.5q0 -157.5 61.5 -299.5t165 -244t246.5 -161.5t300.5 -59.5t300 59.5t245.5 161.5t163.5 244t60.5 299.5t-60.5 300t-163.5 245t-245.5 163t-300 60.5t-300.5 -60.5t-246.5 -163t-165 -245t-61.5 -300zM670 206v1053h315q89 0 158.5 -30.5t111.5 -95t42 -154.5 q0 -68 -20.5 -120.5t-57 -85.5t-80.5 -52t-98 -28q50 -28 94.5 -73.5t71.5 -91.5l206 -322h-121l-177 292q-44 74 -112 123t-113 49h-120v-464h-100zM770 749h156q71 0 131.5 25t100 78.5t39.5 126.5q0 90 -63.5 143.5t-174.5 53.5h-189v-427z" />
<glyph unicode="&#xbc;" horiz-adv-x="2037" d="M130 1528v82q51 22 126 81q31 22 54 49h95v-797h-98v667q-104 -67 -177 -82zM464 0l1064 1776h165l-1065 -1776h-164zM1410 253v83l363 519h96v-519h101v-83h-101v-194h-96v194h-363zM1516 336h257v375z" />
<glyph unicode="&#xbd;" horiz-adv-x="2075" d="M130 1528v82q51 22 126 81q31 22 54 49h95v-797h-98v667q-104 -67 -177 -82zM464 0l1064 1776h165l-1065 -1776h-164zM1475 59v76q0 40 20.5 80.5t54.5 75.5t74.5 71l81 72t74 71.5t54.5 76t21 79.5q0 141 -141 141q-57 0 -114 -17.5t-92 -52.5v82q70 70 206 70 q106 0 172.5 -56.5t66.5 -157.5q0 -49 -20 -96.5t-51.5 -86.5t-70 -76t-78 -71.5t-73 -66.5t-57 -66t-28.5 -66h409v-82h-509z" />
<glyph unicode="&#xbe;" horiz-adv-x="2034" d="M109 991v86q40 -31 83.5 -42t102.5 -11q40 0 73 9t58.5 26t40 45t14.5 64q0 82 -66 121t-223 39v76q67 4 126 17q130 39 130 130q0 73 -33.5 104t-93.5 31q-115 0 -180 -46v79q77 51 180 51q95 0 160 -55t65 -137q0 -158 -163 -207q53 -7 96.5 -32.5t70.5 -68t27 -94.5 q0 -110 -77.5 -171.5t-204.5 -61.5q-98 0 -186 48zM459 0l1066 1776h166l-1066 -1776h-166zM1407 253v83l363 519h96v-519h101v-83h-101v-194h-96v194h-363zM1513 336h257v375z" />
<glyph unicode="&#xe01;" horiz-adv-x="1264" d="M65 973q51 92 121 162q168 162 394 162q83 0 162.5 -14t155 -46.5t132.5 -79t91.5 -117t34.5 -156.5v-707q0 -68 -59 -127q-18 -21 -59 -50h-59v825q0 77 -25 136.5t-64 94.5t-93.5 57t-106.5 30t-110 8q-141 0 -253 -90q-52 -41 -85 -88l177 -148q-17 -21 -30 -52 q-29 -77 -29 -183v-590h-177v590q0 84 29 173q14 38 30 62q-17 14 -47 39.5t-42 35.5q-88 71 -88 73z" />
<glyph unicode="&#xe02;" horiz-adv-x="1058" d="M65 1120v149h177q136 0 215.5 -68.5t79.5 -198.5q0 -118 -118 -236q-89 -89 -89 -235v-118q0 -49 5 -88.5t19.5 -79.5t38.5 -66.5t64.5 -43.5t94.5 -17q51 0 90.5 18.5t63.5 48t40 69.5t21.5 78.5t5.5 80.5v856h176v-856q0 -74 -11.5 -136t-40 -119t-73 -96t-114 -62 t-159 -23t-159 23t-114 62t-73.5 96t-40.5 119t-11.5 136v118q0 30 2.5 57.5t6 49t12 45.5t13 38.5t17.5 35.5t17.5 29.5t20.5 28.5t19.5 24l21 24t18.5 21q59 85 59 118q0 51 -27.5 84.5t-90.5 33.5h-177z" />
<glyph unicode="&#xe03;" horiz-adv-x="1058" d="M65 1123v146q14 0 30 -7t26 -14t26 -20q4 -3 6 -4l44 -45q31 31 48 45q2 1 5 3q22 14 34.5 20.5t34 14t41.5 7.5q91 0 148.5 -63.5t57.5 -173.5q0 -42 -9 -76.5t-29.5 -65t-35.5 -47.5t-44 -47q-118 -118 -118 -236v-147q0 -49 5 -88.5t19.5 -79.5t38.5 -66.5t64.5 -43.5 t94.5 -17q50 0 90 19.5t64 50t40 72t21.5 81t5.5 81.5v847h176v-836q0 -80 -11.5 -146t-40 -124.5t-73 -99t-114 -63.5t-158.5 -23q-90 0 -159.5 23t-114 62t-73.5 96t-40.5 119t-11.5 136v147q0 58 18 116t51 110t79 98q6 7 21 19t24.5 22t20.5 25t16.5 36t5.5 46 q0 42 -26 65t-62 23q-27 0 -76 -43q-8 -7 -21.5 -22t-20.5 -23q-23 29 -39 45q-46 46 -79 46z" />
<glyph unicode="&#xe04;" horiz-adv-x="1278" d="M109 0v884q0 78 30 145.5t81 116t118.5 83.5t144 51.5t157 16.5t157 -16.5t144.5 -51.5t119 -83.5t81 -116t30 -145.5v-884h-177v884q0 52 -20 96t-54 75t-79.5 53t-96.5 32.5t-105 10.5q-67 0 -129.5 -17.5t-112.5 -49.5t-80 -84t-30 -116v-353q40 52 90 88 q118 89 234 89v-177q-111 0 -234 -75q-39 -22 -90 -73v-383h-178z" />
<glyph unicode="&#xe05;" horiz-adv-x="1278" d="M109 0v884q0 77 27.5 151.5t73.5 132.5t113 93.5t141 35.5q53 0 121 -73q17 -17 54 -73q35 51 57 73q67 73 120 73q74 0 141 -35.5t113 -93.5t73.5 -132.5t27.5 -151.5v-884h-177v884q0 30 -5.5 61t-15 60.5t-25 56t-34.5 46.5t-44.5 31.5t-53.5 11.5q-40 0 -112 -90 q-52 -67 -65 -88q-5 8 -67 88q-3 4 -9 10q-23 27 -35.5 40.5t-31 26.5t-32.5 13q-57 0 -99 -43t-60 -102t-18 -122v-353q40 52 90 88q118 89 234 89v-177q-111 0 -234 -75q-39 -22 -90 -73v-383h-178z" />
<glyph unicode="&#xe06;" horiz-adv-x="1294" d="M65 1123v146q30 0 88 -45l44 -45q31 31 48 45q2 1 5 3q22 14 34.5 20.5t34 14t41.5 7.5q91 0 148.5 -63.5t57.5 -173.5q0 -54 -13 -99t-34 -76t-46 -58.5t-50.5 -52t-46 -50.5t-33.5 -60.5t-13 -75.5v-236q54 -55 101 -88q123 -89 253 -89q173 0 248.5 86.5t75.5 267.5 v768h177v-856q0 -61 -16.5 -123t-51.5 -118t-83 -99.5t-115.5 -69.5t-145.5 -26q-189 0 -334 99q-66 43 -109 101v-177h-177v577q0 56 13 100.5t33.5 74t46 54.5t50.5 47.5t46 46t34 57.5t13 75q0 42 -26 65t-62 23q-27 0 -76 -43q-8 -7 -21.5 -22t-20.5 -23q-16 16 -39 45 q-15 15 -24 23t-24.5 15.5t-30.5 7.5z" />
<glyph unicode="&#xe07;" horiz-adv-x="1072" d="M65 855h177l177 -708q78 0 152.5 35t132.5 97t93 154.5t35 200.5q0 107 -36 199.5t-97 154.5t-141.5 97t-168.5 35v149q132 0 246 -46t196.5 -128t129.5 -201t47 -260q0 -112 -33.5 -213t-91 -176.5t-132 -131.5t-160 -84.5t-172.5 -28.5h-148z" />
<glyph unicode="&#xe08;" horiz-adv-x="1219" d="M65 1032q30 75 92 133q138 132 380 132q113 0 212 -33t173 -92t127 -138t80 -173.5t27 -196.5q0 -111 -24 -211t-71.5 -182.5t-114 -143t-156.5 -94t-194 -33.5h-148l-118 472q-3 7 -5 12t-6.5 8.5t-6 5t-8.5 2.5t-8.5 1h-12h-12.5h-59v148h118q65 0 97.5 -21t50.5 -68 l118 -413q63 0 118.5 21t96.5 57.5t73.5 86t53 107.5t31 119.5t10.5 125.5q0 82 -18 153.5t-50.5 124t-75 93t-92.5 65.5t-101.5 38t-104.5 13q-186 0 -318 -133q-62 -62 -95 -134z" />
<glyph unicode="&#xe09;" horiz-adv-x="1264" d="M65 560v148h118q86 0 131.5 -57.5t45.5 -155.5v-82q0 -48 3 -81.5t12 -65.5t25.5 -52.5t42.5 -36.5t64 -23t89 -7q127 0 268 89q61 38 115 88v442q0 182 -89.5 283.5t-264.5 101.5q-148 0 -295 -90q-62 -35 -118 -88l-59 147q51 51 125 90q156 87 347 87 q133 0 235.5 -36.5t166.5 -103.5t96.5 -157.5t32.5 -203.5v-796h-177v177q-52 -56 -121 -101q-156 -99 -321 -99q-174 0 -264 115.5t-90 320.5v59q0 18 -1 29t-3.5 27t-10.5 24t-21 8h-82z" />
<glyph unicode="&#xe0a;" horiz-adv-x="1131" d="M65 1120v149h177q136 0 215.5 -68.5t79.5 -198.5q0 -118 -118 -236q-89 -89 -89 -235v-151q0 -36 3.5 -65.5t13 -61t28 -54.5t46 -42t70 -29t97.5 -10q54 0 100.5 23t77.5 59.5t53 81.5t32 89t10 83q0 106 -28.5 192t-90 140.5t-146.5 54.5v147q65 0 120.5 44t93 118 t59 173.5t21.5 210.5h177q0 -103 -15.5 -192.5t-38.5 -149.5t-55 -110.5t-59 -78.5t-58 -50t-44 -28.5t-24 -10.5q1 0 3 -1q10 -4 18 -8t27.5 -15.5t36.5 -24.5t40 -35t41.5 -46.5t37.5 -59.5t32 -74t21 -90t8 -106q0 -51 -6 -98.5t-21 -96t-38.5 -89.5t-59 -77t-81.5 -61.5 t-108.5 -40t-135.5 -14.5q-104 0 -181.5 22t-125.5 58t-77 91t-40 113t-11 131v139q0 30 2.5 57.5t6 49t12 45.5t13 38.5t17.5 35.5t17.5 29.5t20.5 28.5t19.5 24l21 24t18.5 21q59 85 59 118q0 51 -27.5 84.5t-90.5 33.5h-177z" />
<glyph unicode="&#xe0b;" horiz-adv-x="1131" d="M65 1123v146q14 0 30 -7t26 -14t26 -20q4 -3 6 -4l44 -45q31 31 48 45q2 1 5 3q22 14 34.5 20.5t34 14t41.5 7.5q91 0 148.5 -63.5t57.5 -173.5q0 -42 -9 -76.5t-29.5 -65t-35.5 -47.5t-44 -47q-118 -118 -118 -236v-180q0 -36 3.5 -65.5t13 -61t28 -54.5t46 -42t70 -29 t97.5 -10q54 0 100.5 23t77.5 59.5t53 81.5t32 89t10 83q0 106 -28.5 192t-90 140.5t-146.5 54.5v147q65 0 120.5 44t93 118t59 173.5t21.5 210.5h177q0 -103 -15.5 -192.5t-38.5 -149.5t-55 -110.5t-59 -78.5t-58 -50t-44 -28.5t-24 -10.5q1 0 3 -1q10 -4 18 -8t27.5 -15.5 t36.5 -24.5t40 -35t41.5 -46.5t37.5 -59.5t32 -74t21 -90t8 -106q0 -51 -6 -98.5t-21 -96t-38.5 -89.5t-59 -77t-81.5 -61.5t-108.5 -40t-135.5 -14.5q-104 0 -181.5 22t-125.5 58t-77 91t-40 113t-11 131v168q0 58 18 116t51 110t79 98q6 7 21 19t24.5 22t20.5 25t16.5 36 t5.5 46q0 42 -26 65t-62 23q-27 0 -76 -43q-8 -7 -21.5 -22t-20.5 -23q-23 29 -39 45q-46 46 -79 46z" />
<glyph unicode="&#xe0c;" horiz-adv-x="2031" d="M65 973q51 92 121 162q168 162 394 162q83 0 162.5 -14t155 -46.5t132.5 -79t91.5 -117t34.5 -156.5v-560q33 -47 85 -88q113 -89 239 -89q51 0 89.5 7.5t66.5 21t47.5 37t31.5 50t19 65.5t9 78.5t2 94.5v768h177v-856q0 -64 -10.5 -123.5t-36.5 -117.5t-65 -100.5 t-101 -68.5t-139 -26q-187 0 -320 99q-60 45 -94 101v-177h-177v825q0 77 -25 136.5t-64 94.5t-93.5 57t-106.5 30t-110 8q-141 0 -253 -90q-52 -41 -85 -88l177 -148q-17 -21 -30 -52q-29 -77 -29 -183v-384v-11.5v-11.5t0.5 -9.5t1.5 -9t3 -6.5t5 -5.5t8 -3.5t11 -2h89 v-147h-118q-91 0 -134 48t-43 158v384q0 84 29 173q14 38 30 62q-17 14 -47 39.5t-42 35.5q-88 71 -88 73z" />
<glyph unicode="&#xe0d;" horiz-adv-x="2031" d="M65 973q51 92 121 162q168 162 394 162q83 0 162.5 -14t155 -46.5t132.5 -79t91.5 -117t34.5 -156.5v-462q0 -68 14 -118t44 -86t79.5 -53.5t119.5 -17.5q135 0 247 89q53 41 85 88v945h177v-1148q0 -71 -22 -138t-59.5 -121t-88 -99.5t-107 -76t-116.5 -47t-116 -16.5 q-146 0 -274 73q-45 24 -101 74l59 148q49 -54 82 -75q106 -73 234 -73q144 0 238 106.5t94 286.5v14q-38 -58 -96 -101q-134 -99 -287 -99q-87 0 -153.5 22t-110 61t-70.5 97.5t-38 125.5t-11 150v392q0 77 -25 136.5t-64 94.5t-93.5 57t-106.5 30t-110 8q-141 0 -253 -90 q-52 -41 -85 -88l177 -148q-17 -21 -30 -52q-29 -77 -29 -183v-384v-11.5v-11.5t0.5 -9.5t1.5 -9t3 -6.5t5 -5.5t8 -3.5t11 -2h89v-147h-118q-91 0 -134 48t-43 158v384q0 84 29 173q14 38 30 62q-17 14 -47 39.5t-42 35.5q-88 71 -88 73z" />
<glyph unicode="&#xe0e;" horiz-adv-x="1264" d="M65 0v147h88q20 2 25 13.5t5 38.5v7v384q0 84 29 173q14 38 30 62q-17 14 -47 39.5t-42 35.5q-88 71 -88 73q51 92 121 162q168 162 394 162q83 0 162.5 -14t155 -46.5t132.5 -79t91.5 -117t34.5 -156.5v-1081q0 -25 -1.5 -46t-8.5 -52.5t-19.5 -56.5t-36 -52.5 t-55.5 -46t-81 -30t-110 -11.5q-122 0 -233 73q-50 27 -95 73q-72 -55 -108 -73q-134 -73 -313 -73v146q177 0 313 75q36 18 108 74q7 -6 23.5 -19t26 -20.5t23 -17.5t24.5 -17q109 -75 203 -75q93 0 128 41.5t35 136.5v993q0 77 -25 136.5t-64 94.5t-93.5 57t-106.5 30 t-110 8q-141 0 -253 -90q-52 -41 -85 -88l177 -148q-17 -21 -30 -52q-29 -77 -29 -183v-384q0 -110 -43 -158t-134 -48h-118z" />
<glyph unicode="&#xe0f;" horiz-adv-x="1264" d="M65 0v147h88q20 2 25 13.5t5 38.5v7v384q0 84 29 173q14 38 30 62q-17 14 -47 39.5t-42 35.5q-88 71 -88 73q51 92 121 162q168 162 394 162q83 0 162.5 -14t155 -46.5t132.5 -79t91.5 -117t34.5 -156.5v-1052v-34t-3 -41t-7.5 -47.5t-15 -47.5t-24.5 -47.5t-37 -41 t-51.5 -35t-68.5 -22t-88 -8.5q-81 0 -165 73q-27 21 -74 73l-104 -146l-110 146q-70 -54 -104 -73q-116 -71 -209 -71v144q95 0 209 75q34 20 104 74l110 -149l104 149q3 -6 8 -13t17 -22.5t24.5 -29.5t31 -29.5t38 -27t43.5 -19.5t48 -8q43 0 74 14.5t46 38.5t21 48t6 51 v1019q0 77 -25 136.5t-64 94.5t-93.5 57t-106.5 30t-110 8q-141 0 -253 -90q-52 -41 -85 -88l177 -148q-17 -21 -30 -52q-29 -77 -29 -183v-384q0 -110 -43 -158t-134 -48h-118z" />
<glyph unicode="&#xe10;" horiz-adv-x="1219" d="M65 1032q30 75 92 133q138 132 380 132q118 0 236 -41q35 9 68 24.5t65.5 38.5t52.5 56t20 71h177q0 -56 -22.5 -103.5t-60 -79t-78 -52t-83.5 -32.5q117 -88 180.5 -223t63.5 -292q0 -111 -24 -211t-71.5 -182.5t-114 -143t-156.5 -94t-194 -33.5h-148l-118 472 q-3 7 -5 12t-6.5 8.5t-6 5t-8.5 2.5t-8.5 1h-12h-12.5h-59v148h118q65 0 97.5 -21t50.5 -68l118 -413q63 0 118.5 21t96.5 57.5t73.5 86t53 107.5t31 119.5t10.5 125.5q0 82 -18 153.5t-50.5 124t-75 93t-92.5 65.5t-101.5 38t-104.5 13q-186 0 -318 -133q-62 -62 -95 -134z M95 -467q132 0 223 75q34 27 71 74l103 -149l104 149q0 -4 10 -19t29.5 -37t44 -42.5t57.5 -35.5t65 -15q34 0 58 10.5t35 23t17.5 32t7 29.5t0.5 24v148h177v-148q0 -14 -0.5 -26t-5.5 -41t-14.5 -52t-29 -52t-46.5 -48.5t-70.5 -32.5t-98.5 -13q-109 0 -183 73 q-28 28 -53 73l-104 -146l-103 146q-37 -47 -71 -73q-90 -73 -223 -73v146z" />
<glyph unicode="&#xe11;" horiz-adv-x="1294" d="M65 1153v144q30 0 88 -44l44 -43q22 21 48 43q25 15 36 21.5t34.5 14.5t44.5 8q45 0 87 -18.5t72 -60.5t30 -98q31 52 73 90q94 87 210 87q74 0 141 -40t112.5 -103.5t72.5 -142.5t27 -156v-855h-177v766q0 171 -57 262.5t-149 91.5q-62 0 -121.5 -31.5t-105.5 -84 t-86.5 -120t-69 -139t-49 -141t-30.5 -126.5t-10 -95v-47v-336h-177v312q0 119 24 229t59 187t69.5 140.5t59 113t24.5 79.5q0 42 -26 66t-62 24q-25 0 -76 -45q-8 -7 -21.5 -22.5t-20.5 -22.5q-16 16 -39 45q-17 17 -24.5 24t-23.5 15t-31 8z" />
<glyph unicode="&#xe12;" horiz-adv-x="2031" d="M65 649q0 137 20.5 247t55.5 183.5t84.5 123.5t104.5 72t118 22q14 0 32.5 -10.5t31.5 -21.5t36 -33q6 -5 9 -8q22 -22 68 -73q30 38 65 73q73 73 112 73q99 0 181 -54.5t127.5 -143.5t45.5 -190v-585q33 -47 85 -88q113 -89 239 -89q51 0 89.5 7.5t66.5 21t47.5 37 t31.5 50t19 65.5t9 78.5t2 94.5v768h177v-856q0 -64 -10.5 -123.5t-36.5 -117.5t-65 -100.5t-101 -68.5t-139 -26q-187 0 -320 99q-60 45 -94 101v-177h-177v909q0 99 -49 170.5t-128 71.5q-40 0 -112 -90q-52 -67 -65 -88q-5 8 -68 88q-27 32 -39.5 45.5t-33.5 29t-36 15.5 q-28 0 -55.5 -15t-55 -52t-48.5 -92t-34 -143.5t-13 -199.5q0 -91 11 -168.5t35.5 -145.5t61.5 -115.5t92 -74.5t124 -27q56 0 89 14q15 5 29 15v-147q-4 -1 -14 -5.5t-15 -6.5q-27 -11 -89 -11q-119 0 -214.5 51t-158 141.5t-95.5 213t-33 266.5z" />
<glyph unicode="&#xe13;" horiz-adv-x="2031" d="M65 973q51 92 121 162q168 162 394 162q83 0 162.5 -14t155 -46.5t132.5 -79t91.5 -117t34.5 -156.5v-383q0 -55 2.5 -94.5t9 -78.5t18.5 -65.5t31.5 -50t48 -37t67 -21t88.5 -7.5q127 0 239 89q53 41 85 88v945h177v-1269h-177v177q-38 -58 -96 -101q-134 -99 -316 -99 q-77 0 -139 26t-101.5 68.5t-65.5 100.5t-37 117.5t-11 123.5v412q0 77 -25 136.5t-64 94.5t-93.5 57t-106.5 30t-110 8q-141 0 -253 -90q-52 -41 -85 -88l177 -148q-17 -21 -30 -52q-29 -77 -29 -183v-384v-11.5v-11.5t0.5 -9.5t1.5 -9t3 -6.5t5 -5.5t8 -3.5t11 -2h89v-147 h-118q-91 0 -134 48t-43 158v384q0 84 29 173q14 38 30 62q-17 14 -47 39.5t-42 35.5q-88 71 -88 73z" />
<glyph unicode="&#xe14;" horiz-adv-x="1264" d="M65 649q0 137 32.5 248.5t87 184.5t128 122.5t151.5 71t161 21.5q82 0 157.5 -14t144 -46t119 -79.5t80.5 -117.5t30 -156v-884h-177v884q0 64 -30 116t-80.5 84t-113 49.5t-130.5 17.5q-55 0 -108 -18.5t-103 -59t-88 -98t-61 -142t-23 -184.5q0 -91 11 -168.5 t35.5 -145.5t61.5 -115.5t92 -74.5t124 -27q58 0 92 14q9 3 26 15v-147q-4 -1 -13 -5.5l-13 -6.5q-27 -11 -92 -11q-88 0 -165.5 30t-138.5 88t-105.5 139t-68 187t-23.5 228z" />
<glyph unicode="&#xe15;" horiz-adv-x="1264" d="M65 649q0 137 20.5 247t55.5 183.5t84.5 123.5t104.5 72t118 22q53 0 121 -73q21 -22 56 -73q35 51 56 73q68 73 121 73q65 0 130 -32.5t114 -85t79.5 -124.5t30.5 -146v-909h-177v909q0 60 -25.5 116.5t-67 91t-84.5 34.5q-40 0 -112 -90q-52 -67 -65 -88q-5 8 -68 88 q-27 32 -39.5 45.5t-33.5 29t-36 15.5q-26 0 -53 -15t-55 -52t-49.5 -92t-35 -144t-13.5 -199q0 -91 11 -168.5t35.5 -145.5t61.5 -115.5t92 -74.5t124 -27q56 0 89 14q15 5 29 15v-147q-4 -1 -14 -5.5t-15 -6.5q-27 -11 -89 -11q-119 0 -214.5 51t-158 141.5t-95.5 213 t-33 266.5z" />
<glyph unicode="&#xe16;" horiz-adv-x="1264" d="M65 973q51 92 121 162q168 162 394 162q83 0 162.5 -14t155 -46.5t132.5 -79t91.5 -117t34.5 -156.5v-707q0 -68 -59 -127q-18 -21 -59 -50h-59v825q0 77 -25 136.5t-64 94.5t-93.5 57t-106.5 30t-110 8q-141 0 -253 -90q-52 -41 -85 -88l177 -148q-17 -21 -30 -52 q-29 -77 -29 -183v-384v-11.5v-11.5t0.5 -9.5t1.5 -9t3 -6.5t5 -5.5t8 -3.5t11 -2h89v-147h-118q-91 0 -134 48t-43 158v384q0 84 29 173q14 38 30 62q-17 14 -47 39.5t-42 35.5q-88 71 -88 73z" />
<glyph unicode="&#xe17;" horiz-adv-x="1249" d="M109 0v1269h178v-177q36 49 108 102q151 103 334 103q77 0 145 -26t116 -70t83 -101t52 -119.5t17 -125.5v-855h-177v766q0 181 -76 267.5t-250 86.5q-131 0 -253 -88q-36 -25 -99 -89v-943h-178z" />
<glyph unicode="&#xe18;" horiz-adv-x="1249" d="M109 973q0 56 19 103t50.5 80t75.5 58.5t91 41.5t100.5 26t100.5 14t93 4q164 0 326 -59q40 -14 147 -59v-147q-107 46 -147 59q-162 59 -326 59q-34 0 -57 -0.5t-63.5 -4t-68.5 -10t-61 -20t-53.5 -32t-34.5 -47.5t-14 -66q0 -32 10 -56.5t35 -41t47 -27t66.5 -18.5 t72.5 -11l84 -9q70 -6 107.5 -10.5t104 -18t104.5 -31.5t86.5 -51t74.5 -76t44.5 -108t18.5 -146q0 -60 -16.5 -115t-54.5 -106t-95 -88.5t-143.5 -60t-193.5 -22.5q-31 0 -53 0.5t-64 4.5t-73.5 11t-73.5 21t-73 34t-63.5 51.5t-53 70.5t-34 93.5t-13.5 119.5v207h177v-207 q0 -38 6 -70.5t18 -56.5t26 -44t34 -34t38 -24.5t42.5 -17t43 -10.5t42.5 -5.5t39 -2t35 -0.5q146 0 236 73.5t90 177.5q0 42 -8.5 78t-20.5 63t-36 49.5t-44 37.5t-55.5 27.5t-59.5 20t-68 14.5t-68.5 10t-71.5 8q-48 5 -72 8t-67 10t-66.5 13.5t-58 19t-54 27t-43 36 t-35 47.5t-20 60.5t-8.5 74.5z" />
<glyph unicode="&#xe19;" horiz-adv-x="1249" d="M109 413v856h178v-768q0 -181 75 -267.5t249 -86.5q129 0 253 89q46 33 101 88v945h177v-1269h-177v177q-54 -63 -113 -101q-144 -99 -331 -99q-77 0 -145 26t-116 69.5t-82.5 99.5t-51.5 118t-17 123z" />
<glyph unicode="&#xe1a;" horiz-adv-x="1219" d="M109 433v836h178v-847q0 -41 8 -81.5t27.5 -81t48.5 -71.5t73.5 -50.5t98.5 -19.5h124q53 0 98.5 19t76 50.5t52 71.5t31.5 81.5t10 81.5v847h177v-836q0 -69 -16 -134.5t-49.5 -124t-80.5 -102.5t-113.5 -69.5t-144.5 -25.5h-207q-78 0 -143.5 25.5t-110.5 69.5 t-76.5 102.5t-46.5 124t-15 134.5z" />
<glyph unicode="&#xe1b;" horiz-adv-x="1219" d="M109 433v836h178v-847q0 -41 8 -81.5t27.5 -81t48.5 -71.5t73.5 -50.5t98.5 -19.5h124q53 0 98.5 19t76 50.5t52 71.5t31.5 81.5t10 81.5v1230h177v-1219q0 -69 -16 -134.5t-49.5 -124t-80.5 -102.5t-113.5 -69.5t-144.5 -25.5h-207q-78 0 -143.5 25.5t-110.5 69.5 t-76.5 102.5t-46.5 124t-15 134.5z" />
<glyph unicode="&#xe1c;" horiz-adv-x="1474" d="M109 971q0 29 2 55.5t7.5 57t14 56.5t23.5 50.5t34.5 41t48 27t62.5 10.5h124v-149h-82q-65 0 -65 -152q0 -219 70 -467q20 -71 74 -206l250 619h88l251 -619q42 81 75 212q77 296 102 762h177q-33 -511 -150 -939q-54 -191 -115 -330h-118l-265 634l-266 -634h-118 q-61 138 -111 304q-113 371 -113 667z" />
<glyph unicode="&#xe1d;" horiz-adv-x="1474" d="M109 971q0 29 2 55.5t7.5 57t14 56.5t23.5 50.5t34.5 41t48 27t62.5 10.5h124v-149h-82q-65 0 -65 -152q0 -219 70 -467q20 -71 74 -206l250 619h88l251 -619q51 131 89 327q88 442 88 1058h177q0 -694 -132 -1249q-61 -258 -133 -431h-118l-265 634l-266 -634h-118 q-61 138 -111 304q-113 371 -113 667z" />
<glyph unicode="&#xe1e;" horiz-adv-x="1539" d="M20 1269h169l256 -906l272 906h105l270 -906l259 906h168l-360 -1269h-109l-280 956l-278 -956h-109z" />
<glyph unicode="&#xe1f;" horiz-adv-x="1656" d="M20 1269h169l256 -906l272 906h105l270 -906l377 1317h168l-478 -1680h-109l-280 956l-278 -956h-109z" />
<glyph unicode="&#xe20;" horiz-adv-x="1264" d="M65 0v147h88q20 2 25 13.5t5 38.5v7v384q0 84 29 173q14 38 30 62q-17 14 -47 39.5t-42 35.5q-88 71 -88 73q51 92 121 162q168 162 394 162q83 0 162.5 -14t155 -46.5t132.5 -79t91.5 -117t34.5 -156.5v-707q0 -68 -59 -127q-18 -21 -59 -50h-59v825q0 77 -25 136.5 t-64 94.5t-93.5 57t-106.5 30t-110 8q-141 0 -253 -90q-52 -41 -85 -88l177 -148q-17 -21 -30 -52q-29 -77 -29 -183v-384q0 -110 -43 -158t-134 -48h-118z" />
<glyph unicode="&#xe21;" horiz-adv-x="1249" d="M109 0v1269h178v-945q58 -58 99 -88q124 -89 253 -89q174 0 250 86.5t76 267.5v768h177v-856q0 -61 -17 -123t-52 -118t-83 -99.5t-116 -69.5t-145 -26q-190 0 -334 99q-64 42 -108 101v-177h-178z" />
<glyph unicode="&#xe22;" horiz-adv-x="1176" d="M65 369q0 171 147 283q67 50 148 71q-67 11 -132 50q-133 88 -133 229q0 64 19.5 116t50 84.5t70 54.5t78 31t76.5 9q104 0 160 -14q8 -2 17.5 -5.5t17 -5.5t12.5 -3v-149q-6 2 -44 15q-61 16 -133 16q-66 0 -107 -43.5t-41 -105.5q0 -94 91 -150t234 -56v-147 q-71 0 -131.5 -19t-100.5 -49.5t-68.5 -68.5t-41 -74.5t-12.5 -68.5q0 -57 15.5 -100.5t50.5 -78.5t98.5 -53.5t153.5 -18.5q71 0 129 19.5t94.5 50t61.5 71.5t35 81.5t10 81.5v847h177v-836q0 -70 -16.5 -134.5t-55 -124t-96 -102.5t-144.5 -69t-195 -26q-495 0 -495 392z " />
<glyph unicode="&#xe23;" horiz-adv-x="1042" d="M109 88v148q78 -43 116 -59q125 -59 267 -59q72 0 124.5 20t82.5 56t44 79.5t14 95.5q0 54 -22 93t-59.5 62.5t-86 40.5t-102.5 31t-107.5 30.5t-102 43.5t-86 64t-60 98t-22.5 141q0 74 35.5 136.5t93.5 102.5t131.5 62.5t151.5 22.5q161 0 267 -59q45 -21 88 -59v-147 q-43 38 -88 60q-106 59 -267 59q-45 0 -86.5 -11.5t-75 -33t-53 -56t-19.5 -77.5q0 -46 18 -81.5t49 -57.5t72.5 -41t88 -31t96 -29t96 -34t88 -46t72.5 -65.5t49.5 -92.5t18.5 -126q0 -44 -5 -82.5t-18 -79t-34 -73.5t-55.5 -63t-79.5 -50t-109 -32t-142 -12 q-166 0 -280 56q-51 19 -103 55z" />
<glyph unicode="&#xe24;" horiz-adv-x="1264" d="M65 973q51 92 121 162q168 162 394 162q83 0 162.5 -14t155 -46.5t132.5 -79t91.5 -117t34.5 -156.5v-1320q0 -68 -59 -127q-18 -21 -59 -50h-59v1438q0 77 -25 136.5t-64 94.5t-93.5 57t-106.5 30t-110 8q-141 0 -253 -90q-52 -41 -85 -88l177 -148q-17 -21 -30 -52 q-29 -77 -29 -183v-384v-11.5v-11.5t0.5 -9.5t1.5 -9t3 -6.5t5 -5.5t8 -3.5t11 -2h89v-147h-118q-91 0 -134 48t-43 158v384q0 84 29 173q14 38 30 62q-17 14 -47 39.5t-42 35.5q-88 71 -88 73z" />
<glyph unicode="&#xe25;" horiz-adv-x="1146" d="M65 324q0 61 15.5 113t42.5 91t65 70t81.5 51.5t94 34t100.5 19t102 5.5q158 0 248 29q36 14 47 29v78q0 62 -17 115.5t-51 97t-92 69t-135 25.5q-169 0 -307 -133q-64 -60 -106 -134l-58 148q41 79 102 133q144 132 369 132q242 0 357 -126t115 -375v-796h-177v619 q-19 -15 -59 -29q-94 -30 -236 -30q-38 0 -79.5 -7t-85.5 -25t-79 -44t-57.5 -67.5t-22.5 -92.5q0 -53 20 -94t54 -64.5t75 -35.5t87 -12q59 0 107 14q19 4 40 15v-147q-4 -1 -18 -5.5t-22 -6.5q-35 -11 -107 -11q-413 0 -413 347z" />
<glyph unicode="&#xe26;" horiz-adv-x="1264" d="M65 0v147h88q20 2 25 13.5t5 38.5v7v384q0 84 29 173q14 38 30 62q-17 14 -47 39.5t-42 35.5q-88 71 -88 73q51 92 121 162q168 162 394 162q83 0 162.5 -14t155 -46.5t132.5 -79t91.5 -117t34.5 -156.5v-1320q0 -68 -59 -127q-18 -21 -59 -50h-59v1438q0 77 -25 136.5 t-64 94.5t-93.5 57t-106.5 30t-110 8q-141 0 -253 -90q-52 -41 -85 -88l177 -148q-17 -21 -30 -52q-29 -77 -29 -183v-384q0 -110 -43 -158t-134 -48h-118z" />
<glyph unicode="&#xe27;" horiz-adv-x="1131" d="M65 118l59 147q43 -48 88 -73q111 -74 266 -74q70 0 133.5 23.5t114 69t87.5 107.5t57 143t20 173q0 113 -31 205.5t-86.5 154t-130.5 94t-164 32.5q-161 0 -266 -59q-45 -21 -88 -59l-59 149q35 45 85 73q126 73 328 73q121 0 227.5 -44.5t187.5 -127t127.5 -209.5 t46.5 -282q0 -126 -30.5 -232.5t-84.5 -184t-128 -132t-161.5 -81.5t-184.5 -27q-207 0 -328 71q-54 29 -85 70z" />
<glyph unicode="&#xe28;" horiz-adv-x="1278" d="M109 0v884q0 78 30 145.5t81 116t118.5 83.5t144 51.5t156.5 16.5q100 0 189 -25q34 14 60 28.5t51.5 36t40 49t14.5 60.5h177q0 -155 -183 -245q85 -53 134 -134.5t49 -182.5v-884h-177v884q0 52 -20 96t-54 75t-79.5 53t-96.5 32.5t-105 10.5q-67 0 -129.5 -17.5 t-112.5 -49.5t-80 -84t-30 -116v-353q40 52 90 88q118 89 234 89v-177q-111 0 -234 -75q-39 -22 -90 -73v-383h-178z" />
<glyph unicode="&#xe29;" horiz-adv-x="1219" d="M109 433v836h178v-847q0 -41 8 -81.5t27.5 -81t48.5 -71.5t73.5 -50.5t98.5 -19.5h124q53 0 98.5 19t76 50.5t52 71.5t31.5 81.5t10 81.5v197h-265v147h265v500h177v-500h89v-147h-89v-186q0 -69 -16 -134.5t-49.5 -124t-80.5 -102.5t-113.5 -69.5t-144.5 -25.5h-207 q-78 0 -143.5 25.5t-110.5 69.5t-76.5 102.5t-46.5 124t-15 134.5z" />
<glyph unicode="&#xe2a;" horiz-adv-x="1146" d="M65 324q0 61 15.5 113t42.5 91t65 70t81.5 51.5t94 34t100.5 19t102 5.5q158 0 248 29q36 14 47 29v78q0 62 -17 115.5t-51 97t-92 69t-135 25.5q-169 0 -307 -133q-64 -60 -106 -134l-58 148q41 79 102 133q144 132 369 132q83 0 154 -17q141 66 141 166h177 q0 -148 -162 -234q162 -122 162 -416v-796h-177v619q-19 -15 -59 -29q-94 -30 -236 -30q-38 0 -79.5 -7t-85.5 -25t-79 -44t-57.5 -67.5t-22.5 -92.5q0 -53 20 -94t54 -64.5t75 -35.5t87 -12q59 0 107 14q19 4 40 15v-147q-4 -1 -18 -5.5t-22 -6.5q-35 -11 -107 -11 q-413 0 -413 347z" />
<glyph unicode="&#xe2b;" horiz-adv-x="1190" d="M109 0v1269h178v-561l560 561h233l-425 -425q38 -8 73.5 -18.5t80 -30.5t81.5 -45t73.5 -63.5t62 -84.5t41.5 -110t16 -138v-354h-177v312q0 69 -15 128.5t-38.5 102t-56 78t-64.5 57.5t-66.5 38.5t-59.5 24t-46 11.5l-273 -280v-472h-178z" />
<glyph unicode="&#xe2c;" horiz-adv-x="1656" d="M20 1269h169l256 -906l272 906h105l270 -906l203 707q11 31 11 72q0 93 -94 164q-42 33 -92 50q105 29 175 74q174 103 174 250h168q0 -180 -171 -270q-80 -41 -169 -54q39 -16 90 -56q88 -76 88 -168q0 -29 -9 -59l-307 -1073h-109l-280 956l-278 -956h-109z" />
<glyph unicode="&#xe2d;" horiz-adv-x="1249" d="M65 456q0 103 31 148t116 45h266v-148h-191q-45 0 -45 -45q0 -52 11 -98.5t37.5 -91.5t67.5 -77t105.5 -51.5t147.5 -19.5q103 0 180 36.5t124 105.5t70 162t23 212q0 149 -46.5 265.5t-137.5 184t-213 67.5q-191 0 -301 -133q-49 -57 -71 -134h-174q22 116 88 208 q28 41 67 76t94 65t131 47t166 17q78 0 147 -16t123 -45.5t99.5 -69.5t78 -89t57.5 -102.5t40 -111.5t22 -115t7 -114q0 -134 -30 -243.5t-83 -185.5t-125.5 -128t-157 -76t-178.5 -24q-117 0 -216.5 32t-173 91.5t-115 151t-41.5 204.5z" />
<glyph unicode="&#xe2e;" horiz-adv-x="1249" d="M65 456q0 103 31 148t116 45h266v-148h-191q-45 0 -45 -45q0 -52 11 -98.5t37.5 -91.5t67.5 -77t105.5 -51.5t147.5 -19.5q103 0 180 36.5t124 105.5t70 162t23 212q0 149 -46.5 265.5t-137.5 184t-213 67.5q-191 0 -301 -133q-49 -57 -71 -134h-174q22 116 88 208 q28 41 67 76t94 65t131 47t166 17q86 0 171 -23q32 10 61 24t57 34.5t45 50t17 63.5h164q0 -48 -17.5 -89.5t-46 -71t-61.5 -50t-69 -31.5q87 -61 146 -159t83 -200.5t24 -210.5q0 -134 -30 -243.5t-83 -185.5t-125.5 -128t-157 -76t-178.5 -24q-117 0 -216.5 32t-173 91.5 t-115 151t-41.5 204.5z" />
<glyph unicode="&#xe2f;" horiz-adv-x="1146" d="M65 1269h177q18 -68 37.5 -112.5t49.5 -82t73.5 -55t104.5 -17.5q128 0 225 69.5t129 197.5h177v-836q0 -63 -3 -112t-11.5 -96t-22.5 -80.5t-36 -62t-52.5 -46t-72 -27t-94.5 -9.5v147q19 0 29 0.5t23.5 4.5t20 12t15.5 22t12.5 35.5t7.5 52.5t5.5 72.5t1.5 95.5v619 q-35 -58 -85 -102q-121 -104 -269 -104q-183 0 -295.5 108t-146.5 306z" />
<glyph unicode="&#xe30;" horiz-adv-x="748" d="M109 413v88h165v-109q0 -40 24.5 -55.5t98.5 -15.5h242l-59 -144h-223q-129 0 -188.5 52.5t-59.5 183.5zM109 1061v90h165v-110q0 -40 24.5 -55t98.5 -15h242l-59 -146h-223q-129 0 -188.5 52.5t-59.5 183.5z" />
<glyph unicode="&#xe31;" d="M-717 1725v89h165v-109q0 -40 25 -55.5t99 -15.5h516l-59 -145h-498q-129 0 -188.5 52.5t-59.5 183.5z" />
<glyph unicode="&#xe32;" horiz-adv-x="999" d="M65 1032v147q41 37 85 59q100 59 239 59q70 0 139.5 -17t135 -55t115.5 -92t80.5 -133.5t30.5 -174.5v-825h-176v796q0 90 -29 159.5t-79 111t-112 63t-134 21.5q-126 0 -216 -59q-42 -22 -79 -60z" />
<glyph unicode="&#xe33;" horiz-adv-x="999" d="M-575 1725q0 48 19 91.5t50 75.5t74.5 50.5t91.5 18.5q97 0 166.5 -69.5t69.5 -166.5t-69.5 -166.5t-166.5 -69.5q-64 0 -118 32t-85.5 86t-31.5 118zM-428 1725q0 -38 25 -63t63 -25q24 0 44.5 11.5t32.5 32t12 44.5q0 36 -26.5 62.5t-62.5 26.5q-37 0 -62.5 -26.5 t-25.5 -62.5zM65 1032v147q41 37 85 59q100 59 239 59q70 0 139.5 -17t135 -55t115.5 -92t80.5 -133.5t30.5 -174.5v-825h-176v796q0 90 -29 159.5t-79 111t-112 63t-134 21.5q-126 0 -216 -59q-42 -22 -79 -60z" />
<glyph unicode="&#xe34;" d="M-994 1489l59 148h767v-148h-826z" />
<glyph unicode="&#xe35;" d="M-994 1489l59 148h589v177h178v-325h-826z" />
<glyph unicode="&#xe36;" d="M-994 1489l59 148h389q-6 41 -6 43q0 80 56 136t136 56t136 -56t56 -135.5t-56 -135.5t-136 -56h-634zM-405 1680.5q0 -17.5 14 -30.5t31 -13t31 13t14 30q0 9 -4 17t-10 14.5t-14.5 10t-16.5 3.5q-17 0 -31 -13.5t-14 -31z" />
<glyph unicode="&#xe37;" d="M-994 1489l59 148h355v177h147v-177h87v177h178v-325h-826z" />
<glyph unicode="&#xe38;" d="M-428 -216h124q95 0 147.5 -55t52.5 -151v-206h-177v195q0 28 -18 49t-47 21h-82v147z" />
<glyph unicode="&#xe39;" d="M-782 -216h124q94 0 148 -55t54 -151q0 -88 87.5 -88t87.5 88v206h177v-217q0 -31 -4 -56.5t-14 -52t-29 -46.5t-47.5 -36.5t-71.5 -25t-99 -8.5q-66 0 -114.5 13t-77 33.5t-45.5 51t-22.5 60t-5.5 67.5q0 28 -18 49t-46 21h-84v147z" />
<glyph unicode="&#xe3a;" d="M-281 -216h177v-176h-177v176z" />
<glyph unicode="&#xe3f;" horiz-adv-x="1131" d="M109 0v1446h283v247h168v-252q174 -8 274.5 -100.5t100.5 -234.5q0 -117 -69 -212t-185 -128q97 -17 173 -61.5t123 -120t47 -171.5q0 -115 -59 -208t-165 -147t-240 -58v-242h-168v242h-283zM287 147h223q146 0 241.5 76.5t95.5 189.5q0 132 -96.5 206t-272.5 74h-191 v-546zM287 841h172q139 0 218.5 60.5t79.5 175.5q0 106 -70 163t-209 57h-191v-456z" />
<glyph unicode="&#xe40;" horiz-adv-x="468" d="M109 206v1063h178v-1063q0 -3 -0.5 -11.5t-0.5 -11.5t0.5 -9.5t2 -9t3.5 -6.5t5 -5.5t7.5 -3.5t10.5 -2h90v-147h-118q-91 0 -134.5 48t-43.5 158z" />
<glyph unicode="&#xe41;" horiz-adv-x="969" d="M109 206v1063h178v-1063q0 -3 -0.5 -11.5t-0.5 -11.5t0.5 -9.5t2 -9t3.5 -6.5t5 -5.5t7.5 -3.5t10.5 -2h90v-147h-118q-91 0 -134.5 48t-43.5 158zM611 206v1063h177v-1063q0 -3 -0.5 -11.5t0 -11.5t1 -9.5t1.5 -9t3 -6.5t5 -5.5t7.5 -3.5t10.5 -2h90v-147h-118 q-91 0 -134 48t-43 158z" />
<glyph unicode="&#xe42;" horiz-adv-x="624" d="M206 1660q0 134 96.5 195.5t313.5 61.5h268v-147h-226q-107 0 -165 -11t-84 -36t-26 -71q0 -33 9 -80.5t20.5 -92.5t20.5 -121.5t9 -160.5v-991v-7q0 -19 1 -27t8 -16t21 -9h88v-147h-118q-91 0 -134 48t-43 158v991q0 84 -9 161t-20.5 123t-20.5 95t-9 84z" />
<glyph unicode="&#xe43;" horiz-adv-x="802" d="M0 1799q25 44 62 73q93 75 230 75q185 0 285.5 -95t100.5 -287q0 -58 -9 -107.5t-20 -82.5t-20.5 -99t-9.5 -153v-917v-7q0 -19 1 -27t8 -16t21 -9h88v-147h-118q-90 0 -133.5 48t-43.5 158v917q0 79 9.5 150t20.5 113.5t20 91t9 87.5q0 126 -56.5 180t-160.5 54 q-98 0 -172 -74q-28 -28 -53 -73z" />
<glyph unicode="&#xe44;" horiz-adv-x="802" d="M0 1770v147q19 0 38.5 -3t35.5 -7.5t32 -12t29 -14.5t26 -16t22 -16t18.5 -15.5t14.5 -13.5l11 -11t6 -7q20 27 54 57q64 59 155 59q37 0 65.5 -12.5t47 -29.5t31.5 -52.5t19.5 -62.5t9.5 -79t3.5 -83.5t0.5 -94.5v-1297v-7q0 -19 1 -27t8 -16t21 -9h88v-147h-118 q-90 0 -133.5 48t-43.5 158v1297q0 11 1 39q3 36 1 80t-7.5 81t-25 57t-51.5 10q-40 -14 -79 -84q-10 -17 -30 -65q-40 51 -71 75q-91 74 -180 74z" />
<glyph unicode="&#xe45;" horiz-adv-x="999" d="M65 1032v147q41 37 85 59q100 59 239 59q70 0 139.5 -17t135 -55t115.5 -92t80.5 -133.5t30.5 -174.5v-1261q0 -69 -58 -127q-18 -21 -59 -50h-59v1409q0 90 -29 159.5t-79 111t-112 63t-134 21.5q-126 0 -216 -59q-42 -22 -79 -60z" />
<glyph unicode="&#xe46;" horiz-adv-x="1176" d="M65 943q0 104 36.5 184.5t104 125t154.5 44.5q16 0 32.5 -5.5t36 -18t32 -22t34.5 -27.5q24 -21 71 -73q47 52 70 73q30 23 47.5 36t43 25t46.5 12q74 0 131.5 -30t92 -80.5t52.5 -112.5t18 -131v-1379q0 -68 -59 -127q-18 -21 -59 -50h-59v1497q0 60 -6.5 105.5 t-22.5 83.5t-45.5 58t-72.5 20q-40 0 -112 -90q-52 -67 -65 -88q-6 8 -68 88q-27 32 -39.5 45.5t-33.5 29t-36 15.5q-67 0 -107 -58.5t-40 -149.5q0 -94 45 -158q17 -30 43 -48l-59 -147q-62 19 -103 65q-103 93 -103 288z" />
<glyph unicode="&#xe47;" d="M-968 1696q0 59 20 103.5t49 68.5t68 39t69 19.5t61 4.5h234q108 0 183 45q31 17 54 44v-148q-16 -13 -54 -29q-77 -29 -183 -29h-205q-43 0 -73 -10t-45.5 -28t-22 -37.5t-6.5 -42.5q0 -19 9 -39t30 -35t48 -15q62 0 101 45q17 21 20 44h57q4 -27 17 -44q22 -45 70 -45 q41 0 65.5 30t24.5 59h147q0 -88 -59 -147.5t-147 -59.5q-52 0 -107 30q-32 20 -42 29q-14 -14 -43 -29q-69 -30 -132 -30q-19 0 -37.5 2.5t-39.5 9.5t-39.5 17.5t-35.5 27t-29 37.5t-19.5 50t-7.5 63z" />
<glyph unicode="&#xe48;" d="M-281 1489v325h177v-325h-177z" />
<glyph unicode="&#xe49;" d="M-791 1666v148h206q45 0 81.5 -36.5t36.5 -81.5q0 -25 17.5 -42t41.5 -17h408l-53 -148h-442q-66 0 -106.5 35.5t-40.5 82.5q0 59 -54 59h-95z" />
<glyph unicode="&#xe4a;" d="M-850 1607q0 58 27 105.5t75 74.5t106 27q51 0 99 -30q26 -20 33 -29q14 18 32 29q42 30 101 30q42 0 76.5 -12.5t56 -34t33 -47.5t11.5 -54q0 -7 0.5 -12t2.5 -8t3 -5t5 -3t5 -1h7.5h8.5h168l-53 -148h-156q-39 0 -67.5 10t-43.5 27.5t-21.5 37t-6.5 43.5q0 36 -16 62.5 t-44 26.5q-35 0 -54 -26t-19 -63h-59q0 36 -16.5 62.5t-56.5 26.5q-16 0 -30 -13t-21.5 -33.5t-7.5 -42.5q0 -48 30 -91q23 -23 29 -27h-178q-5 4 -28 27q-31 43 -31 91z" />
<glyph unicode="&#xe4b;" d="M-428 1578v147h147v89h177v-89h143v-147h-143v-89h-177v89h-147z" />
<glyph unicode="&#xe4c;" d="M-554 1489v62q0 112 69.5 187.5t189.5 75.5h154l-59 -148h-53q-60 0 -92 -35t-32 -92v-50h-177z" />
<glyph unicode="&#xe4d;" d="M-575 1725q0 48 19 91.5t50 75.5t74.5 50.5t91.5 18.5q97 0 166.5 -69.5t69.5 -166.5t-69.5 -166.5t-166.5 -69.5q-64 0 -118 32t-85.5 86t-31.5 118zM-428 1725q0 -38 25 -63t63 -25q24 0 44.5 11.5t32.5 32t12 44.5q0 36 -26.5 62.5t-62.5 26.5q-37 0 -62.5 -26.5 t-25.5 -62.5z" />
<glyph unicode="&#xe4e;" d="M-675 1601q0 98 69.5 158.5t174.5 60.5q0 96 70 141t220 45v-104q-33 0 -49 -0.5t-42 -4t-38.5 -11.5t-29.5 -22.5t-24.5 -36.5t-13 -54.5t-5.5 -76.5q-167 0 -167 -112q0 -46 20 -71l23 -24h-175q-33 64 -33 112z" />
<glyph unicode="&#xe4f;" horiz-adv-x="1337" d="M109 531q0 115 44.5 219t119.5 179t178.5 119t218.5 44t218.5 -44t178.5 -119t119 -178.5t44 -219.5q0 -114 -44 -216.5t-119 -176.5t-178.5 -117.5t-218.5 -43.5t-218.5 43.5t-178.5 117.5t-119.5 176.5t-44.5 216.5zM274 531q0 -79 31.5 -152.5t85 -126.5t126.5 -85 t153 -32q108 0 199 54t143 145t52 197q0 110 -52 200.5t-142.5 142.5t-199.5 52q-107 0 -198 -52t-144.5 -143t-53.5 -200zM402 531q0 113 77.5 190.5t190 77.5t190 -77.5t77.5 -190t-77.5 -191t-189.5 -78.5q-74 0 -135.5 36t-97 98t-35.5 135z" />
<glyph unicode="&#xe50;" horiz-adv-x="1252" d="M65 531q0 114 44 218t119 179t179 119.5t218 44.5t218 -44.5t179.5 -119.5t120.5 -179t45 -218t-44.5 -216.5t-120.5 -176.5t-180 -117.5t-218 -43.5t-217.5 43.5t-179 117.5t-119.5 176.5t-44 216.5zM242 531q0 -112 51 -207t139.5 -150.5t192.5 -55.5q78 0 149.5 33 t123 88.5t82.5 132t31 159.5q0 112 -52 207t-141 150t-193 55q-78 0 -149 -32.5t-122 -87.5t-81.5 -131.5t-30.5 -160.5z" />
<glyph unicode="&#xe51;" horiz-adv-x="1249" d="M65 636q0 86 40 167.5t110 145.5t173 103.5t220 39.5q92 0 177.5 -24.5t158 -74.5t126.5 -121t84.5 -170t30.5 -215q0 -103 -36 -197t-100 -166.5t-147.5 -126t-182.5 -81.5t-201 -28q-31 0 -51 3l40 138h11q56 0 114 15.5t112 43.5t102.5 69.5t84 91t56.5 111.5t21 127 q0 90 -20.5 165.5t-57 129t-87 90t-110 54t-125.5 17.5q-81 0 -147 -23.5t-105.5 -58t-66 -78t-37 -80t-10.5 -67.5q0 -97 54.5 -175t119.5 -78q121 0 121 115v56h177v-62q0 -34 -7.5 -67t-28.5 -68.5t-53.5 -61t-86 -42.5t-122.5 -17q-63 0 -125 27t-112.5 76.5t-82 127 t-31.5 169.5z" />
<glyph unicode="&#xe52;" horiz-adv-x="1559" d="M20 1534v144h45q83 0 149 -28.5t106 -72t66.5 -102t36.5 -114t10 -111.5v-887q0 -56 18 -101t45 -71t62 -43t66 -23.5t60 -6.5h386q35 0 67 6.5t66 23.5t58.5 43.5t40.5 70.5t16 101v327q0 41 -9 83.5t-27 81.5t-51 63.5t-75 24.5q-54 0 -95 -59q-8 -10 -21.5 -31 t-18.5 -28q-23 40 -39 59q-41 59 -92 59q-59 0 -96 -38t-37 -91q0 -195 237 -195v-147q-37 0 -71.5 3.5t-77 12.5t-79 24.5t-71.5 42t-59.5 61t-40 85.5t-15.5 113q0 32 9.5 68.5t30.5 74t51 67t76 49t100 19.5q64 0 132 -42q24 -16 45 -42q22 28 43 42q69 42 134 42 q61 0 111.5 -24.5t83.5 -64t56 -92t33 -108t10 -113.5v-318q0 -85 -22.5 -153.5t-59 -112.5t-87 -74t-103.5 -42.5t-111 -12.5h-470q-54 0 -106 12.5t-103.5 42.5t-90 74t-62.5 112.5t-24 153.5v887q0 42 -4.5 77t-19.5 73.5t-39.5 64.5t-68.5 43t-104 17z" />
<glyph unicode="&#xe53;" horiz-adv-x="1545" d="M65 537q0 271 100 413t280 142q143 0 253 -133q49 -57 75 -134q28 80 74 134q98 133 250 133q85 0 155 -34.5t121 -102t79 -174t28 -244.5q0 -208 -73 -393q-22 -61 -74 -144h-177q52 83 74 144q73 185 73 393q0 113 -26.5 204t-81 146.5t-128.5 55.5q-92 0 -156 -115.5 t-64 -326.5h-149q0 196 -65 319t-155 123q-46 0 -87 -24t-75 -71.5t-54 -127.5t-20 -183q0 -83 19 -158t55.5 -133.5t94 -93t129.5 -34.5q44 0 82 14q19 5 33 15v-147q-1 0 -13.5 -5t-19.5 -7q-27 -11 -85 -11q-92 0 -177 40.5t-150.5 111.5t-105 177.5t-39.5 230.5z" />
<glyph unicode="&#xe54;" horiz-adv-x="1500" d="M65 516q0 81 17 159.5t52 148t83.5 122.5t116.5 84t147 31h495q41 0 73 5t64.5 20t54 39.5t34.5 66.5t13 100v388h177v-380q0 -85 -19.5 -152t-53 -110t-82 -71.5t-102.5 -40.5t-117 -12h-537q-60 0 -107 -35t-75 -93.5t-42.5 -127.5t-14.5 -142t14.5 -138t42.5 -117.5 t75 -83t107 -30.5h524q-79 41 -150 106q-147 142 -147 324h182q0 -59 16.5 -117t44 -104.5t63.5 -86t75.5 -66t79.5 -41.5t75 -15h148v-147h-911q-79 0 -147 28t-117 76.5t-83.5 114t-51.5 141t-17 156.5z" />
<glyph unicode="&#xe55;" horiz-adv-x="1500" d="M65 516q0 81 17 159.5t52 148t83.5 122.5t116.5 84t147 31h132q-17 39 -17 90q0 97 69.5 166.5t166.5 69.5t166 -69.5t69 -166.5q0 -39 -14 -87q36 8 63.5 22.5t51 40t35.5 67t12 98.5v388h177v-380q0 -85 -19.5 -152t-53 -110t-82 -71.5t-102.5 -40.5t-117 -12h-537 q-60 0 -107 -35t-75 -93.5t-42.5 -127.5t-14.5 -142t14.5 -138t42.5 -117.5t75 -83t107 -30.5h524q-79 41 -150 106q-147 142 -147 324h182q0 -59 16.5 -117t44 -104.5t63.5 -86t75.5 -66t79.5 -41.5t75 -15h148v-147h-911q-79 0 -147 28t-117 76.5t-83.5 114t-51.5 141 t-17 156.5zM743 1151q0 -38 26 -64t63 -26h9q35 7 57 31t22 59t-26 61t-62 26q-37 0 -63 -25.5t-26 -61.5z" />
<glyph unicode="&#xe56;" horiz-adv-x="1706" d="M20 1534v146h62q73 0 136 -22t108.5 -52t88 -90.5t68.5 -106.5t57.5 -133.5t47 -138.5t44.5 -151q25 -87 38 -131q27 61 85 118q123 119 328 119q130 0 236.5 -41.5t177 -114t108.5 -169t38 -207.5q0 -121 -38 -226.5t-108.5 -185t-177.5 -125.5t-236 -46 q-117 0 -217.5 42.5t-173 120.5t-112.5 184h177q27 -63 83 -111.5t119 -71.5t124 -23q76 0 145.5 32.5t122 89t84 140t31.5 180.5q0 61 -17 118t-50 105t-79 84t-107 56t-130 20q-75 0 -136.5 -25.5t-104 -71.5t-70.5 -102.5t-43 -124.5h-177q-32 121 -48 182.5t-42.5 156.5 t-42.5 142t-41.5 116t-44.5 101.5t-46.5 77t-54 63.5t-60.5 40.5t-71 28.5t-81 7z" />
<glyph unicode="&#xe57;" horiz-adv-x="2001" d="M65 537q0 106 20 194t53.5 148t79 102t95.5 61t103 19q47 0 89.5 -14t73.5 -34t59 -49t44.5 -53t31.5 -52.5t20 -40t9 -22.5q0 4 6 19t19 39t31 51.5t45.5 55t59 50t74.5 36.5t89 14q55 0 105 -18.5t96 -59.5t79.5 -100.5t53.5 -148.5t20 -197q0 -211 -73 -390 q36 3 73 19.5t71.5 45.5t56 78.5t21.5 111.5v890q0 55 10.5 107t37 104.5t67.5 90.5t107 62t149 24h40v-146q-59 0 -103 -13t-69 -33.5t-39.5 -52t-19.5 -62.5t-5 -73v-887q0 -84 -23 -154.5t-61 -117.5t-88.5 -79.5t-103.5 -47t-107 -14.5h-265q52 83 74 144q73 185 73 393 q0 377 -206 377q-24 0 -48 -7t-47.5 -21.5t-44.5 -36t-38.5 -51t-30.5 -64.5t-20 -79.5t-7 -94.5h-118q0 74 -21 141t-55 113t-76 73t-84 27q-206 0 -206 -377q0 -83 19 -158t55.5 -133.5t94 -93t129.5 -34.5q44 0 82 14q19 5 33 15v-147q-1 0 -13.5 -5t-19.5 -7 q-27 -11 -85 -11q-92 0 -177 40.5t-150.5 111.5t-105 177.5t-39.5 230.5z" />
<glyph unicode="&#xe58;" horiz-adv-x="1500" d="M65 537q0 79 19.5 154t61 142.5t99.5 118t140 80t178 29.5h413q41 0 73 5t64.5 20t54 39.5t34.5 66.5t13 100v388h177v-380q0 -85 -19.5 -152t-53 -110t-82 -71.5t-102.5 -40.5t-117 -12h-455q-60 0 -112.5 -22.5t-90 -61t-64.5 -88.5t-40.5 -104.5t-13.5 -109.5 q0 -112 25.5 -203t81 -149t132.5 -58q91 0 153 104q26 38 50 102q31 -60 73 -102q93 -104 237 -104q31 0 60.5 6t59.5 21.5t52 39t35.5 62.5t13.5 89v77h177v-77q0 -92 -29.5 -161.5t-83.5 -112.5t-125.5 -64t-159.5 -21q-138 0 -237 71q-40 28 -73 70q-22 -39 -53 -70 q-76 -71 -183 -71q-53 0 -107 22.5t-103.5 69t-88 111.5t-61.5 157.5t-23 199.5z" />
<glyph unicode="&#xe59;" horiz-adv-x="1824" d="M65 537q0 105 26 196.5t68.5 156t97 111t112 69t112.5 22.5q40 0 75.5 -8t61.5 -19t53.5 -30.5t44 -35t41.5 -40.5q34 105 98.5 162.5t152.5 57.5q48 0 95.5 -21.5t85.5 -52t73.5 -61t73 -52t71.5 -21.5q44 0 74.5 46t44 123.5t13.5 181.5v358h177v-358q0 -78 -8 -146.5 t-29 -134t-54 -112.5t-85 -75.5t-119 -28.5q-64 0 -119 21.5t-92.5 52t-70 61t-66 51.5t-65.5 21q-73 0 -117 -49t-44 -107q0 -24 3 -29l47 -163q15 -45 36.5 -122t68 -246.5t87.5 -315.5h-166l-206 737q-6 23 -15.5 45t-23.5 46.5t-33.5 45.5t-43 38t-54.5 27t-66 10 q-31 0 -63.5 -15t-64 -48.5t-56.5 -80.5t-40 -116.5t-15 -151.5q0 -84 16.5 -157t49 -133t87.5 -94.5t126 -34.5q44 0 78 14q9 3 26 15v-147q-4 -1 -8.5 -3.5t-9 -4.5t-8.5 -4q-27 -11 -78 -11q-88 0 -170.5 40.5t-146 111.5t-101.5 177.5t-38 230.5z" />
<glyph unicode="&#xe5a;" horiz-adv-x="1500" d="M65 1269h177q18 -68 37.5 -112.5t49.5 -82t73.5 -55t104.5 -17.5q128 0 225 69.5t129 197.5h177v-836q0 -63 -3 -112t-11.5 -96t-22.5 -80.5t-36 -62t-52.5 -46t-72 -27t-94.5 -9.5v147q19 0 29 0.5t23.5 4.5t20 12t15.5 22t12.5 35.5t7.5 52.5t5.5 72.5t1.5 95.5v619 q-35 -58 -85 -102q-121 -104 -269 -104q-183 0 -295.5 108t-146.5 306zM1215 0v1269h177v-1269h-177z" />
<glyph unicode="&#xe5b;" horiz-adv-x="2105" d="M109 513q0 118 38 223.5t105 184t167 125t217 46.5q275 0 411 -198q53 -81 76 -198h-170q-16 69 -56 123q-38 54 -103.5 89t-157.5 35q-99 0 -179.5 -58t-125 -156.5t-44.5 -215.5q0 -170 101 -281.5t261 -113.5q123 0 229 74q45 27 81 73l153 -147l115 147l135 -147 l121 147q30 -39 65 -73q73 -74 143 -74q36 0 63 11.5t40.5 30t19.5 35.5t6 33q0 59 -30 108q-16 26 -29 36h177q18 -14 29 -32q29 -46 29 -112q0 -25 -4.5 -52t-21 -64.5t-43.5 -65.5t-78 -48.5t-118 -20.5q-93 0 -180 71q-33 25 -68 70l-121 -141l-135 141l-115 -141 l-153 141q-38 -43 -83 -70q-111 -71 -227 -71q-111 0 -211.5 43t-172.5 115t-114 171t-42 207z" />
<glyph unicode="&#x2000;" horiz-adv-x="1327" />
<glyph unicode="&#x2001;" horiz-adv-x="2654" />
<glyph unicode="&#x2002;" horiz-adv-x="1327" />
<glyph unicode="&#x2003;" horiz-adv-x="2654" />
<glyph unicode="&#x2004;" horiz-adv-x="884" />
<glyph unicode="&#x2005;" horiz-adv-x="663" />
<glyph unicode="&#x2006;" horiz-adv-x="442" />
<glyph unicode="&#x2007;" horiz-adv-x="442" />
<glyph unicode="&#x2008;" horiz-adv-x="331" />
<glyph unicode="&#x2009;" horiz-adv-x="530" />
<glyph unicode="&#x200a;" horiz-adv-x="147" />
<glyph unicode="&#x2010;" horiz-adv-x="792" d="M109 560v148h575v-148h-575z" />
<glyph unicode="&#x2011;" horiz-adv-x="792" d="M109 560v148h575v-148h-575z" />
<glyph unicode="&#x2012;" horiz-adv-x="792" d="M109 560v148h575v-148h-575z" />
<glyph unicode="&#x2013;" horiz-adv-x="1101" d="M109 560v148h885v-148h-885z" />
<glyph unicode="&#x2014;" horiz-adv-x="1663" d="M109 560v148h1445v-148h-1445z" />
<glyph unicode="&#x2018;" horiz-adv-x="394" d="M109 1061v177q0 120 103 228q38 48 103 96h149q-63 -68 -90 -105q-87 -122 -87 -219v-177h-178z" />
<glyph unicode="&#x2019;" horiz-adv-x="394" d="M-62 1061q38 41 85 107q86 120 86 219v175h178v-175q0 -109 -104 -231q-62 -67 -104 -95h-141z" />
<glyph unicode="&#x201c;" horiz-adv-x="718" d="M109 1061v177q0 120 103 228q38 48 103 96h149q-63 -68 -90 -105q-87 -122 -87 -219v-177h-178zM433 1061v177q0 119 104 228q41 51 102 96h149q-63 -68 -90 -105q-87 -122 -87 -219v-177h-178z" />
<glyph unicode="&#x201d;" horiz-adv-x="718" d="M-62 1061q38 41 85 107q86 120 86 219v175h178v-175q0 -109 -104 -231q-62 -67 -104 -95h-141zM256 1061q58 63 90 107q87 122 87 219v175h178v-175q0 -109 -104 -231q-64 -69 -102 -95h-149z" />
<glyph unicode="&#x2022;" horiz-adv-x="754" d="M109 639.5q0 112.5 78 191t190.5 78.5t191 -78.5t78.5 -191t-78.5 -190t-191 -77.5t-190.5 77.5t-78 190z" />
<glyph unicode="&#x2026;" horiz-adv-x="1632" d="M109 0v177h178v-177h-178zM729 0v177h177v-177h-177zM1348 0v177h177v-177h-177z" />
<glyph unicode="&#x202f;" horiz-adv-x="530" />
<glyph unicode="&#x205f;" horiz-adv-x="663" />
<glyph unicode="&#x20ac;" horiz-adv-x="1486" d="M109 487v147h147v74q0 55 3 88h-150v147h175q61 250 246 391t452 141q269 0 395 -59l-59 -147q-55 26 -113 39.5t-102.5 16.5t-120.5 3q-190 0 -325 -102.5t-190 -282.5h586v-147h-617q-3 -33 -3 -88q0 -51 3 -74h558v-147h-530q52 -177 187.5 -273t330.5 -96q55 0 98 5 t83.5 17.5t73 26.5t81.5 39l59 -147q-153 -82 -415 -82q-263 0 -442.5 134.5t-238.5 375.5h-172z" />
<glyph unicode="&#x2122;" horiz-adv-x="1140" d="M109 1395v51h345v-51h-139v-452h-62v452h-144zM521 943v503h81l174 -408l186 408h70v-503h-50v413l-191 -413h-31l-180 413v-413h-59z" />
<glyph unicode="&#xe000;" horiz-adv-x="1061" d="M0 0v1061h1061v-1061h-1061z" />
<glyph horiz-adv-x="948" />
<glyph horiz-adv-x="1219" d="M65 1032q30 75 92 133q138 132 380 132q118 0 236 -41q35 9 68 24.5t65.5 38.5t52.5 56t20 71h177q0 -56 -22.5 -103.5t-60 -79t-78 -52t-83.5 -32.5q117 -88 180.5 -223t63.5 -292q0 -111 -24 -211t-71.5 -182.5t-114 -143t-156.5 -94t-194 -33.5h-148l-118 472 q-3 7 -5 12t-6.5 8.5t-6 5t-8.5 2.5t-8.5 1h-12h-12.5h-59v148h118q65 0 97.5 -21t50.5 -68l118 -413q63 0 118.5 21t96.5 57.5t73.5 86t53 107.5t31 119.5t10.5 125.5q0 82 -18 153.5t-50.5 124t-75 93t-92.5 65.5t-101.5 38t-104.5 13q-186 0 -318 -133q-62 -62 -95 -134z " />
<glyph horiz-adv-x="2031" d="M65 973q51 92 121 162q168 162 394 162q83 0 162.5 -14t155 -46.5t132.5 -79t91.5 -117t34.5 -156.5v-462q0 -30 3 -58t9.5 -59t17.5 -57.5t29 -50.5t41 -41.5t56 -27.5t72 -10h124q45 0 82 13.5t62 37t44 53t29.5 64.5t15 68.5t4.5 67.5v847h177v-836q0 -58 -9 -112.5 t-28 -106.5t-49.5 -94.5t-71 -74.5t-96 -50t-120.5 -18h-236q-65 0 -117.5 17.5t-88 50.5t-61 74.5t-39.5 94.5t-20.5 106t-6.5 113v392q0 77 -25 136.5t-64 94.5t-93.5 57t-106.5 30t-110 8q-141 0 -253 -90q-52 -41 -85 -88l177 -148q-17 -21 -30 -52q-29 -77 -29 -183 v-384v-11.5v-11.5t0.5 -9.5t1.5 -9t3 -6.5t5 -5.5t8 -3.5t11 -2h89v-147h-118q-91 0 -134 48t-43 158v384q0 84 29 173q14 38 30 62q-17 14 -47 39.5t-42 35.5q-88 71 -88 73z" />
<glyph d="M-1056 1696q0 59 20 103.5t48.5 68.5t67.5 39t69 19.5t60 4.5h178q107 0 182 45q31 17 54 44v-148q-16 -13 -54 -29q-77 -29 -182 -29h-147q-43 0 -73 -10t-46 -28t-23 -37.5t-7 -42.5q0 -20 5.5 -39t19.5 -34.5t34 -15.5q57 0 80 45q13 17 13 44h56q4 -27 17 -44 q22 -45 71 -45q21 0 38 9t27.5 23t16 29t5.5 28h149q0 -88 -59.5 -147.5t-148.5 -59.5q-50 0 -105 30q-32 20 -42 29q-12 -16 -28 -29q-49 -30 -118 -30q-21 0 -43 5.5t-46.5 20t-43.5 37t-32 60t-13 84.5z" />
<glyph d="M-585 2124v147h208q44 0 81 -37t37 -81q0 -25 17 -42t42 -17h259l-59 -147h-289q-66 0 -106.5 35.5t-40.5 82.5q0 59 -54 59h-95z" />
<glyph d="M-701 2065q0 89 58.5 147.5t147.5 58.5q54 0 85 -30q15 -16 18 -29q4 15 18 29q30 30 85 30q83 0 130 -43.5t47 -103.5q0 -5 0.5 -9t1 -7t2 -5t2 -4t3 -3t3.5 -1.5t5 -0.5h4.5h5.5h6h138l-59 -147h-121q-75 0 -106.5 33.5t-31.5 84.5q0 36 -16 62t-43 26q-23 0 -34 -25 t-11 -63h-59q0 21 -4 40t-14.5 33.5t-26.5 14.5q-24 0 -41.5 -27t-17.5 -61q0 -50 31 -92q17 -17 28 -26h-175q-18 13 -30 26q-29 40 -29 92z" />
<glyph horiz-adv-x="2090" d="M65 973q51 92 121 162q168 162 394 162q154 0 293 -51.5t219 -153.5q11 22 29 46t51.5 53.5t74.5 52t102.5 38t130.5 15.5q70 0 139.5 -17t135.5 -55t116 -92t80 -133.5t30 -174.5v-1261q0 -68 -59 -127q-18 -21 -59 -50h-59v1409q0 90 -28.5 159.5t-78 111t-112 63 t-133.5 21.5q-61 0 -109.5 -15t-78.5 -36t-52.5 -51t-32.5 -54.5t-15.5 -52.5t-6.5 -39t-1 -19v-1320q0 -68 -59 -127q-18 -21 -59 -50h-59v1438q0 77 -25 136.5t-64 94.5t-93.5 57t-106.5 30t-110 8q-141 0 -253 -90q-52 -41 -85 -88l177 -148q-17 -21 -30 -52 q-29 -77 -29 -183v-384q0 -19 5.5 -32t12.5 -19t20.5 -8.5t23.5 -2t28 1.5t28 1v-147h-118q-91 0 -134 48t-43 158v384q0 84 29 173q14 38 30 62q-17 14 -47 39.5t-42 35.5q-88 71 -88 73z" />
<glyph horiz-adv-x="2090" d="M65 0v147h88q12 2 19.5 14.5t10 36.5t2.5 43.5t-1 49.5t-1 42v257q0 84 29 173q14 38 30 62q-17 14 -47 39.5t-42 35.5q-88 71 -88 73q51 92 121 162q168 162 394 162q154 0 293 -51.5t219 -153.5q11 22 29 46t51.5 53.5t74.5 52t102.5 38t130.5 15.5q70 0 139.5 -17 t135.5 -55t116 -92t80 -133.5t30 -174.5v-1261q0 -68 -59 -127q-18 -21 -59 -50h-59v1409q0 90 -28.5 159.5t-78 111t-112 63t-133.5 21.5q-72 0 -127.5 -17.5t-89 -48t-53 -65.5t-29.5 -77q-19 -85 3 -206v-1173q0 -68 -59 -127q-18 -21 -59 -50h-59v1438q0 77 -25 136.5 t-64 94.5t-93.5 57t-106.5 30t-110 8q-141 0 -253 -90q-52 -41 -85 -88l177 -148q-17 -21 -30 -52q-29 -77 -29 -183v-384q0 -110 -43 -158t-134 -48h-118z" />
</font>
</defs>
</svg>
